<?xml version="1.0" standalone="no"?>
<!DOCTYPE svg PUBLIC "-//W3C//DTD SVG 1.1//EN" "http://www.w3.org/Graphics/SVG/1.1/DTD/svg11.dtd" >
<svg xmlns="http://www.w3.org/2000/svg">
<metadata></metadata>
<defs>
<font id="globerxbold_italic" horiz-adv-x="1406" >
<font-face units-per-em="2048" ascent="1536" descent="-512" />
<missing-glyph horiz-adv-x="411" />
<glyph unicode="&#xfb01;" horiz-adv-x="1228" d="M59 16l177 836h-132q-1 47 15 119q6 31 15.5 59.5t15.5 41.5l6 13h131l24 115q71 336 498 336q133 0 251 -19t170 -38l52 -19q-31 -117 -129 -211q-17 5 -47 12.5t-123.5 20t-187.5 12.5q-78 0 -119 -25t-53 -81l-21 -103h453q45 0 83.5 -4t53.5 -8l16 -4l-223 -1053 q-60 -16 -162 -16q-47 0 -85.5 4t-53.5 8l-14 4l176 836h-295l-176 -836q-60 -16 -162 -16q-46 0 -84.5 4t-54.5 8z" />
<glyph unicode="&#xfb02;" horiz-adv-x="1230" d="M59 16l177 836h-132q3 58 15 115q18 75 37 118h131l24 115q71 336 498 336q114 0 234.5 -19t184.5 -38l64 -19l-307 -1444q-60 -16 -162 -16q-47 0 -85.5 4t-53.5 8l-14 4l270 1272q-129 6 -145 6q-78 0 -119 -25t-53 -81l-21 -103h150q0 -55 -15 -116q-12 -63 -37 -117 h-149l-176 -836q-60 -16 -162 -16q-46 0 -84.5 4t-54.5 8z" />
<glyph horiz-adv-x="0" />
<glyph horiz-adv-x="682" />
<glyph unicode=" "  horiz-adv-x="411" />
<glyph unicode="&#x09;" horiz-adv-x="411" />
<glyph unicode="&#xa0;" horiz-adv-x="411" />
<glyph unicode="!" horiz-adv-x="608" d="M18 16l62 293q53 17 162 17q44 0 82.5 -4t54.5 -8l16 -5l-61 -293q-62 -16 -162 -16q-47 0 -85.5 4t-53.5 8zM137 446l172 1012q63 17 174 17q47 0 89 -4.5t60 -8.5l19 -4l-258 -1012q-51 -18 -131 -18q-36 0 -67 4.5t-45 9.5z" />
<glyph unicode="&#x22;" horiz-adv-x="808" d="M205 1010l47 448q51 17 151 17q42 0 78.5 -4.5t52.5 -8.5l15 -4l-141 -448q-39 -15 -107 -15q-29 0 -53 3.5t-34 7.5zM559 1010l47 448q54 17 154 17q42 0 77.5 -4.5t50.5 -8.5l15 -4l-141 -448q-39 -15 -105 -15q-30 0 -54.5 3.5t-34.5 7.5z" />
<glyph unicode="#" horiz-adv-x="1382" d="M-18 215q-6 43 10 119q7 36 17.5 67t16.5 43l7 13h217l170 344h-144q-5 49 11 121q11 63 41 118h211l106 217q65 19 129 19q74 0 129 -19l-106 -217h207l106 217q65 19 135 19q69 0 121 -19l-106 -217h141q4 -63 -8 -110q-10 -57 -43 -129h-209l-170 -344h135 q8 -45 -8 -121q-7 -33 -18 -63t-18 -44l-7 -14h-203l-96 -197q-58 -18 -129 -18q-75 0 -127 18l94 197h-207l-94 -197q-61 -18 -137 -18q-68 0 -121 18l96 197h-149zM506 457h207l170 344h-207z" />
<glyph unicode="$" horiz-adv-x="1159" d="M-29 92q4 49 39 119q16 31 35.5 59t30.5 40l12 12q20 -6 55.5 -16t135.5 -26t188 -16q244 0 270 129q9 43 -14.5 75t-69 50t-104.5 37t-121 36.5t-118.5 47t-97 70t-57 105.5t2.5 153q35 165 157.5 267t319.5 128l33 237q51 17 129 17q37 0 68.5 -4t44.5 -8l12 -5 l-68 -231q83 -5 161.5 -19.5t116.5 -26.5l37 -11q-8 -53 -45 -121q-15 -28 -35 -54t-33 -38l-12 -13q-132 39 -282 39q-258 0 -285 -129q-8 -38 16.5 -66.5t70.5 -45.5t106 -35.5t122.5 -37.5t119 -51t97.5 -75.5t57 -111t-3 -158.5q-78 -360 -500 -406l-35 -256 q-45 -16 -129 -16q-35 0 -66 4t-45 8l-14 4l72 252q-103 6 -196.5 28t-135.5 41z" />
<glyph unicode="%" horiz-adv-x="1566" d="M143 -6l1094 1429q39 15 119 15q35 0 64 -4t41 -8l12 -3l-1094 -1429q-41 -14 -121 -14q-35 0 -63.5 3.5t-40.5 6.5zM145 1061q74 356 377 356q147 0 207.5 -84.5t20.5 -271.5t-136 -271.5t-243 -84.5t-206.5 84.5t-19.5 271.5zM348.5 938q3.5 -42 16.5 -54t43 -12 q44 0 69.5 36t50.5 153q23 123 12.5 157.5t-53.5 34.5q-44 0 -70.5 -37.5t-51.5 -154.5q-20 -81 -16.5 -123zM848 336q74 356 377 356q147 0 207 -84.5t20 -271.5t-136 -271.5t-243 -84.5t-206 84.5t-19 271.5zM1053.5 179.5q9.5 -32.5 54.5 -32.5q30 0 48.5 12t38 54.5 t36.5 122.5q23 123 12.5 157.5t-53.5 34.5q-45 0 -71.5 -38t-51.5 -154q-23 -124 -13.5 -156.5z" />
<glyph unicode="&#x26;" horiz-adv-x="1325" d="M-4 334q17 80 61.5 152.5t105 126.5t111.5 89t105 64q-33 158 -4 307q34 157 145.5 248.5t296.5 91.5q160 0 238 -70.5t51 -197.5q-12 -58 -41.5 -111t-66 -94t-89 -82t-99 -70.5t-108.5 -64.5q59 -126 179 -256q44 53 114 166q67 1 121.5 -27t77.5 -76 q-64 -95 -158 -192q88 -62 199 -113q-21 -73 -80 -137t-123 -90q-128 55 -235 133q-216 -151 -453 -151q-86 0 -156 21t-121 62.5t-70.5 111t-0.5 159.5zM293 375q-15 -74 24.5 -119t118.5 -45q106 0 209 57q-129 138 -203 312q-128 -98 -149 -205zM643 1098q-19 -93 2 -195 q76 49 123 103.5t63 128.5q8 41 -9 66.5t-58 25.5q-95 0 -121 -129z" />
<glyph unicode="'" horiz-adv-x="454" d="M203 1010l49 448q51 17 151 17q42 0 78.5 -4.5t52.5 -8.5l15 -4l-141 -448q-41 -15 -107 -15q-29 0 -53.5 3.5t-34.5 7.5z" />
<glyph unicode="(" horiz-adv-x="618" d="M42.5 337q6.5 163 39.5 318t94.5 316t125.5 279.5t123 214.5t97 146l37 50q60 4 121 -33q27 -16 46 -37t24 -34l6 -13q-11 -14 -29.5 -40t-71 -114.5t-99 -185t-99.5 -246t-86 -303.5t-44 -302t-3.5 -249.5t19.5 -181t24 -117.5l12 -38q-4 -6 -11.5 -15.5t-36.5 -32 t-65 -38.5q-35 -15 -68 -22.5t-49 -8.5h-16q-7 18 -17.5 52t-33.5 141.5t-34.5 219t-5 274.5z" />
<glyph unicode=")" horiz-adv-x="618" d="M-127 -233q11 14 30 40t72 114t99.5 184.5t99.5 246t86 303.5t44 302t3 249.5t-20 181t-25 118.5l-12 38q34 47 112 84q35 16 68.5 24.5t49.5 8.5h16q7 -18 17.5 -52t33.5 -141.5t34.5 -219t5 -275t-39.5 -318.5t-94.5 -316t-125.5 -279t-123 -214.5t-96 -145.5l-38 -50 q-60 -2 -121 31q-30 16 -49 37.5t-23 35.5z" />
<glyph unicode="*" horiz-adv-x="669" d="M193 1217q21 95 77 143l131 -45l33 149q80 24 154 -2l-33 -147l156 45q32 -49 12 -143l-152 -48l66 -125q-70 -66 -148 -86l-59 121l-113 -121q-66 19 -110 86l115 123z" />
<glyph unicode="+" horiz-adv-x="929" d="M49 481q-6 43 10 113q6 31 15.5 59.5t15.5 40.5l6 13h273l59 274q45 14 115 14q31 0 58.5 -3.5t39.5 -7.5l12 -3l-59 -274h274q6 -43 -8 -113q-7 -31 -17 -59.5t-16 -40.5l-6 -13h-274l-58 -272q-46 -16 -116 -16q-31 0 -58.5 4t-38.5 8l-12 4l58 272h-273z" />
<glyph unicode="," horiz-adv-x="520" d="M-53 -225q10 9 25.5 27t50 76.5t51.5 121.5q-28 2 -52.5 6t-35.5 7l-11 3l62 293q62 17 162 17q44 0 82 -4t55 -8l16 -5l-45 -211q-15 -73 -48 -141t-69 -113t-69.5 -80t-55.5 -51l-22 -16z" />
<glyph unicode="-" horiz-adv-x="716" d="M94 481q-6 43 10 113q6 31 15.5 59.5t15.5 40.5l6 13h465q6 -43 -8 -113q-7 -31 -17 -59.5t-16 -40.5l-6 -13h-465z" />
<glyph unicode="." horiz-adv-x="520" d="M-25 16l62 293q56 17 162 17q45 0 83.5 -4t53.5 -8l16 -5l-61 -293q-60 -16 -162 -16q-47 0 -85.5 4t-53.5 8z" />
<glyph unicode="/" horiz-adv-x="1079" d="M-109 -78l1020 1596q68 18 162 18q44 0 83.5 -4.5t57.5 -9.5l17 -4l-1020 -1596q-68 -18 -162 -18q-44 0 -83.5 4.5t-57.5 9.5z" />
<glyph unicode="0" horiz-adv-x="1277" d="M106 696q80 374 255 549.5t446 175.5q272 0 374 -174.5t21 -550.5q-80 -377 -255.5 -551t-446.5 -174q-272 0 -373 174t-21 551zM409.5 460.5q-6.5 -93.5 11 -143.5t49.5 -69t85 -19q72 0 121 35t94.5 139t85.5 293q31 144 39 237t-8.5 143t-47.5 68.5t-85 18.5 q-53 0 -93 -18.5t-79 -68.5t-72 -143.5t-64 -236.5q-30 -142 -36.5 -235.5z" />
<glyph unicode="1" horiz-adv-x="876" d="M120 980q-9 68 17 144q132 36 230.5 97.5t187.5 160.5q62 19 164 19q44 0 83.5 -4.5t57.5 -9.5l17 -5l-289 -1364q-62 -18 -164 -18q-44 0 -84 4.5t-58 9.5l-18 4l168 793q18 83 47 193q-136 -93 -311 -132q-39 40 -48 108z" />
<glyph unicode="2" horiz-adv-x="1101" d="M-43 0q-2 70 16 152q11 50 29 97t37 84.5t50 76t54.5 65t64.5 60t65 52t71.5 48.5t70 43t72.5 43q154 93 213.5 151t77.5 140q17 76 -31 114.5t-149 38.5q-64 0 -136.5 -13.5t-113.5 -26.5l-41 -13q-38 35 -49.5 96t8.5 127q8 3 22 9t60.5 21t95 26t120.5 20.5t141 9.5 q225 0 334.5 -101t68.5 -300q-16 -73 -45.5 -133.5t-66.5 -106.5t-97 -91.5t-119 -81t-149 -83.5q-26 -14 -73 -37t-77 -39t-64.5 -38.5t-56 -49t-30.5 -57.5q-2 -10 -2 -33h579q14 -55 -2 -135q-17 -80 -55 -135h-893z" />
<glyph unicode="3" horiz-adv-x="1089" d="M-53 55q11 59 46.5 123t78.5 101q132 -41 282 -41q131 0 197.5 42.5t87.5 143.5q21 96 -19.5 140t-156.5 44h-187q-8 56 6.5 123t45.5 119h186q176 0 207 156q18 86 -25 124.5t-147 38.5q-68 0 -133.5 -10.5t-97.5 -20.5l-31 -10q-40 34 -54 93t3 122q7 3 20 8.5t54.5 19 t85 23.5t108.5 18.5t129 8.5q233 0 344 -96.5t72 -282.5q-48 -224 -242 -305q204 -88 147 -352q-43 -200 -196 -302.5t-441 -102.5q-69 0 -132.5 7.5t-104.5 19t-73 22.5t-46 19z" />
<glyph unicode="4" horiz-adv-x="1206" d="M-6 317q-12 43 6 123q7 36 19 67t20 45l8 13l770 817q64 19 166 19q45 0 83 -4.5t54 -9.5l15 -5l-172 -817h159q8 -45 -8 -125q-8 -36 -19 -66.5t-19 -43.5l-7 -13h-160l-63 -299q-60 -18 -152 -18q-43 0 -80 4.5t-53 9.5l-16 4l63 299h-614zM350 565h312l90 424z" />
<glyph unicode="5" horiz-adv-x="1081" d="M-57 53q27 139 120 223q121 -38 279 -38q130 0 203.5 45t93.5 141q23 108 -28.5 150t-196.5 42t-262 -8l167 793h783q7 -61 -8 -133t-47 -129h-476l-59 -277q54 0 113 -6q423 -28 338 -432q-46 -216 -212.5 -330t-441.5 -114q-71 0 -134.5 7.5t-104 18t-70.5 21.5t-44 19 z" />
<glyph unicode="6" horiz-adv-x="1130" d="M66 530q88 412 347 629.5t662 241.5q9 -54 -5.5 -124t-45.5 -124q-192 -21 -317 -91.5t-203 -209.5q101 22 182 22q94 0 166 -25.5t122 -80.5t63.5 -141t-9.5 -207q-48 -223 -200 -331.5t-388 -108.5q-235 0 -334.5 135.5t-39.5 414.5zM367.5 337q8.5 -69 38 -96.5 t83.5 -27.5q80 0 136 51t80 156q46 217 -132 217q-74 0 -167 -29q-11 -36 -21 -86q-26 -116 -17.5 -185z" />
<glyph unicode="7" horiz-adv-x="1026" d="M55 12q28 132 74 248t100.5 203t114.5 162t122 139.5t117.5 121.5t106 122t82.5 127h-598q-8 53 10 135q7 36 18.5 69t19.5 47l7 15h901q3 -71 -18 -162q-23 -95 -70.5 -182.5t-106 -158.5t-125.5 -142t-134.5 -148t-128 -161t-110.5 -196t-77 -239q-58 -12 -153 -12 q-99 0 -152 12z" />
<glyph unicode="8" horiz-adv-x="1191" d="M27 350q49 222 313 355q-172 129 -125 346q36 169 181.5 269.5t365.5 100.5q214 0 316 -91.5t67 -256.5q-40 -194 -244 -323q36 -25 63.5 -51t52 -60.5t36 -73t15 -88.5t-10.5 -106q-40 -189 -199.5 -294.5t-408.5 -105.5q-234 0 -347 98t-75 281zM334 367 q-15 -75 29.5 -116.5t144.5 -41.5q91 0 152.5 42t76.5 114q9 39 -3.5 71.5t-44.5 59t-67 46.5t-85 45q-5 2 -7 3t-5.5 3t-6.5 3q-154 -95 -184 -229zM526 1063q-7 -37 3.5 -67t42 -56.5t61.5 -44t82 -43.5q114 83 139 197q15 72 -20 109.5t-117 37.5q-77 0 -127 -35.5 t-64 -97.5z" />
<glyph unicode="9" horiz-adv-x="1130" d="M88 0q-16 130 53 248q188 17 311.5 88t202.5 211q-93 -21 -178 -21q-93 0 -165 25.5t-122.5 80.5t-64 140t9.5 205q48 224 199.5 334t386.5 110t336 -136t41 -415q-88 -412 -347 -629t-663 -241zM459 977q-25 -117 10 -166t119 -49q75 0 168 26q15 53 22 91 q27 116 17.5 185t-39.5 96.5t-84 27.5q-166 0 -213 -211z" />
<glyph unicode=":" horiz-adv-x="538" d="M-18 16l61 293q56 17 162 17q45 0 83.5 -4t53.5 -8l16 -5l-61 -293q-60 -16 -162 -16q-47 0 -85.5 4t-53.5 8zM141 768l62 293q56 16 162 16q45 0 83.5 -4t53.5 -8l16 -4l-61 -293q-60 -16 -162 -16q-47 0 -85.5 4t-53.5 8z" />
<glyph unicode=";" horiz-adv-x="538" d="M-47 -225q10 9 25.5 27t50 76.5t51.5 121.5q-28 2 -52.5 6t-35.5 7l-10 3l61 293q58 17 162 17q44 0 82 -4t55 -8l16 -5l-45 -211q-15 -73 -48 -141t-69 -113t-69.5 -80t-55.5 -51l-22 -16zM141 768l62 293q56 16 162 16q45 0 83.5 -4t53.5 -8l16 -4l-61 -293 q-60 -16 -162 -16q-47 0 -85.5 4t-53.5 8z" />
<glyph unicode="&#x3c;" horiz-adv-x="870" d="M47 477q-2 49 12 119q6 32 16 61t17 41l6 13l731 293q6 -37 -10 -113q-6 -33 -15.5 -61.5t-15.5 -41.5l-6 -12l-460 -186l380 -180q8 -37 -8 -113q-7 -33 -17 -61t-16 -40l-6 -12z" />
<glyph unicode="=" horiz-adv-x="1054" d="M59 283q-2 55 12 117.5t38 107.5h786q4 -47 -10 -111t-39 -114h-787zM143 678q-2 55 12 117.5t38 107.5h786q4 -47 -10 -111t-39 -114h-787z" />
<glyph unicode="&#x3e;" horiz-adv-x="870" d="M29 184q-6 39 10 113q7 34 16.5 62t14.5 39l6 12l456 180l-376 186q-6 41 8 115q7 34 17 62t16 39l6 12l608 -293q4 -43 -10 -115q-6 -31 -16.5 -61t-17.5 -44l-7 -14z" />
<glyph unicode="?" horiz-adv-x="919" d="M92 16l62 293q52 17 161 17q44 0 82.5 -4t54.5 -8l17 -5l-61 -293q-62 -16 -162 -16q-47 0 -85.5 4t-53.5 8zM203 1339q17 8 48 20.5t128 33t194 20.5q77 0 139.5 -11t117 -36.5t85.5 -67.5t44 -104t-7 -145q-17 -78 -49.5 -138.5t-72 -98.5t-84 -69t-88 -57t-80.5 -54 t-65.5 -69t-39.5 -94q-47 -25 -133 -25q-36 0 -67 6t-43 12l-13 7q18 85 47.5 149.5t63.5 103.5t71 68.5t72.5 52t66 46t54 58.5t33.5 81q16 78 -24.5 108.5t-127.5 30.5q-56 0 -112 -11.5t-83 -23.5l-28 -12q-90 75 -47 219z" />
<glyph unicode="@" horiz-adv-x="1865" d="M78.5 247.5q-38.5 160.5 3.5 368.5q41 192 138.5 342t236.5 246t309.5 145.5t363.5 49.5q252 0 416 -96t223 -271t9 -411q-45 -214 -178 -330.5t-312 -116.5q-215 0 -264 113q-99 -113 -287 -113q-152 0 -215 92t-18 303q45 213 147 305.5t254 92.5q151 0 211 -66l12 55 q42 21 132 21q40 0 70 -5.5t40 -10.5l10 -5l-102 -483q-11 -54 3.5 -80t59.5 -26q142 0 195 254q58 271 -58 427t-388 156q-293 0 -491.5 -166t-262.5 -467q-30 -135 -16 -237t55 -173.5t112 -116t154 -65t182 -20.5q277 0 541 135q32 -18 47 -59.5t10 -89.5 q-323 -189 -651 -189q-166 0 -308 56.5t-243.5 165.5t-140 269.5zM772.5 398q21.5 -44 97.5 -44q58 0 100.5 35t59.5 100l35 168q9 64 -18.5 97.5t-83.5 33.5q-77 0 -118 -45t-69 -174q-25 -127 -3.5 -171z" />
<glyph unicode="A" horiz-adv-x="1376" d="M-115 18l772 1438q82 19 211 19q60 0 110.5 -4.5t71.5 -9.5l21 -5l162 -1438q-61 -18 -176 -18q-47 0 -83 4.5t-48 9.5l-13 4l-32 299h-514l-160 -299q-74 -18 -174 -18q-43 0 -80 4.5t-53 9.5zM494 557h362l-41 371q-6 58 -8 118q-1 40 -1 67v23l1 31h-8 q-37 -110 -107 -239z" />
<glyph unicode="B" horiz-adv-x="1294" d="M12 0l314 1475h602q196 0 286 -120q61 -82 61 -198q0 -55 -13 -117q-40 -189 -230 -286q86 -40 124 -136q23 -57 23 -122q0 -44 -10 -93q-42 -201 -184.5 -302t-361.5 -101h-611zM389 238h221q191 0 234 196q7 35 7 64q0 133 -159 133h-221zM522 866h211q81 0 134 50 t71 137q7 34 7 62q0 45 -19 75q-31 48 -113 49h-211z" />
<glyph unicode="C" horiz-adv-x="1159" d="M90 440q-3 34 -3 69q0 121 32 265q155 725 796 725q69 0 131.5 -8t102 -20t69.5 -24t43 -20l13 -8q-20 -129 -141 -225q-103 41 -232 41q-82 0 -147 -23.5t-123 -79t-102.5 -154.5t-75.5 -243q-25 -115 -27 -201v-22q0 -72 14 -120q16 -56 52.5 -89.5t84 -47t113.5 -13.5 q62 0 129 11t103 23l36 11q36 -41 49 -103q6 -30 6 -61q0 -33 -7 -68q-6 -3 -18 -8.5t-53 -19.5t-85.5 -24.5t-115.5 -19t-144 -8.5q-155 0 -264.5 55t-166.5 158.5t-69 251.5z" />
<glyph unicode="D" horiz-adv-x="1363" d="M12 0l314 1475h505q306 0 426 -192q70 -112 71 -293q0 -128 -36 -290q-42 -196 -111.5 -332.5t-168.5 -216.5t-219 -115.5t-275 -35.5h-506zM395 256h166q59 0 105 12t91 43.5t80.5 85t67 139t56.5 201.5q25 117 29 203q1 22 2 42q0 58 -10 98q-13 54 -45 85t-73 42.5 t-100 11.5h-166z" />
<glyph unicode="E" horiz-adv-x="1144" d="M12 0l314 1475h897q3 -22 3 -45q0 -36 -7 -74q-14 -68 -50 -131h-569l-76 -357h467q1 -26 1 -48q0 -44 -5 -72q-15 -64 -49 -127h-467l-78 -371h590q3 -23 3 -45q0 -39 -9 -78q-18 -80 -47 -127h-918z" />
<glyph unicode="F" horiz-adv-x="1103" d="M16 18l310 1457h876q2 -21 2 -42q0 -40 -8 -81q-14 -70 -47 -127h-549l-82 -383h488q4 -20 4 -43q0 -35 -9 -78q-19 -79 -49 -129h-487l-121 -574q-68 -18 -170 -18q-44 0 -83.5 4.5t-56.5 9.5z" />
<glyph unicode="G" horiz-adv-x="1300" d="M115 774q155 721 829 721q76 0 144.5 -8.5t113 -20.5t78 -24t48.5 -20l15 -9q-37 -143 -141 -227q-14 5 -38.5 13.5t-97 22t-140.5 13.5q-88 0 -159 -24t-134.5 -79.5t-111.5 -155t-79 -241.5q-24 -115 -27 -199v-26q0 -68 13 -115q17 -56 56 -89.5t92.5 -47.5t130.5 -14 l114 6l76 360h-235q-4 17 -4 39q0 35 10 84q8 36 20 68t20 45l7 14h530l-170 -799q-7 -3 -20 -8.5t-58 -19.5t-94 -24.5t-125 -19.5t-155 -9q-326 0 -457 210q-81 130 -81 325q0 118 30 259z" />
<glyph unicode="H" horiz-adv-x="1402" d="M14 18l305 1438q66 19 166 19q45 0 85.5 -4.5t58.5 -9.5l18 -5l-121 -567h461l121 567q68 19 168 19q44 0 84 -4.5t58 -9.5l18 -5l-306 -1438q-65 -18 -165 -18q-49 0 -89.5 4.5t-56.5 9.5l-16 4l129 605h-461l-129 -605q-70 -18 -168 -18q-48 0 -88 4.5t-56 9.5z" />
<glyph unicode="I" horiz-adv-x="614" d="M14 18l305 1438q66 19 166 19q45 0 85.5 -4.5t58.5 -9.5l18 -5l-305 -1438q-70 -18 -168 -18q-48 0 -88 4.5t-56 9.5z" />
<glyph unicode="J" horiz-adv-x="956" d="M-96 49q13 66 48 129.5t87 106.5q78 -33 172 -33q202 0 246 197l213 1007q59 19 168 19q45 0 85 -4.5t57 -9.5l17 -5l-221 -1038q-45 -213 -191 -325.5t-356 -112.5q-57 0 -111.5 7t-91.5 17t-65.5 20.5t-42.5 17.5z" />
<glyph unicode="K" horiz-adv-x="1290" d="M14 18l305 1438q64 19 170 19q46 0 85.5 -4.5t55.5 -9.5l17 -5l-121 -567h80l465 567q89 19 174 19q81 0 170 -19l-565 -694l324 -744q-80 -18 -197 -18q-51 0 -90 4.5t-53 9.5l-13 4l-248 625h-98l-133 -625q-55 -18 -168 -18q-46 0 -86 4.5t-57 9.5z" />
<glyph unicode="L" horiz-adv-x="1085" d="M12 0l310 1456q65 19 165 19q45 0 85.5 -4.5t58.5 -9.5l18 -5l-252 -1190h574q2 -17 2 -36q0 -44 -10 -97q-11 -49 -50 -133h-901z" />
<glyph unicode="M" horiz-adv-x="1705" d="M14 18l305 1438q117 19 205 19q50 0 98 -4.5t70 -9.5l23 -5l82 -377q54 -254 57 -395h10q43 105 119 234q65 105 196.5 310.5t145.5 227.5q88 19 203 19q102 0 211 -19l-305 -1438q-60 -18 -160 -18q-45 0 -84 4.5t-56 9.5l-16 4l92 431q36 178 85 371.5t79 277.5h-12 q-32 -64 -115.5 -207.5t-165.5 -272.5l-198 -313q-45 -14 -121 -14q-34 0 -60 3.5t-36 7.5l-9 3q-50 216 -65 301q-30 128 -53.5 276t-26.5 216h-12q0 -70 -29 -252t-68 -365l-98 -463q-57 -18 -149 -18q-40 0 -75.5 4.5t-50.5 9.5z" />
<glyph unicode="N" horiz-adv-x="1443" d="M14 18l305 1438q74 19 213 19q62 0 111.5 -4.5t68.5 -9.5l19 -5l162 -741q17 -77 34.5 -169t26.5 -145l9 -53h8q22 197 69 416l148 692q57 19 151 19q43 0 77.5 -4.5t47.5 -9.5l13 -5l-306 -1438q-67 -18 -208 -18q-58 0 -109 4.5t-72 9.5l-22 4l-170 748q-17 77 -34 163 t-26 133l-8 48h-10q-14 -170 -61 -391l-150 -701q-51 -18 -149 -18q-43 0 -77.5 4.5t-47.5 9.5z" />
<glyph unicode="O" d="M102 330q-18 75 -18 166q0 123 33 276q82 382 271.5 552.5t485.5 170.5q192 0 313.5 -86.5t164.5 -262.5q18 -75 18 -165q0 -123 -33 -276q-42 -197 -111.5 -337.5t-166 -225t-213.5 -123.5t-264 -39q-194 0 -316 87t-164 263zM420 488v-20q0 -85 23 -133 q26 -54 68.5 -75.5t109.5 -21.5q54 0 96.5 13t84.5 46t76 89t65 143.5t56 207.5q31 150 35 250q0 12 1 23q-1 84 -23 132q-26 54 -68 75.5t-110 21.5q-67 0 -118.5 -21.5t-100 -76t-88.5 -154.5t-72 -250q-32 -149 -35 -249z" />
<glyph unicode="P" horiz-adv-x="1239" d="M16 18l310 1457h567q219 1 317 -137q65 -92 66 -223q0 -64 -16 -138q-45 -216 -193.5 -329t-374.5 -113h-239l-109 -517q-64 -18 -168 -18q-49 0 -89 4.5t-55 9.5zM508 788h192q91 0 152.5 56t83.5 160q9 40 9 72q0 54 -24 88q-38 55 -130 55h-193z" />
<glyph unicode="Q" d="M117 772q82 382 273 554.5t487 172.5q291 0 417 -203q77 -121 77 -310q0 -126 -34 -281q-84 -408 -305 -588q94 -73 240 -101q-25 -86 -86 -156.5t-127 -99.5q-177 66 -268 238q-108 -23 -209 -23q-295 0 -422 203q-76 123 -76 314q0 125 33 280zM420 488v-18 q0 -88 24 -138q25 -55 67.5 -77t109.5 -22q68 0 119.5 22t100 77t87.5 155.5t71 249.5q32 150 36 251q1 13 1 26q0 82 -22 130q-25 55 -67.5 77t-110.5 22q-67 0 -119 -22t-101 -77t-89 -156t-72 -251q-32 -149 -35 -249z" />
<glyph unicode="R" horiz-adv-x="1304" d="M16 18l310 1457h563q152 0 249 -66q97 -67 128 -175q16 -56 16 -119q0 -60 -14 -126q-58 -274 -334 -377l207 -594q-72 -18 -191 -18q-51 0 -91.5 4.5t-55.5 9.5l-15 4l-180 553h-147l-117 -553q-66 -18 -166 -18q-49 0 -89.5 4.5t-56.5 9.5zM516 825h189q93 0 150.5 51 t78.5 146q7 34 7 62q1 52 -23 86q-36 52 -130 51h-188z" />
<glyph unicode="S" horiz-adv-x="1173" d="M-41 76q13 64 49 132t82 118q19 -7 53 -17.5t132.5 -28.5t189.5 -18q235 0 270 158q3 15 3 28q0 46 -34 78q-44 41 -139 76q-38 14 -65.5 24.5t-65.5 28t-65.5 34.5t-59 41.5t-52.5 50t-40 60.5t-27 73t-8 85.5t11 100.5q42 200 192.5 299.5t425.5 99.5 q118 0 221.5 -17.5t147.5 -34.5l45 -17q-14 -69 -48.5 -133.5t-84.5 -108.5q-127 41 -289 41q-258 0 -293 -158q-5 -24 0 -44t21.5 -36.5t35 -29t51 -26t58 -23t66.5 -24t67 -24.5q52 -21 95.5 -50t81.5 -71.5t58 -94.5q22 -52 28 -120q2 -17 1 -36q0 -52 -14 -111 q-46 -207 -200.5 -306.5t-432.5 -99.5q-84 0 -163 10.5t-132 25t-93.5 29.5t-59.5 26z" />
<glyph unicode="T" horiz-adv-x="1155" d="M176 1200q-4 19 -4 42q0 41 12 93q7 36 19.5 71t20.5 52l9 17h1049q3 -19 3 -41q0 -43 -11 -95q-7 -36 -19.5 -70.5t-20.5 -51.5l-9 -17h-357l-252 -1182q-69 -18 -167 -18q-48 0 -87.5 4.5t-55.5 9.5l-15 4l252 1182h-367z" />
<glyph unicode="U" horiz-adv-x="1382" d="M109 514l200 942q62 19 166 19q46 0 86 -4.5t57 -9.5l17 -5l-205 -967q-9 -40 -8 -73q0 -63 30 -103q48 -61 162 -61q115 0 187.5 60.5t97.5 176.5l205 967q60 19 164 19q46 0 86 -4.5t56 -9.5l17 -5l-200 -942q-54 -256 -227.5 -397.5t-428.5 -141.5q-259 0 -387 144 q-91 102 -90 258q0 64 15 137z" />
<glyph unicode="V" horiz-adv-x="1361" d="M193 1450q73 25 184 25q45 0 80 -5.5t47 -10.5l12 -5l82 -815q8 -84 10 -166q1 -41 1 -71.5t-1 -50.5l-2 -40h8q48 137 150 330l428 813q64 21 170 21q45 0 85 -5.5t57 -10.5l18 -5l-760 -1438q-88 -16 -213 -16q-57 0 -109 4t-75 8l-23 4z" />
<glyph unicode="W" horiz-adv-x="2015" d="M205 1456q64 19 170 19q45 0 83 -4.5t53 -9.5l15 -5l23 -819q0 -71 -3 -153t-6 -128l-3 -47h8q49 164 117 326l344 821q63 19 192 19q56 0 102.5 -4.5t65.5 -9.5l18 -5l-6 -819q-2 -76 -8.5 -158t-11.5 -126l-6 -44h8q47 148 127 326l375 821q59 19 151 19q40 0 77 -4.5 t54 -9.5l17 -5l-660 -1438q-78 -18 -205 -18q-58 0 -109.5 4.5t-74.5 9.5l-22 4l8 785q2 97 10.5 189t16.5 136l8 43h-11q-35 -149 -127 -368l-323 -785q-92 -18 -221 -18q-124 0 -201 18z" />
<glyph unicode="X" horiz-adv-x="1314" d="M-131 16l614 766l-256 674q68 19 195 19q49 0 88.5 -4.5t54.5 -9.5l15 -5l172 -424l342 424q87 19 190 19q87 0 168 -19l-559 -694l295 -739q-68 -23 -187 -23q-52 0 -91.5 5t-52.5 10l-13 5l-211 494l-385 -498q-75 -16 -197 -16q-117 0 -182 16z" />
<glyph unicode="Y" horiz-adv-x="1325" d="M190 1456q72 19 197 19q49 0 87.5 -4.5t52.5 -9.5l14 -5l180 -534l412 534q88 19 192 19q47 0 90 -4.5t63 -9.5l19 -5l-682 -872l-121 -566q-60 -18 -164 -18q-52 0 -92 4.5t-54 9.5l-15 4l118 564z" />
<glyph unicode="Z" horiz-adv-x="1247" d="M-59 0q-2 16 -2 36q0 43 10 103q17 79 49 131l881 936h-625v23q0 58 12 119q11 60 45 127h1010q3 -21 3 -44q0 -38 -9 -83q-15 -79 -51 -142l-893 -936h721v-19q0 -51 -13 -112q-15 -75 -45 -139h-1093z" />
<glyph unicode="[" horiz-adv-x="702" d="M-49 -348l426 2007h479q6 -39 -10 -115q-6 -33 -15.5 -60.5t-15.5 -38.5l-6 -11h-184l-332 -1557h184q6 -39 -8 -113q-7 -34 -17 -62t-16 -39l-6 -11h-479z" />
<glyph unicode="\" horiz-adv-x="1075" d="M223 1518q70 18 168 18q43 0 82 -4.5t57 -9.5l17 -4l344 -1596q-68 -18 -168 -18q-42 0 -81 4.5t-57 9.5l-18 4z" />
<glyph unicode="]" horiz-adv-x="704" d="M-139 -348q-6 36 10 112q6 33 15.5 61t15.5 40l6 12h184l332 1557h-184q-6 36 8 110q7 34 17 62.5t16 40.5l6 12h479l-426 -2007h-479z" />
<glyph unicode="^" horiz-adv-x="1091" d="M121 920l487 540q49 15 123 15q33 0 63 -3.5t44 -7.5l14 -4l252 -540q-53 -15 -129 -15q-34 0 -66.5 3.5t-48.5 7.5l-16 4l-160 337l-301 -337q-61 -15 -137 -15q-34 0 -65 3.5t-45 7.5z" />
<glyph unicode="_" horiz-adv-x="1112" d="M-84 -238q-8 29 8 99q6 31 15 55.5t15 33.5l5 9h915q8 -28 -6 -98q-7 -31 -16.5 -56t-15.5 -34l-5 -9h-915z" />
<glyph unicode="`" horiz-adv-x="487" d="M37 1571q42 52 129.5 83.5t161.5 22.5l123 -301q-67 -70 -195 -90z" />
<glyph unicode="a" horiz-adv-x="1142" d="M61 569q26 123 63.5 216t82 153.5t101.5 97.5t118 52.5t135 15.5q92 0 148.5 -23.5t93.5 -81.5l31 72q39 12 139 12q44 0 82 -3t53 -6l16 -3l-223 -1055q-61 -16 -145 -16q-38 0 -73 4t-51 8l-16 4l2 84q-114 -120 -294 -120t-254 144q-39 76 -40 197q0 107 31 248z M360 382q-1 -11 -1 -21q0 -47 12 -75q14 -34 40 -47.5t70 -13.5q67 0 117 48t68 124l61 291q5 24 5 45q0 45 -20 77q-30 48 -96 48q-59 0 -98.5 -25.5t-73.5 -96.5t-61 -199q-20 -94 -23 -155z" />
<glyph unicode="b" horiz-adv-x="1150" d="M-16 16l319 1504q58 16 158 16q44 0 83.5 -4t56.5 -8l17 -4l-110 -521q113 107 285 107q181 0 253 -143q38 -75 38 -195q0 -108 -31 -252q-32 -153 -82 -260t-116 -166t-138.5 -84.5t-163.5 -25.5q-172 0 -242 102l-12 -66q-64 -16 -164 -16q-44 0 -82 4t-53 8zM381 410 q-6 -31 -6 -57q0 -46 19 -78q30 -50 98 -50q58 0 97.5 25t73.5 95.5t60 195.5q19 97 23 159q1 12 1 23q0 45 -11 73q-14 34 -40 48t-69 14q-67 0 -118.5 -50.5t-70.5 -135.5z" />
<glyph unicode="c" horiz-adv-x="913" d="M53 539q120 567 598 567q95 0 168 -16t99 -32l26 -16q-13 -59 -50 -117.5t-85 -97.5q-58 29 -150 29q-116 0 -180 -73t-100 -242q-17 -79 -17 -136q0 -61 20 -97q38 -70 155 -70q44 0 87.5 7.5t65.5 14.5l21 8q48 -58 48 -153q0 -30 -5 -64q-5 -3 -14 -7.5t-41.5 -17 t-69 -22t-95.5 -17t-122 -7.5q-240 0 -330 138q-54 83 -53 217q0 90 24 204z" />
<glyph unicode="d" horiz-adv-x="1144" d="M61 567q32 154 80 260t112.5 166.5t137.5 86.5t166 26q170 0 238 -107l110 521q62 16 162 16q44 0 82.5 -4t54.5 -8l17 -4l-320 -1504q-61 -16 -145 -16q-38 0 -73 4t-51 8l-16 4l2 84q-114 -120 -301 -120q-180 0 -250 142q-37 74 -37 193q0 108 31 252zM360 346 q6 -70 34 -95.5t87 -25.5q67 0 117 48t68 124l61 291q5 24 5 45q0 45 -20 77q-30 48 -96 48q-59 0 -98.5 -25t-73.5 -95.5t-61 -198.5q-24 -103 -24 -168q0 -13 1 -25z" />
<glyph unicode="e" horiz-adv-x="1042" d="M57 569q61 282 209.5 409.5t380.5 127.5q89 0 161 -28t122 -84q49 -56 66 -138q7 -36 7 -77q0 -53 -12 -115q-13 -60 -29 -113.5t-26 -77.5l-10 -24h-570q-5 -34 -6 -62q0 -69 34 -103q47 -46 148 -46q56 0 113 12t86 24l29 13q31 -34 46 -95q8 -34 8 -67q0 -27 -5 -53 q-5 -4 -14.5 -10t-43.5 -22t-72.5 -28t-101.5 -22t-131 -10q-251 0 -350 151q-62 94 -62 241q0 89 23 197zM395 645h291q18 59 19 64q6 33 6 60q0 108 -103 108q-141 0 -213 -232z" />
<glyph unicode="f" horiz-adv-x="747" d="M59 16l177 836h-132q4 71 13 117q17 67 37 108h131l26 123q34 163 141.5 249.5t309.5 86.5q75 0 140 -14t92 -28l28 -13q-34 -118 -131 -211q-49 24 -143 24q-53 0 -83 -25t-42 -81l-23 -111h205q1 -9 1 -19q0 -43 -11 -93q-14 -67 -39 -113h-205l-176 -836 q-60 -16 -162 -16q-46 0 -84.5 4t-54.5 8z" />
<glyph unicode="g" horiz-adv-x="1144" d="M-66 -428q32 127 123 203q10 -5 29 -13t75.5 -21t112.5 -13q46 0 81 6t73.5 26.5t67.5 55t55 94.5t43 143l8 31q-113 -104 -283 -104q-88 0 -149.5 32.5t-98.5 103t-39 181.5v14q0 107 29 254q32 153 81 260t113 167.5t136 87t162 26.5q178 0 244 -105l14 68 q64 16 164 16q44 0 82 -4t53 -8l16 -4l-217 -1016q-62 -293 -219 -429t-409 -136q-64 0 -123.5 8.5t-98.5 21t-68.5 25t-42.5 21.5zM360 380v-20q0 -48 12 -76q15 -33 41 -46t68 -13q66 0 117 50t72 128l57 271q5 29 5 54q0 47 -18 80q-29 50 -98 50q-43 0 -74 -12.5 t-60.5 -46t-53.5 -97.5t-45 -163q-20 -96 -23 -159z" />
<glyph unicode="h" horiz-adv-x="1122" d="M-16 16l319 1504q54 16 160 16q45 0 84 -4t55 -8l16 -4l-108 -512q125 98 295 98q152 0 213 -92q40 -61 40 -148q0 -45 -11 -98l-160 -752q-58 -16 -162 -16q-47 0 -85.5 4t-53.5 8l-15 4l152 719q4 20 4 37q0 86 -109 86q-78 0 -153 -57l-166 -785q-60 -16 -162 -16 q-47 0 -85.5 4t-53.5 8z" />
<glyph unicode="i" horiz-adv-x="542" d="M-16 16l223 1053q53 16 162 16q44 0 82.5 -4t54.5 -8l16 -4l-223 -1053q-62 -16 -162 -16q-47 0 -85.5 4t-53.5 8zM244 1243l59 277q51 16 160 16q44 0 83 -4t56 -8l16 -4l-59 -277q-62 -16 -162 -16q-47 0 -85.5 4t-53.5 8z" />
<glyph unicode="j" horiz-adv-x="544" d="M-328 -479q0 32 6 69q10 46 27.5 85.5t30.5 56.5l12 16q33 -8 68 -8q112 0 137 125l256 1204q58 16 162 16q44 0 82 -4t55 -8l16 -4l-266 -1249q-71 -332 -403 -332q-52 0 -97.5 8t-65.5 16zM246 1239l57 279q56 16 162 16q45 0 83.5 -4t53.5 -8l16 -4l-57 -279 q-60 -16 -162 -16q-47 0 -85.5 4t-53.5 8z" />
<glyph unicode="k" horiz-adv-x="1062" d="M-16 16l319 1508q64 12 162 12q40 0 78 -3t57 -6l18 -3l-178 -844h70l268 389q72 16 172 16q42 0 81.5 -4t58.5 -8l18 -4l-367 -512l191 -541q-74 -18 -180 -18q-45 0 -82 4.5t-52 9.5l-14 4l-141 437h-72l-92 -437q-60 -16 -160 -16q-44 0 -83 4t-56 8z" />
<glyph unicode="l" horiz-adv-x="548" d="M-12 16l319 1504q54 16 160 16q45 0 84 -4t55 -8l17 -4l-320 -1504q-60 -16 -162 -16q-47 0 -85.5 4t-53.5 8z" />
<glyph unicode="m" horiz-adv-x="1681" d="M-16 16l223 1053q56 16 162 16q44 0 78 -4t45 -8l12 -4v-80q60 51 138 84t155 33q173 0 231 -125q149 125 342 125q147 0 206 -96q38 -62 38 -149q0 -49 -12 -105l-156 -740q-64 -16 -162 -16q-46 0 -84.5 4t-53.5 8l-16 4l152 719q5 22 5 40q0 83 -103 83 q-77 0 -146 -57l-166 -785q-63 -16 -161 -16q-46 0 -84.5 4t-54.5 8l-15 4l152 719q5 22 5 40q0 83 -102 83q-76 0 -147 -55l-166 -787q-64 -16 -162 -16q-46 0 -84.5 4t-53.5 8z" />
<glyph unicode="n" horiz-adv-x="1122" d="M-16 16l223 1053q56 16 162 16q45 0 79.5 -4t45.5 -8l12 -4v-86q138 121 299 121q155 0 214 -92q37 -57 36 -144q0 -53 -13 -118l-155 -734q-58 -16 -162 -16q-47 0 -85.5 4t-53.5 8l-15 4l152 719q4 20 4 37q0 86 -109 86q-78 0 -153 -57l-166 -785q-60 -16 -162 -16 q-47 0 -85.5 4t-53.5 8z" />
<glyph unicode="o" horiz-adv-x="1126" d="M59 571q32 150 87 255t133 166t169.5 87.5t208.5 26.5q235 0 337 -145q62 -89 62 -235q0 -92 -24 -206q-32 -150 -86.5 -256t-131.5 -167.5t-169 -89t-209 -27.5q-234 0 -336 148q-64 92 -64 241q0 90 23 202zM356 384q0 -9 1 -19q-1 -51 11 -82q14 -36 40.5 -51 t68.5 -15q55 0 96 27t77.5 100.5t62.5 198.5q20 95 23 159v21q0 49 -12 79q-15 36 -41 50t-67 14q-56 0 -97 -26t-77 -99t-63 -198q-21 -95 -23 -159z" />
<glyph unicode="p" horiz-adv-x="1148" d="M-115 -442l322 1511q60 16 160 16q44 0 83 -4t56 -8l16 -4l-14 -68q111 105 289 105q86 0 146 -31t98.5 -100t40.5 -180v-14q0 -107 -29 -257q-26 -124 -64 -218t-83.5 -155.5t-102.5 -100t-117 -54.5t-131 -16q-176 0 -242 104l-112 -526q-64 -17 -164 -17 q-44 0 -82 4.5t-54 8.5zM383 418q-7 -32 -7 -60q0 -44 17 -78q28 -55 99 -55q41 0 71.5 12.5t60.5 46t54 97.5t45 162q20 95 23 157q1 12 1 23q0 47 -12 75q-15 34 -40.5 47t-67.5 13q-67 0 -118 -49t-71 -131z" />
<glyph unicode="q" horiz-adv-x="1144" d="M63 573q33 153 81.5 259t112.5 165t136 84t164 25q174 0 240 -105l14 68q60 16 160 16q44 0 83 -4t56 -8l16 -4l-321 -1511q-60 -17 -160 -17q-44 0 -83 4.5t-56 8.5l-17 4l113 526q-110 -104 -285 -104q-179 0 -249 145q-36 75 -36 194q0 109 31 254zM360 384v-20 q0 -49 12 -78q15 -34 41 -47.5t68 -13.5q67 0 118.5 52.5t70.5 132.5l57 266q7 32 7 59q0 43 -18 73q-31 50 -100 50q-57 0 -96 -23.5t-74.5 -94.5t-62.5 -197q-20 -96 -23 -159z" />
<glyph unicode="r" horiz-adv-x="843" d="M-16 16l223 1053q58 16 162 16q45 0 74.5 -4t36.5 -8l7 -4l-6 -113q114 148 275 148q100 0 176 -57q-52 -154 -170 -250q-17 18 -53.5 27.5t-71.5 9.5q-92 0 -184 -95l-154 -723q-64 -16 -162 -16q-46 0 -84.5 4t-53.5 8z" />
<glyph unicode="s" horiz-adv-x="921" d="M-55 61q28 135 123 215q14 -5 38 -13t92.5 -21t131.5 -13q150 0 168 90q3 15 0 27.5t-13.5 23t-22 18t-32 16t-36.5 14t-43 14t-44 14.5q-39 13 -71 31.5t-63 47t-47 65.5t-22 87q-2 14 -2 30q0 38 11 81q73 318 477 318q100 0 179 -16t109 -32l29 -16 q-26 -142 -116 -211q-99 33 -220 33q-155 0 -174 -90q-4 -21 6.5 -36.5t35.5 -28t50.5 -21t66.5 -21t67 -22.5q111 -43 157 -123q27 -48 28 -117q0 -47 -13 -104q-35 -165 -153.5 -243t-336.5 -78q-67 0 -128.5 8.5t-101.5 20t-71 23.5t-45 20z" />
<glyph unicode="t" horiz-adv-x="796" d="M84 852q-1 10 -1 20q0 38 11 91q7 34 17 62.5t16 40.5l6 11h148l38 183q65 32 154 46q56 8 109 8q32 0 63 -3l-49 -234h221q2 -11 2 -24q0 -35 -12 -88q-6 -29 -16 -57.5t-17 -41.5l-6 -14h-221l-96 -457q-9 -41 -9 -72q0 -43 19 -65q32 -36 119 -37q18 0 39 2t33 4l12 2 q7 -22 7 -51q0 -33 -9 -74q-6 -28 -15.5 -53.5t-15.5 -36.5l-6 -12q-87 -22 -189 -22q-206 0 -276 96q-43 59 -44 163q0 65 17 148l98 465h-147z" />
<glyph unicode="u" horiz-adv-x="1120" d="M43 336l156 733q57 16 161 16q47 0 85.5 -4t53.5 -8l15 -4l-154 -721q-5 -21 -5 -39q0 -84 108 -84q87 0 160 76l163 768q60 16 162 16q46 0 84.5 -4t53.5 -8l16 -4l-223 -1053q-56 -16 -162 -16q-40 0 -71.5 4t-42.5 8l-11 4v82q-134 -118 -303 -118q-155 0 -219 94 q-41 60 -40 150q0 51 13 112z" />
<glyph unicode="v" horiz-adv-x="1085" d="M109 1069q69 16 167 16q46 0 82.5 -4t49.5 -8l14 -4l45 -479q4 -69 4 -128v-24q-1 -68 -5 -112l-3 -43h8q49 145 133 309l252 477q72 16 160 16q42 0 77.5 -4t50.5 -8l15 -4l-549 -1053q-79 -16 -198 -16q-56 0 -104 4t-68 8l-21 4z" />
<glyph unicode="w" horiz-adv-x="1630" d="M113 1069q63 16 159 16q45 0 78 -4t43 -8l10 -4l27 -479q1 -29 1 -58q0 -112 -15 -239h6q62 183 115 299l219 477q80 16 172 16q44 0 81.5 -4t53.5 -8l16 -4l13 -477v-25q0 -122 -17 -274h6q44 138 117 299l229 477q54 16 142 16q41 0 73.5 -4t45.5 -8l12 -4l-492 -1053 q-81 -16 -192 -16t-182 16l-11 404q-1 20 -1 40q0 153 34 337h-8q-56 -213 -127 -377l-182 -404q-84 -16 -189 -16q-115 0 -188 16z" />
<glyph unicode="x" horiz-adv-x="1075" d="M-129 16l463 547l-205 506q74 16 176 16q48 0 85.5 -4t51.5 -8l13 -4l120 -281l234 281q76 16 170 16q44 0 84.5 -4t58.5 -8l19 -4l-434 -516l239 -537q-76 -16 -178 -16q-48 0 -85.5 4t-50.5 8l-14 4l-147 320l-264 -320q-88 -16 -178 -16q-44 0 -83.5 4t-57.5 8z" />
<glyph unicode="y" horiz-adv-x="1122" d="M-109 -428q32 127 123 203q10 -5 29 -13t75.5 -21t112.5 -13q58 0 95.5 5t77.5 23t67.5 51.5t53 90.5t46.5 141l7 24q-121 -83 -275 -83q-166 0 -229 97q-41 63 -41 154q0 50 12 107l156 731q57 16 161 16q47 0 85.5 -4t53.5 -8l15 -4l-154 -721q-5 -21 -5 -39 q0 -84 108 -84q79 0 156 58l167 786q60 16 162 16q46 0 84.5 -4t53.5 -8l16 -4l-217 -1016q-62 -294 -222.5 -429.5t-426.5 -135.5q-64 0 -123.5 8.5t-98.5 21t-68.5 25t-43.5 21.5z" />
<glyph unicode="z" horiz-adv-x="983" d="M-55 0q-1 12 -1 26q0 43 11 103q13 55 43 119l600 590h-453q-1 12 -1 26q0 43 12 99q7 33 18 63.5t18 44.5l7 14h792q0 -9 1 -18q0 -45 -13 -98q-11 -63 -41 -131l-600 -590h473q3 -15 3 -34q0 -38 -11 -91q-7 -34 -18.5 -64.5t-18.5 -44.5l-8 -14h-813z" />
<glyph unicode="{" horiz-adv-x="768" d="M33 571q-7 37 8 115q11 54 41 113h53q101 0 121 100l100 473q28 132 119.5 209.5t229.5 77.5h215q4 -36 -11 -115q-11 -56 -39 -114h-98q-101 0 -121 -101l-88 -411q-32 -159 -151 -232q89 -74 53 -233l-88 -412q-20 -100 80 -100h98q3 -54 -12 -119q-12 -63 -37 -111 h-215q-138 0 -195.5 77.5t-29.5 209.5l100 473q20 100 -80 100h-53z" />
<glyph unicode="|" horiz-adv-x="630" d="M-61 -387l421 1989q62 16 166 16q44 0 83.5 -4t56.5 -8l18 -4l-422 -1989q-68 -16 -166 -16q-46 0 -85.5 4t-55.5 8z" />
<glyph unicode="}" horiz-adv-x="768" d="M-127 -289q-5 42 8 111q17 72 41 119h98q101 0 121 100l88 412q37 164 152 233q-86 69 -53 232l88 411q20 101 -80 101h-98q0 63 10 114q11 58 39 115h215q138 0 195.5 -77.5t29.5 -209.5l-100 -473q-20 -100 80 -100h53q6 -43 -8 -113q-13 -67 -41 -115h-54 q-100 0 -120 -100l-101 -473q-28 -132 -119 -209.5t-229 -77.5h-215z" />
<glyph unicode="~" horiz-adv-x="1044" d="M76 582q4 6 12 16t36 36t59.5 45.5t82 35.5t103.5 16q52 0 97 -16.5t72 -35.5t67 -35.5t83 -16.5q26 0 51.5 7.5t42.5 17.5t30 20.5t20 17.5l6 8q51 -19 79 -59t27 -92q-4 -6 -12 -16t-36 -36t-59.5 -46t-82 -36t-103.5 -16q-52 0 -97.5 16.5t-73 36t-67 36t-81.5 16.5 q-43 0 -81 -18t-55 -36l-16 -18q-50 19 -77 58.5t-27 93.5z" />
<glyph unicode="&#xa1;" horiz-adv-x="577" d="M-98 -397l258 1011q47 15 127 15q36 0 67.5 -3.5t45.5 -7.5l14 -4l-172 -1011q-61 -17 -174 -17q-46 0 -87.5 4t-60.5 8zM158 752l61 292q60 17 162 17q46 0 84.5 -4.5t54.5 -8.5l15 -4l-62 -292q-56 -17 -162 -17q-45 0 -83.5 4.5t-53.5 8.5z" />
<glyph unicode="&#xa2;" horiz-adv-x="946" d="M61 539q106 499 488 557l22 188q64 21 138 21q36 0 69 -5.5t48 -10.5l14 -5l-60 -190q56 -6 99.5 -19t58.5 -23l16 -10q-30 -116 -133 -202q-57 26 -151 26q-114 0 -179.5 -77.5t-101.5 -247.5q-36 -164 0 -240t152 -76q44 0 88.5 7.5t66.5 15.5l23 8q61 -73 45 -205 q-74 -43 -217 -61l-25 -197q-57 -20 -139 -20q-33 0 -65 5t-48 10l-16 5l59 195q-359 56 -252 551z" />
<glyph unicode="&#xa3;" horiz-adv-x="1105" d="M-14 0l57 268q109 88 155.5 163.5t53.5 150.5h-164q-6 44 8 110q6 29 16 56t16 39l7 12h109q-11 122 10 227q21 102 74 178t127.5 121.5t162 67.5t187.5 22q199 0 362 -76q-10 -65 -46 -121.5t-89 -95.5q-102 42 -219 45q-204 0 -242 -178q-17 -81 -10 -190h354 q6 -39 -8 -105q-6 -29 -16 -57t-17 -41l-6 -14h-313q-12 -87 -54.5 -164t-135.5 -150h571q6 -51 -10 -133q-7 -36 -19 -69.5t-20 -49.5l-8 -16h-893z" />
<glyph unicode="&#xa4;" horiz-adv-x="1228" d="M-11 169l1 13l178 148q-40 102 -14 225q23 116 110 225l-117 148q15 49 78 102q30 24 59 38t42 16l14 1l113 -147q117 63 241 63q119 0 211 -63l180 147q5 0 14.5 -1.5t33.5 -15.5t43 -38q17 -24 25 -49.5t7 -38.5v-14l-178 -148q40 -106 17 -225q-25 -118 -113 -227 l117 -146q-13 -51 -76 -104q-30 -25 -59 -38.5t-42 -13.5l-14 -1l-117 145q-116 -61 -239 -61q-124 0 -213 61l-176 -145q-6 0 -15.5 2t-34.5 16.5t-45 38.5q-17 24 -24.5 49t-6.5 38zM375 555q-22 -95 30 -160t146 -65q95 0 173.5 65t100.5 160q20 95 -31.5 160t-146.5 65 q-94 0 -173 -65t-99 -160z" />
<glyph unicode="&#xa5;" horiz-adv-x="1296" d="M111 258q-2 41 8 98q8 40 31 88h307l26 125h-307q-3 50 8 93q8 42 31 94h209l-219 622q67 23 176 23q45 0 85.5 -5.5t58.5 -10.5l18 -5l164 -481l389 485q66 17 164 17q39 0 77 -4.5t56 -8.5l18 -4l-510 -628h203q3 -45 -6 -92q-13 -54 -33 -95h-299l-27 -125h299 q3 -43 -6 -88q-12 -50 -33 -98h-299l-51 -240q-69 -18 -147 -18q-34 0 -67.5 4.5t-50.5 9.5l-17 4l51 240h-307z" />
<glyph unicode="&#xa6;" horiz-adv-x="618" d="M-70 -395l191 899q62 16 166 16q44 0 83 -4t56 -8l18 -4l-190 -899q-68 -17 -166 -17q-46 0 -85.5 4t-56.5 8zM170 733l186 877q62 16 166 16q44 0 83.5 -4t56.5 -8l18 -4l-186 -877q-68 -16 -166 -16q-46 0 -85.5 4t-56.5 8z" />
<glyph unicode="&#xa7;" horiz-adv-x="1001" d="M-18 41q5 57 33.5 112t76.5 87q111 -36 244 -39q191 -4 211 88q5 26 -13.5 44.5t-53 28.5t-79 21t-91.5 22t-89.5 31t-73.5 48.5t-43.5 74t0.5 107.5q25 125 158 225q-73 76 -43 219q31 149 157 226t312 77q169 0 307 -53q-10 -53 -37.5 -106.5t-68.5 -86.5 q-100 24 -182 29q-189 8 -209 -92q-7 -30 17 -50t66 -30.5t94 -21t102 -28.5t88.5 -45.5t55 -79t1.5 -122.5q-25 -122 -150 -211q100 -82 68 -240q-16 -77 -64 -135.5t-117.5 -93t-151.5 -51t-175 -16.5q-88 0 -175.5 15t-130.5 31zM379 682.5q4 -14.5 16 -25t26 -18.5 t37.5 -15t42.5 -12t47.5 -12t47.5 -12q38 38 51 92q4 21 -3.5 37t-20.5 26.5t-37 20t-45.5 15.5t-53.5 14.5t-53 15.5q-43 -43 -55 -94q-4 -18 0 -32.5z" />
<glyph unicode="&#xa8;" horiz-adv-x="931" d="M74 1255l51 236q47 14 137 14q39 0 72.5 -3.5t47.5 -7.5l13 -3l-51 -236q-49 -14 -137 -14q-39 0 -72.5 3.5t-46.5 7.5zM477 1255l51 236q48 14 138 14q38 0 71.5 -3.5t47.5 -7.5l14 -3l-51 -236q-52 -14 -138 -14q-40 0 -73 3.5t-47 7.5z" />
<glyph unicode="&#xa9;" horiz-adv-x="1619" d="M82 464q-11 109 12 232q42 200 175.5 368t322.5 265.5t389 97.5t347 -97.5t208.5 -265.5t19.5 -368q-32 -150 -118 -285.5t-204.5 -233t-266 -155t-297.5 -57.5q-120 0 -224 37t-179 103.5t-124.5 158t-60.5 200.5zM297 696q-30 -145 14 -267t150.5 -192.5t251.5 -70.5 q221 0 408 154.5t233 375.5q17 89 9.5 168.5t-43.5 146t-90 114.5t-129.5 75t-162.5 27q-145 0 -281.5 -70.5t-232.5 -193t-127 -267.5zM471 709q41 200 156.5 303.5t296.5 103.5q64 0 119 -14t79 -28l23 -15q-23 -95 -111 -152q-53 29 -121 29q-79 0 -134 -52.5t-81 -176.5 q-26 -122 7 -171t114 -49q34 0 68.5 6t52.5 11l18 6q33 -22 44.5 -64t3.5 -90q-12 -6 -33.5 -15.5t-88.5 -25.5t-134 -16q-179 0 -250.5 106.5t-28.5 303.5z" />
<glyph unicode="&#xaa;" horiz-adv-x="735" d="M31 332q-3 92 37 168h540q9 -77 -37 -168h-540zM119 823q46 207 295 207l100 -4l6 25q13 71 -69 71q-36 0 -77.5 -7.5t-65.5 -14.5l-23 -8q-41 61 -29 143q14 6 38 15t93.5 24.5t132.5 15.5q140 0 189 -57.5t22 -177.5l-90 -424q-35 -17 -92 -17q-23 0 -44.5 4t-31.5 8 l-10 5l-6 45q-72 -72 -185 -72q-93 0 -134.5 56t-18.5 163zM332 823q-7 -38 5 -54.5t42 -16.5q39 0 64.5 31.5t35.5 78.5l8 31q-28 2 -69 2q-69 0 -86 -72z" />
<glyph unicode="&#xab;" horiz-adv-x="1116" d="M47 424q-12 43 4 121q8 36 20 68t21 47l8 14l506 379q58 -67 51 -189l-342 -313l209 -311q-43 -119 -131 -189zM506 432q-12 43 2 113q7 34 19 64.5t20 44.5l8 14l483 360q54 -63 47 -176l-323 -301l196 -299q-44 -115 -122 -176z" />
<glyph unicode="&#xac;" horiz-adv-x="1230" d="M104 662q-11 50 5 124q7 35 19.5 66.5t21.5 45.5l8 15h1011l-125 -581q-49 -23 -131 -23q-36 0 -66.5 6t-42.5 11l-13 6l71 330h-758z" />
<glyph unicode="&#xad;" horiz-adv-x="587" />
<glyph unicode="&#xae;" horiz-adv-x="1091" d="M162 965q40 189 202 322.5t351 133.5q124 0 216 -61t131 -166t13 -229q-40 -189 -202 -323t-351 -134q-124 0 -216 61t-131 166.5t-13 229.5zM283 965q-29 -139 48.5 -237.5t215.5 -98.5q139 0 257.5 98t147.5 238t-47 236.5t-215 96.5t-258.5 -97t-148.5 -236zM406 750 l96 456h205q73 0 110 -40t23 -105q-9 -46 -41 -82t-78 -51l74 -172q-31 -17 -74 -17q-16 0 -30.5 2.5t-20.5 5.5l-6 3l-76 165h-25l-35 -165q-28 -11 -63 -11q-17 0 -32 2.5t-21 5.5zM584 1014h63q57 0 66 47q9 49 -45 49h-64z" />
<glyph unicode="&#xaf;" horiz-adv-x="833" d="M25 1280q-3 43 7.5 94.5t30.5 87.5h676q3 -37 -8.5 -89t-30.5 -93h-675z" />
<glyph unicode="&#xb0;" horiz-adv-x="722" d="M195 1237q25 117 124.5 205t237.5 88q57 0 102 -16t72.5 -43.5t45 -64.5t18.5 -78.5t-7 -84.5q-25 -116 -120.5 -201.5t-233.5 -85.5q-143 0 -203 83t-36 198zM387 1239q-10 -40 11.5 -71t72.5 -31q48 0 81.5 31t43.5 73q8 43 -12 75t-68 32q-51 0 -86 -32.5t-43 -76.5z " />
<glyph unicode="&#xb1;" horiz-adv-x="1007" d="M33 209q-6 43 8 113q7 31 17 59t16 41l6 12h772q6 -42 -10 -112q-6 -31 -15.5 -59.5t-15.5 -40.5l-6 -13h-772zM139 711q-6 42 8 112q7 31 17 59.5t16 41.5l6 12h273l43 205q46 14 116 14q31 0 58.5 -3.5t39.5 -7.5l11 -3l-43 -205h274q6 -43 -10 -113q-6 -31 -15.5 -59 t-15.5 -40l-6 -13h-274l-45 -205q-45 -14 -115 -14q-31 0 -58.5 3.5t-39.5 6.5l-12 4l45 205h-273z" />
<glyph unicode="&#xb2;" horiz-adv-x="620" d="M72 709q-2 41 10 98q13 64 47.5 115t76 79.5t88.5 54.5t86 43t68 41.5t35 53.5q7 34 -18.5 48.5t-73.5 14.5q-61 0 -131 -18q-42 58 -12 147q100 35 225 35q121 0 182 -52t39 -157q-13 -62 -46 -107t-78 -72t-90 -47.5t-95 -47t-82 -57.5h285q5 -39 -4 -88 q-8 -40 -31 -84h-481z" />
<glyph unicode="&#xb3;" horiz-adv-x="622" d="M68 743q8 36 29.5 75t49.5 61q64 -23 142 -23q61 0 93 18t40 56q9 37 -9 53t-71 16h-98q-13 74 30 152h99q76 0 88 53q6 32 -13.5 47t-68.5 15q-32 0 -66.5 -5t-53.5 -9l-19 -5q-40 43 -23 135q98 39 223 39q136 0 196.5 -49.5t41.5 -140.5q-24 -110 -123 -152 q101 -46 74 -172q-22 -101 -102.5 -155t-241.5 -54q-64 0 -118.5 11t-76.5 23z" />
<glyph unicode="&#xb4;" horiz-adv-x="458" d="M-12 1376l250 301q77 9 150 -22.5t95 -83.5l-340 -285q-121 21 -155 90z" />
<glyph unicode="&#xb5;" horiz-adv-x="1206" d="M-61 -498q-1 128 73 469l234 1098q64 16 162 16q46 0 84.5 -4t53.5 -8l15 -4l-153 -719q-26 -125 102 -125q76 0 158 60l166 784q63 16 161 16q46 0 84.5 -4t54.5 -8l15 -4l-223 -1053q-58 -16 -162 -16q-44 0 -82.5 4t-55.5 8l-16 4l11 47q-92 -83 -222 -83 q-76 0 -123 40q-11 -146 -7.5 -249t13.5 -158l9 -55q-70 -51 -174.5 -65t-177.5 9z" />
<glyph unicode="&#xb6;" horiz-adv-x="1417" d="M102 826q-2 59 13 118q22 94 72 180.5t123.5 155.5t176.5 110.5t218 41.5h241l-401 -1885q-51 -12 -131 -12q-37 0 -69 3t-45 6l-13 3l194 912q-77 1 -140.5 21.5t-107 54.5t-74.5 79.5t-43 99t-14 112.5zM756 -453l397 1872q49 13 133 13q36 0 67 -3t45 -7l13 -3 l-397 -1872q-51 -12 -131 -12q-37 0 -69 3t-45 6z" />
<glyph unicode="&#xb7;" horiz-adv-x="499" d="M74 457l55 254q47 16 141 16q39 0 73 -4t49 -8l14 -4l-56 -254q-51 -17 -139 -17q-42 0 -76 4t-47 8z" />
<glyph unicode="&#xb8;" horiz-adv-x="606" d="M-330 -412q6 34 28 68t50 51q50 -26 127 -26q123 -4 139 77q6 34 -11.5 53t-61.5 19h-109l-20 33l96 246l155 -37l-47 -119q113 0 152.5 -54.5t19.5 -148.5q-23 -103 -105.5 -157t-207.5 -54q-62 0 -113 12.5t-72 24.5z" />
<glyph unicode="&#xb9;" horiz-adv-x="528" d="M156 1195q-5 45 8 87q138 34 229 117q36 10 109 10q49 0 94 -10l-145 -682q-48 -10 -101 -10q-64 0 -110 10l79 370q9 51 23 91q-74 -44 -160 -54q-21 26 -26 71z" />
<glyph unicode="&#xba;" horiz-adv-x="757" d="M43 332q-2 32 8 86q10 48 29 82h541q3 -35 -7 -82t-30 -86h-541zM145 948q39 180 131 261t244 81q151 0 210 -80t20 -262q-37 -181 -130.5 -262.5t-244.5 -81.5q-152 0 -209.5 81t-20.5 263zM350 855.5q-3 -35.5 4.5 -53.5t20 -24t35.5 -6q44 0 69.5 34t48.5 142 q18 75 15 115t-16 52.5t-42 12.5q-44 0 -70.5 -35.5t-49.5 -144.5q-12 -57 -15 -92.5z" />
<glyph unicode="&#xbb;" horiz-adv-x="1116" d="M0 252l324 299l-197 301q44 115 125 176l328 -360q9 -47 -7 -123q-6 -31 -17 -59.5t-18 -41.5l-8 -12l-481 -356q-52 64 -49 176zM430 240l340 311l-207 313q19 53 53.5 104.5t75.5 84.5l346 -379q10 -49 -8 -129q-7 -35 -18.5 -65t-19.5 -43l-7 -13l-506 -373 q-55 70 -49 189z" />
<glyph unicode="&#xbc;" horiz-adv-x="1419" d="M72 -6l1093 1429q39 15 119 15q36 0 65 -4t41 -8l11 -3l-1096 -1429q-49 -14 -121 -14q-30 0 -58 3.5t-41 6.5zM179 1195q-5 45 7 87q139 35 230 117q36 10 108 10q49 0 94 -10l-145 -682q-48 -10 -100 -10q-65 0 -111 10l80 370q9 51 23 91q-74 -44 -160 -54 q-21 26 -26 71zM664 147q0 45 4 68q11 42 22 64l408 411q46 12 100 12q50 0 94 -12l-86 -399h76q3 -37 -6 -74q-4 -27 -25 -70h-75l-29 -137q-46 -10 -94 -10q-49 0 -88 10l28 137h-329zM887 291h137l39 180z" />
<glyph unicode="&#xbd;" horiz-adv-x="1507" d="M72 -6l1093 1429q39 15 119 15q36 0 65 -4t41 -8l11 -3l-1096 -1429q-49 -14 -121 -14q-30 0 -58 3.5t-41 6.5zM179 1195q-5 45 7 87q139 35 230 117q36 10 108 10q49 0 94 -10l-145 -682q-48 -10 -100 -10q-65 0 -111 10l80 370q9 51 23 91q-74 -44 -160 -54 q-21 26 -26 71zM795 0q-2 41 10 98q12 56 39.5 101t62 74t73.5 52.5t77 41t69.5 34.5t54 38t27.5 46q7 33 -17 48.5t-69 15.5q-55 2 -139 -19q-39 58 -12 148q104 35 227 35q121 0 182 -52t39 -157q-13 -62 -46 -107t-78 -72.5t-90 -48t-95 -47t-82 -57.5h287q5 -39 -4 -88 q-9 -44 -33 -84h-483z" />
<glyph unicode="&#xbe;" horiz-adv-x="1478" d="M82 743q8 36 30 75t50 61q63 -23 141 -23q61 0 93 18t40 56q9 37 -9 53t-71 16h-98q-6 33 3 75.5t28 76.5h98q76 0 88 53q6 32 -13.5 47t-68.5 15q-32 0 -66.5 -5t-53.5 -9l-19 -5q-40 43 -23 135q99 39 224 39q135 0 195.5 -49t41.5 -141q-24 -110 -123 -152 q101 -46 74 -172q-22 -101 -102.5 -155t-241.5 -54q-64 0 -118.5 11t-76.5 23zM135 -6l1094 1429q39 15 119 15q36 0 65 -4t40 -8l11 -3l-1095 -1429q-49 -14 -121 -14q-30 0 -58.5 3.5t-41.5 6.5zM727 147q0 47 4 70q9 33 23 62l407 411q47 12 101 12q50 0 94 -12l-86 -399 h76q3 -34 -7 -74q-5 -30 -24 -70h-76l-29 -137q-46 -10 -94 -10q-49 0 -88 10l29 137h-330zM950 291h137l39 180z" />
<glyph unicode="&#xbf;" horiz-adv-x="911" d="M-81 -128q-13 62 7 146q17 78 49.5 138.5t72 98.5t84 69t88.5 57t81 54t65.5 69t39.5 94q45 16 129 16q37 0 69 -4t45 -8l13 -4q-18 -85 -47.5 -150t-63.5 -104t-71 -69t-72.5 -52.5t-66 -46t-54 -58.5t-33.5 -81q-18 -78 21.5 -108.5t125.5 -30.5q56 0 112.5 12t84.5 24 l29 11q43 -37 55 -94.5t-8 -124.5q-17 -8 -48 -20.5t-128 -33t-195 -20.5q-77 0 -139.5 11t-116.5 37t-84.5 68t-43.5 104zM408 756l63 293q58 16 160 16q46 0 85 -4t54 -8l16 -4l-63 -293q-54 -17 -160 -17q-45 0 -84 4.5t-55 8.5z" />
<glyph unicode="&#xc0;" horiz-adv-x="1376" d="M-115 18l772 1438q84 19 211 19q61 0 111.5 -4.5t70.5 -9.5l21 -5l162 -1438q-61 -18 -176 -18q-46 0 -82 4.5t-49 9.5l-13 4l-32 299h-514l-160 -299q-74 -18 -172 -18q-44 0 -81.5 4.5t-53.5 9.5zM494 557h362l-41 371q-6 58 -8 118t-1 90l1 31h-8q-37 -110 -105 -239z M653 1819q42 52 129.5 83.5t161.5 22.5l123 -301q-66 -69 -195 -90z" />
<glyph unicode="&#xc1;" horiz-adv-x="1376" d="M-115 18l774 1438q82 19 209 19q61 0 111.5 -4.5t70.5 -9.5l21 -5l162 -1438q-61 -18 -176 -18q-46 0 -82 4.5t-49 9.5l-13 4l-32 299h-514l-160 -299q-72 -18 -172 -18q-44 0 -81.5 4.5t-53.5 9.5zM494 557h362l-41 371q-5 58 -6.5 118t-0.5 90l1 31h-8 q-39 -110 -107 -239zM762 1626l250 301q77 9 150 -22.5t95 -83.5l-342 -285q-117 17 -153 90z" />
<glyph unicode="&#xc2;" horiz-adv-x="1378" d="M-115 18l774 1438q82 19 211 19q60 0 110 -4.5t70 -9.5l21 -5l164 -1438q-63 -18 -176 -18q-47 0 -83.5 4.5t-49.5 9.5l-13 4l-32 299h-514l-160 -299q-72 -18 -172 -18q-43 0 -80.5 4.5t-53.5 9.5zM494 557h362l-41 371q-5 58 -6.5 118t-0.5 90l1 31h-8 q-37 -110 -107 -239zM545 1675l360 258h74l281 -258q-77 -105 -170 -139l-189 137l-244 -135q-86 38 -112 137z" />
<glyph unicode="&#xc3;" horiz-adv-x="1376" d="M-115 18l772 1438q82 19 211 19q60 0 110.5 -4.5t71.5 -9.5l21 -5l162 -1438q-61 -18 -176 -18q-47 0 -83 4.5t-48 9.5l-13 4l-32 299h-516l-160 -299q-72 -18 -172 -18q-43 0 -80 4.5t-53 9.5zM494 557h362l-43 371q-5 58 -6.5 118t-0.5 90l1 31h-8q-37 -110 -107 -239z M551 1655q9 18 24.5 39.5t42.5 48t68.5 45t87.5 20.5q55 3 102.5 -17t89 -40t83.5 -18q27 2 53 15t38 26l13 12q39 -14 70 -43t41 -64q-91 -131 -226 -137q-57 -3 -104 15t-86.5 36.5t-79.5 16.5q-31 -1 -59 -14.5t-40 -26.5l-12 -13q-94 23 -106 99z" />
<glyph unicode="&#xc4;" horiz-adv-x="1376" d="M-115 18l772 1438q84 19 211 19q61 0 111.5 -4.5t70.5 -9.5l21 -5l162 -1438q-61 -18 -176 -18q-46 0 -82 4.5t-49 9.5l-13 4l-32 299h-514l-160 -299q-74 -18 -172 -18q-44 0 -81.5 4.5t-53.5 9.5zM494 557h362l-41 371q-6 58 -8 118t-1 90l1 31h-8q-37 -110 -105 -239z M539 1571l49 235q49 15 139 15q39 0 72 -3.5t46 -7.5l13 -4l-49 -235q-51 -15 -139 -15q-39 0 -72 4t-46 8zM942 1571l49 235q49 15 139 15q38 0 71 -3.5t47 -7.5l14 -4l-50 -235q-53 -15 -139 -15q-40 0 -73 4t-46 8z" />
<glyph unicode="&#xc5;" horiz-adv-x="1380" d="M-115 18l758 1391q-64 68 -41 182q18 83 73.5 144.5t126 90.5t146.5 29q118 0 190 -69.5t46 -194.5q-23 -111 -113 -178l166 -1395q-63 -18 -178 -18q-46 0 -82 4.5t-49 9.5l-13 4l-32 299h-514l-160 -299q-74 -18 -172 -18q-44 0 -82 4.5t-54 9.5zM496 557h362l-43 363 q-6 58 -8 118t-1 90l1 31h-8q-35 -110 -107 -239zM786 1591q-8 -42 12.5 -71t69.5 -29q52 0 86.5 30t42.5 70q8 42 -13 71.5t-73 29.5q-49 0 -83 -30.5t-42 -70.5z" />
<glyph unicode="&#xc6;" horiz-adv-x="1824" d="M-137 20l1196 1455h846q10 -55 -6 -124t-48 -122h-505l-76 -361h403q8 -58 -6.5 -126t-46.5 -121h-403l-78 -373h526q8 -59 -6.5 -128.5t-46.5 -119.5h-819l69 326h-409l-246 -306q-72 -20 -180 -20q-117 0 -164 20zM649 571h264l95 445z" />
<glyph unicode="&#xc7;" horiz-adv-x="1153" d="M119 782q79 366 274 539.5t512 173.5q68 0 130.5 -8t102.5 -19.5t70.5 -23t43.5 -19.5l14 -8q-6 -53 -49 -123q-20 -33 -43.5 -58.5t-37.5 -34.5l-14 -9q-102 41 -229 41q-82 0 -147 -23.5t-123.5 -78.5t-103 -154t-75.5 -242q-24 -115 -26.5 -201t14 -141t53 -88.5 t84 -47t113.5 -13.5q62 0 128.5 11t101.5 23l36 11q35 -31 49 -105q7 -30 7 -61.5t-4 -47.5l-3 -16q-15 -8 -44.5 -19.5t-125.5 -32.5t-200 -25l-27 -70q113 0 152.5 -54.5t19.5 -148.5q-23 -103 -105.5 -157t-207.5 -54q-62 0 -113 12t-72 24l-20 13q5 33 26.5 67.5 t49.5 51.5q54 -26 129 -26q120 -4 139 77q6 34 -12 53t-62 19h-108l-23 33l68 168q-241 35 -327 244t-15 548z" />
<glyph unicode="&#xc8;" horiz-adv-x="1142" d="M12 0l314 1475h895q9 -46 -4 -119q-16 -80 -50 -131h-569l-76 -357h467q7 -64 -4 -120q-18 -78 -49 -127h-467l-78 -371h590q8 -62 -6 -123q-18 -80 -47 -127h-916zM547 1819q42 52 129.5 83.5t161.5 22.5l123 -301q-66 -69 -195 -90z" />
<glyph unicode="&#xc9;" horiz-adv-x="1142" d="M12 0l314 1475h895q9 -46 -4 -119q-16 -80 -50 -131h-569l-76 -357h467q7 -64 -4 -120q-18 -78 -49 -127h-467l-78 -371h590q8 -62 -6 -123q-18 -80 -47 -127h-916zM616 1626l250 303q77 8 150.5 -23.5t95.5 -82.5l-340 -287q-118 21 -156 90z" />
<glyph unicode="&#xca;" horiz-adv-x="1144" d="M12 0l314 1475h897q7 -56 -4 -119q-14 -68 -50 -131h-569l-76 -357h467q4 -78 -4 -120q-15 -64 -49 -127h-467l-78 -371h590q8 -62 -6 -123q-18 -80 -47 -127h-918zM463 1675l377 271h73l265 -271q-76 -104 -170 -139l-189 137l-246 -135q-84 37 -110 137z" />
<glyph unicode="&#xcb;" horiz-adv-x="1144" d="M12 0l314 1475h897q7 -56 -4 -119q-14 -68 -50 -131h-569l-76 -357h467q4 -78 -4 -120q-15 -64 -49 -127h-467l-78 -371h590q8 -62 -6 -123q-18 -80 -47 -127h-918zM444 1550l50 236q49 14 139 14q38 0 71 -3.5t46 -6.5l14 -4l-49 -236q-54 -14 -140 -14q-40 0 -72.5 3.5 t-45.5 6.5zM846 1550l49 236q49 14 139 14q39 0 72 -3.5t46 -6.5l13 -4l-49 -236q-51 -14 -139 -14q-39 0 -72 3.5t-46 6.5z" />
<glyph unicode="&#xcc;" horiz-adv-x="614" d="M14 18l305 1438q66 19 166 19q45 0 85.5 -4.5t58.5 -9.5l18 -5l-305 -1438q-70 -18 -168 -18q-48 0 -88 4.5t-56 9.5zM285 1819q42 52 129 83.5t161 22.5l123 -301q-67 -69 -194 -90z" />
<glyph unicode="&#xcd;" horiz-adv-x="614" d="M14 18l305 1438q66 19 166 19q45 0 85.5 -4.5t58.5 -9.5l18 -5l-305 -1438q-70 -18 -168 -18q-48 0 -88 4.5t-56 9.5zM328 1626l250 303q77 8 150 -23.5t95 -82.5l-342 -287q-115 20 -153 90z" />
<glyph unicode="&#xce;" horiz-adv-x="612" d="M14 18l305 1438q64 19 164 19q45 0 85.5 -4.5t58.5 -9.5l18 -5l-305 -1438q-70 -18 -168 -18q-48 0 -87.5 4.5t-54.5 9.5zM176 1675l375 271h74l264 -271q-73 -103 -170 -139l-187 137l-245 -135q-88 39 -111 137z" />
<glyph unicode="&#xcf;" horiz-adv-x="612" d="M14 18l305 1438q66 19 166 19q45 0 85 -4.5t58 -9.5l17 -5l-305 -1438q-68 -18 -166 -18q-48 0 -88 4.5t-56 9.5zM162 1563l49 235q49 14 139 14q39 0 72 -3.5t46 -6.5l13 -4l-49 -235q-51 -15 -139 -15q-39 0 -72 4t-46 8zM565 1563l49 235q50 14 140 14q38 0 71 -3.5 t47 -6.5l13 -4l-49 -235q-54 -15 -140 -15q-40 0 -73 4t-45 8z" />
<glyph unicode="&#xd0;" d="M37 625q-3 45 10.5 108.5t34.5 102.5h151l136 639h505q307 0 427.5 -189t35.5 -579q-42 -196 -112 -333.5t-169 -219t-219.5 -118t-275.5 -36.5h-506l133 625h-151zM436 256h168q59 0 105 12t91 43.5t80.5 85t67 139t56.5 201.5q25 118 29.5 203.5t-8.5 139t-45 85 t-73 43t-100 11.5h-168l-80 -383h223q4 -40 -10 -105t-35 -106h-223z" />
<glyph unicode="&#xd1;" horiz-adv-x="1441" d="M14 18l305 1438q74 19 211 19q62 0 111.5 -4.5t68.5 -9.5l19 -5l168 -741q17 -77 33 -169t24 -145l7 -53h10q22 197 69 416l148 692q57 19 149 19q43 0 77.5 -4.5t47.5 -9.5l13 -5l-306 -1438q-67 -18 -206 -18q-59 0 -110.5 4.5t-72.5 9.5l-22 4l-168 748 q-17 77 -34.5 163t-26.5 133l-9 48h-10q-12 -170 -59 -391l-150 -701q-53 -18 -151 -18q-43 0 -77 4.5t-47 9.5zM616 1741q3 4 9.5 11t27.5 25t44.5 32t59 25t72.5 11q71 0 147 -32.5t122 -32.5q33 0 63 13t44 27l14 13q37 -23 55.5 -67t13.5 -91q-3 -4 -9 -11t-27 -25 t-44 -32t-60 -25t-75 -11q-69 0 -145.5 32.5t-122.5 32.5q-30 0 -59.5 -13t-43.5 -27l-14 -13q-84 52 -72 158z" />
<glyph unicode="&#xd2;" d="M117 772q82 382 273 554.5t487 172.5q291 0 417.5 -202.5t42.5 -591.5q-42 -197 -111.5 -338t-166 -227t-214 -125.5t-263.5 -39.5q-295 0 -421.5 203.5t-43.5 593.5zM420.5 487.5q-2.5 -100.5 23 -155.5t68 -77t109.5 -22q68 0 119.5 22t100 77t87.5 155.5t71 249.5 q32 150 36 250.5t-21 156t-67.5 77.5t-110.5 22q-67 0 -119 -22t-101 -77t-89 -156t-72 -251q-32 -149 -34.5 -249.5zM666 1835q43 52 129.5 84t160.5 23l121 -304q-68 -71 -192 -88z" />
<glyph unicode="&#xd3;" d="M117 772q82 382 273 554.5t487 172.5q291 0 417.5 -202.5t42.5 -591.5q-42 -197 -111.5 -338t-166 -227t-214 -125.5t-263.5 -39.5q-295 0 -421.5 203.5t-43.5 593.5zM420.5 487.5q-2.5 -100.5 23 -155.5t68 -77t109.5 -22q68 0 119.5 22t100 77t87.5 155.5t71 249.5 q32 150 36 250.5t-21 156t-67.5 77.5t-110.5 22q-67 0 -119 -22t-101 -77t-89 -156t-72 -251q-32 -149 -34.5 -249.5zM750 1667l249 301q78 9 151 -22.5t95 -83.5l-338 -285q-120 21 -157 90z" />
<glyph unicode="&#xd4;" d="M117 772q82 382 273 554.5t487 172.5q291 0 417.5 -202.5t42.5 -591.5q-42 -197 -111.5 -338t-166 -227t-214 -125.5t-263.5 -39.5q-295 0 -421.5 203.5t-43.5 593.5zM420.5 487.5q-2.5 -100.5 23 -155.5t68 -77t109.5 -22q68 0 119.5 22t100 77t87.5 155.5t71 249.5 q32 150 36 250.5t-21 156t-67.5 77.5t-110.5 22q-67 0 -119 -22t-101 -77t-89 -156t-72 -251q-32 -149 -34.5 -249.5zM551 1679l354 263h74l285 -263q-73 -103 -170 -139l-189 137l-243 -135q-88 39 -111 137z" />
<glyph unicode="&#xd5;" d="M117 772q82 382 273 554.5t487 172.5q291 0 417.5 -202.5t42.5 -591.5q-42 -197 -111.5 -338t-166 -227t-214 -125.5t-263.5 -39.5q-295 0 -421.5 203.5t-43.5 593.5zM420.5 487.5q-2.5 -100.5 23 -155.5t68 -77t109.5 -22q68 0 119.5 22t100 77t87.5 155.5t71 249.5 q32 150 36 250.5t-21 156t-67.5 77.5t-110.5 22q-67 0 -119 -22t-101 -77t-89 -156t-72 -251q-32 -149 -34.5 -249.5zM584 1749q3 4 9.5 11.5t27.5 26t44 33t59 27t73 13.5q70 2 148 -28.5t124 -29.5q32 2 61.5 16.5t42.5 27.5l13 14q38 -19 59 -62t19 -90q-3 -4 -9 -11.5 t-26 -26.5t-43 -34t-59.5 -27.5t-75.5 -13.5q-61 -2 -142.5 28.5t-130.5 29.5q-30 -1 -59 -15.5t-43 -28.5l-14 -14q-87 48 -78 154z" />
<glyph unicode="&#xd6;" d="M117 772q82 382 273 554.5t487 172.5q291 0 417.5 -202.5t42.5 -591.5q-42 -197 -111.5 -338t-166 -227t-214 -125.5t-263.5 -39.5q-295 0 -421.5 203.5t-43.5 593.5zM420.5 487.5q-2.5 -100.5 23 -155.5t68 -77t109.5 -22q68 0 119.5 22t100 77t87.5 155.5t71 249.5 q32 150 36 250.5t-21 156t-67.5 77.5t-110.5 22q-67 0 -119 -22t-101 -77t-89 -156t-72 -251q-32 -149 -34.5 -249.5zM563 1593l51 236q48 14 138 14q38 0 71.5 -3.5t47.5 -7.5l14 -3l-51 -236q-52 -14 -138 -14q-40 0 -73 3.5t-47 7.5zM965 1593l51 236q47 14 137 14 q39 0 72.5 -3.5t46.5 -7.5l14 -3l-51 -236q-49 -14 -137 -14q-39 0 -72.5 3.5t-47.5 7.5z" />
<glyph unicode="&#xd7;" horiz-adv-x="960" d="M31 358l282 234l-182 233q27 41 86 90q26 22 53 39.5t40 23.5l14 7l184 -235l283 235q36 -19 75 -70q18 -22 30.5 -44.5t15.5 -34.5l3 -11l-284 -233l184 -234q-25 -43 -86 -92q-27 -22 -53 -38.5t-38 -22.5l-13 -6l-185 233l-282 -233q-41 18 -78 69q-17 22 -29.5 44.5 t-16.5 33.5z" />
<glyph unicode="&#xd8;" d="M-39 -6l182 217q-101 204 -26 561q82 382 273 554.5t487 172.5q163 0 274 -63l121 147q59 -1 109.5 -29.5t78.5 -70.5l-160 -195q117 -210 37 -583q-42 -197 -111.5 -338t-166 -227t-214 -125.5t-263.5 -39.5q-180 0 -299 78l-131 -162q-60 2 -112.5 30t-78.5 73z M422 526l555 674q-49 43 -141 43q-67 0 -119 -22t-101 -77t-89 -156t-72 -251q-27 -123 -33 -211zM469 289q48 -56 152 -56q68 0 119.5 22t100 77t87.5 155.5t71 249.5q32 159 35 244z" />
<glyph unicode="&#xd9;" horiz-adv-x="1382" d="M109 514l200 942q62 19 166 19q46 0 86 -4.5t57 -9.5l17 -5l-205 -967q-25 -115 22.5 -176t161.5 -61q115 0 187.5 60.5t97.5 176.5l205 967q60 19 164 19q46 0 86 -4.5t56 -9.5l17 -5l-200 -942q-54 -256 -227.5 -397.5t-428.5 -141.5q-258 0 -386.5 144t-75.5 395z M635 1819q42 52 129.5 83.5t161.5 22.5l123 -301q-66 -69 -195 -90z" />
<glyph unicode="&#xda;" horiz-adv-x="1382" d="M109 514l200 942q62 19 166 19q46 0 86 -4.5t57 -9.5l17 -5l-205 -967q-25 -115 22.5 -176t161.5 -61q115 0 187.5 60.5t97.5 176.5l205 967q60 19 164 19q46 0 86 -4.5t56 -9.5l17 -5l-200 -942q-54 -256 -227.5 -397.5t-428.5 -141.5q-258 0 -386.5 144t-75.5 395z M719 1626l250 303q77 8 150 -23.5t95 -82.5l-342 -287q-115 20 -153 90z" />
<glyph unicode="&#xdb;" horiz-adv-x="1382" d="M109 514l200 942q62 19 166 19q47 0 87.5 -4.5t57.5 -9.5l17 -5l-205 -967q-25 -116 22 -176.5t162 -60.5q114 0 187 61t98 176l205 967q58 19 162 19q46 0 86 -4.5t56 -9.5l17 -5l-200 -942q-54 -257 -226.5 -398t-427.5 -141q-258 0 -387.5 144t-76.5 395zM578 1675 l356 258h74l284 -258q-76 -104 -170 -139l-188 137l-244 -135q-86 38 -112 137z" />
<glyph unicode="&#xdc;" horiz-adv-x="1382" d="M109 514l200 942q62 19 166 19q46 0 86 -4.5t57 -9.5l17 -5l-205 -967q-25 -115 22.5 -176t161.5 -61q115 0 187.5 60.5t97.5 176.5l205 967q60 19 164 19q46 0 86 -4.5t56 -9.5l17 -5l-200 -942q-54 -256 -227.5 -397.5t-428.5 -141.5q-258 0 -386.5 144t-75.5 395z M557 1591l49 236q49 14 139 14q38 0 71 -3.5t47 -7.5l14 -3l-50 -236q-53 -14 -139 -14q-40 0 -72.5 3.5t-45.5 7.5zM958 1591l50 236q49 14 139 14q38 0 71 -3.5t46 -7.5l14 -3l-49 -236q-53 -14 -139 -14q-40 0 -73 3.5t-46 7.5z" />
<glyph unicode="&#xdd;" horiz-adv-x="1327" d="M190 1456q72 19 199 19q49 0 88.5 -4.5t54.5 -9.5l15 -5l180 -534l410 534q86 19 190 19q46 0 89 -4.5t63 -9.5l20 -5l-682 -872l-121 -566q-60 -18 -164 -18q-52 0 -92 4.5t-54 9.5l-15 4l118 564zM692 1626l250 303q77 8 150.5 -23.5t95.5 -82.5l-342 -287 q-116 20 -154 90z" />
<glyph unicode="&#xde;" horiz-adv-x="1243" d="M14 18l305 1438q62 19 162 19q45 0 84.5 -4.5t56.5 -9.5l17 -5l-49 -229h258q107 0 187.5 -38.5t124 -106t58 -159.5t-9.5 -198q-45 -210 -191.5 -321t-367.5 -111h-258l-57 -275q-66 -18 -164 -18q-48 0 -87 4.5t-54 9.5zM446 547h193q205 0 250 213t-160 213h-192z" />
<glyph unicode="&#xdf;" horiz-adv-x="1196" d="M-16 16l237 1117q42 201 187 302t376 101q211 0 303 -105.5t58 -273.5q-18 -89 -72 -186q-21 -2 -48 -10t-61.5 -24t-61.5 -47t-36 -71q-8 -37 3 -71t34.5 -61t53 -58t57.5 -61.5t49 -73.5t27.5 -92.5t-7.5 -118.5q-64 -303 -444 -303q-69 0 -131.5 10t-90.5 20l-28 10 q15 124 107 213q72 -22 135 -22q130 0 151 96q7 33 -9 67t-44.5 63t-61 67t-59 79t-37.5 99t4 127q13 57 40.5 105t58.5 75t60 46t48 25l19 7q28 57 35 92q12 62 -15.5 100.5t-91.5 38.5q-84 0 -133.5 -43t-69.5 -137l-233 -1102q-64 -16 -162 -16q-46 0 -83 4t-50 8z" />
<glyph unicode="&#xe0;" horiz-adv-x="1142" d="M61 569q32 153 81 259.5t114 166.5t138.5 85.5t166.5 25.5q91 0 148 -24t94 -83l31 86q41 13 141 13q44 0 82 -4t53 -8l16 -5l-225 -1065q-61 -16 -145 -16q-38 0 -73 4t-51 8l-16 4l2 84q-114 -120 -294 -120q-181 0 -254.5 144t-8.5 445zM360 382q-3 -61 11 -95.5 t40 -48t70 -13.5q67 0 117 48t68 124l61 291q14 75 -15.5 122.5t-95.5 47.5q-59 0 -98.5 -25.5t-73.5 -96.5t-61 -199q-20 -94 -23 -155zM446 1483q42 52 129.5 83.5t161.5 22.5l123 -301q-67 -70 -194 -90z" />
<glyph unicode="&#xe1;" horiz-adv-x="1142" d="M61 569q32 153 81 259.5t114 166.5t138.5 85.5t166.5 25.5q91 0 148 -24t94 -83l31 86q41 13 141 13q44 0 82 -4t53 -8l16 -5l-225 -1065q-61 -16 -145 -16q-38 0 -73 4t-51 8l-16 4l2 84q-114 -120 -294 -120q-181 0 -254.5 144t-8.5 445zM360 382q-3 -61 11 -95.5 t40 -48t70 -13.5q67 0 117 48t68 124l61 291q14 75 -15.5 122.5t-95.5 47.5q-59 0 -98.5 -25.5t-73.5 -96.5t-61 -199q-20 -94 -23 -155zM514 1288l250 301q77 9 150.5 -22.5t95.5 -83.5l-340 -285q-122 22 -156 90z" />
<glyph unicode="&#xe2;" horiz-adv-x="1142" d="M61 569q32 153 81 259.5t114 166.5t138.5 85.5t166.5 25.5q91 0 148 -24t94 -83l31 86q41 13 141 13q44 0 82 -4t53 -8l16 -5l-225 -1065q-61 -16 -145 -16q-38 0 -73 4t-51 8l-16 4l2 84q-114 -120 -294 -120q-181 0 -254.5 144t-8.5 445zM360 382q-3 -61 11 -95.5 t40 -48t70 -13.5q67 0 117 48t68 124l61 291q14 75 -15.5 122.5t-95.5 47.5q-59 0 -98.5 -25.5t-73.5 -96.5t-61 -199q-20 -94 -23 -155zM383 1348l360 243h72l266 -243q-75 -103 -166 -136l-184 134l-239 -132q-82 33 -109 134z" />
<glyph unicode="&#xe3;" horiz-adv-x="1142" d="M61 569q32 153 81 259.5t114 166.5t138.5 85.5t166.5 25.5q91 0 148 -24t94 -83l31 86q41 13 141 13q44 0 82 -4t53 -8l16 -5l-225 -1065q-61 -16 -145 -16q-38 0 -73 4t-51 8l-16 4l2 84q-114 -120 -294 -120q-181 0 -254.5 144t-8.5 445zM360 382q-3 -61 11 -95.5 t40 -48t70 -13.5q67 0 117 48t68 124l61 291q14 75 -15.5 122.5t-95.5 47.5q-59 0 -98.5 -25.5t-73.5 -96.5t-61 -199q-20 -94 -23 -155zM403 1395q3 4 9.5 11t28 25t45 32t59.5 25t73 11q69 0 146 -32.5t123 -32.5q32 0 61.5 13t43.5 27l14 13q38 -23 56.5 -67t12.5 -91 q-3 -4 -9 -11t-27 -25t-44 -32t-59 -25t-74 -11q-71 0 -146.5 32.5t-121.5 32.5q-31 0 -61 -13t-44 -27l-14 -13q-84 54 -72 158z" />
<glyph unicode="&#xe4;" horiz-adv-x="1142" d="M61 569q32 153 81 259.5t114 166.5t138.5 85.5t166.5 25.5q91 0 148 -24t94 -83l31 86q41 13 141 13q44 0 82 -4t53 -8l16 -5l-225 -1065q-61 -16 -145 -16q-38 0 -73 4t-51 8l-16 4l2 84q-114 -120 -294 -120q-181 0 -254.5 144t-8.5 445zM360 382q-3 -61 11 -95.5 t40 -48t70 -13.5q67 0 117 48t68 124l61 291q14 75 -15.5 122.5t-95.5 47.5q-59 0 -98.5 -25.5t-73.5 -96.5t-61 -199q-20 -94 -23 -155zM406 1233l49 235q49 15 139 15q39 0 72 -3.5t46 -7.5l13 -4l-49 -235q-51 -14 -139 -14q-39 0 -72 3.5t-46 7.5zM809 1233l49 235 q49 15 139 15q38 0 71 -3.5t46 -7.5l14 -4l-49 -235q-53 -14 -139 -14q-40 0 -72.5 3.5t-45.5 7.5z" />
<glyph unicode="&#xe5;" horiz-adv-x="1142" d="M61 569q32 153 81 259.5t114 166.5t138.5 85.5t166.5 25.5q91 0 148 -24t94 -83l31 86q41 13 141 13q44 0 82 -4t53 -8l16 -5l-225 -1065q-61 -16 -145 -16q-38 0 -73 4t-51 8l-16 4l2 84q-114 -120 -294 -120q-181 0 -254.5 144t-8.5 445zM360 382q-3 -61 11 -95.5 t40 -48t70 -13.5q67 0 117 48t68 124l61 291q14 75 -15.5 122.5t-95.5 47.5q-59 0 -98.5 -25.5t-73.5 -96.5t-61 -199q-20 -94 -23 -155zM487 1432q13 77 63.5 133t118 82t142.5 26q73 0 131.5 -25.5t91.5 -82t21 -133.5q-21 -116 -114.5 -182t-215.5 -66 q-124 0 -191.5 66.5t-46.5 181.5zM672 1432q-8 -36 12.5 -61t65.5 -25q48 0 79 25.5t39 60.5q6 36 -15 61t-69 25q-45 0 -75.5 -25.5t-36.5 -60.5z" />
<glyph unicode="&#xe6;" horiz-adv-x="1609" d="M32 297q-1 111 31 268q32 153 80.5 260.5t111 167.5t132 86.5t154.5 26.5q88 0 135 -23t86 -84l31 86q37 13 137 13q44 0 75 -4t39 -8l9 -3l-9 -67q118 90 246 90q172 0 243.5 -106.5t25.5 -321.5q-12 -56 -29.5 -111.5t-29.5 -82.5l-11 -27h-553q-22 -230 172 -230 q54 0 108.5 12t82.5 23l28 12q31 -31 44.5 -86t4.5 -116q-4 -4 -11.5 -10t-35 -22t-60 -28t-87 -22t-115.5 -10q-152 0 -219 108l-23 -74q-41 -14 -125 -14q-38 0 -70.5 4t-45.5 8l-13 4l7 84q-57 -61 -122 -90.5t-159 -29.5q-80 0 -137 32.5t-92 103t-36 181.5zM360 382 q-4 -62 8.5 -96t34.5 -47.5t58 -13.5q124 0 164 172l61 291q31 170 -90 170q-48 0 -83.5 -25t-69 -97.5t-60.5 -198.5q-19 -93 -23 -155zM977 651h276q11 29 17 58q15 80 -2.5 124t-83.5 44q-138 0 -207 -226z" />
<glyph unicode="&#xe7;" horiz-adv-x="913" d="M53 539q120 567 600 567q94 0 167 -16t100 -32l26 -16q-30 -116 -133 -202q-57 26 -151 26q-114 0 -179.5 -77.5t-101.5 -247.5q-36 -164 -0.5 -240t151.5 -76q44 0 88.5 7.5t67.5 15.5l23 8q61 -73 45 -205q-4 -3 -13 -7t-38.5 -16t-63.5 -21t-88 -17t-111 -10l-30 -78 q213 0 170 -203q-23 -103 -106 -157t-206 -54q-62 0 -113 12t-71 24l-20 13q5 33 26.5 67.5t48.5 51.5q56 -27 127 -27q53 -2 92.5 16.5t49.5 61.5q6 34 -12 53t-64 19h-107l-22 33l71 180q-324 73 -223 547z" />
<glyph unicode="&#xe8;" horiz-adv-x="1042" d="M57 569q61 282 209.5 409.5t380.5 127.5q89 0 161 -28t121.5 -83.5t66.5 -138t-5 -192.5q-13 -60 -29 -113.5t-26 -77.5l-10 -24h-570q-19 -118 28 -164.5t148 -46.5q56 0 113 12t86 24l29 13q31 -34 46 -95t3 -120q-5 -4 -14.5 -10t-43.5 -22t-72.5 -28t-101.5 -22 t-131 -10q-251 0 -350 151t-39 438zM395 645h291q18 59 19 64q32 168 -97 168q-141 0 -213 -232zM420 1483q42 52 129.5 83.5t161.5 22.5l123 -301q-67 -70 -195 -90z" />
<glyph unicode="&#xe9;" horiz-adv-x="1042" d="M57 569q61 282 209.5 409.5t380.5 127.5q89 0 161 -28t121.5 -83.5t66.5 -138t-5 -192.5q-13 -60 -29 -113.5t-26 -77.5l-10 -24h-570q-19 -118 28 -164.5t148 -46.5q56 0 113 12t86 24l29 13q31 -34 46 -95t3 -120q-5 -4 -14.5 -10t-43.5 -22t-72.5 -28t-101.5 -22 t-131 -10q-251 0 -350 151t-39 438zM395 645h291q18 59 19 64q32 168 -97 168q-141 0 -213 -232zM469 1288l250 301q77 9 150.5 -22.5t95.5 -83.5l-340 -285q-122 22 -156 90z" />
<glyph unicode="&#xea;" horiz-adv-x="1042" d="M57 569q61 282 209.5 409.5t380.5 127.5q89 0 161 -28t121.5 -83.5t66.5 -138t-5 -192.5q-13 -60 -29 -113.5t-26 -77.5l-10 -24h-570q-19 -118 28 -164.5t148 -46.5q56 0 113 12t86 24l29 13q31 -34 46 -95t3 -120q-5 -4 -14.5 -10t-43.5 -22t-72.5 -28t-101.5 -22 t-131 -10q-251 0 -350 151t-39 438zM319 1313l369 264h72l258 -264q-75 -103 -166 -135l-184 133l-238 -131q-84 34 -111 133zM395 645h291q18 59 19 64q32 168 -97 168q-141 0 -213 -232z" />
<glyph unicode="&#xeb;" horiz-adv-x="1042" d="M57 569q61 282 209.5 409.5t380.5 127.5q89 0 161 -28t121.5 -83.5t66.5 -138t-5 -192.5q-13 -60 -29 -113.5t-26 -77.5l-10 -24h-570q-19 -118 28 -164.5t148 -46.5q56 0 113 12t86 24l29 13q31 -34 46 -95t3 -120q-5 -4 -14.5 -10t-43.5 -22t-72.5 -28t-101.5 -22 t-131 -10q-251 0 -350 151t-39 438zM326 1233l49 235q49 15 139 15q39 0 72 -3.5t46 -7.5l13 -4l-49 -235q-51 -14 -139 -14q-39 0 -72 3.5t-46 7.5zM395 645h291q18 59 19 64q32 168 -97 168q-141 0 -213 -232zM729 1233l49 235q50 15 140 15q38 0 71 -3.5t47 -7.5l13 -4 l-50 -235q-53 -14 -139 -14q-40 0 -72.5 3.5t-45.5 7.5z" />
<glyph unicode="&#xec;" horiz-adv-x="542" d="M-16 16l223 1053q56 16 162 16q45 0 83.5 -4t53.5 -8l16 -4l-223 -1053q-60 -16 -162 -16q-47 0 -85.5 4t-53.5 8zM168 1507q44 52 131.5 84t159.5 23l123 -301q-67 -72 -193 -90z" />
<glyph unicode="&#xed;" horiz-adv-x="542" d="M-16 16l223 1053q56 16 162 16q45 0 83.5 -4t53.5 -8l16 -4l-223 -1053q-60 -16 -162 -16q-46 0 -84.5 4t-53.5 8zM229 1309l250 301q77 9 150.5 -23t95.5 -84l-342 -284q-120 21 -154 90z" />
<glyph unicode="&#xee;" horiz-adv-x="542" d="M-16 16l223 1053q56 16 162 16q45 0 83.5 -4t53.5 -8l16 -4l-223 -1053q-60 -16 -162 -16q-46 0 -84.5 4t-53.5 8zM76 1354l370 264h72l258 -264q-75 -103 -166 -135l-184 133l-240 -131q-80 33 -110 133z" />
<glyph unicode="&#xef;" horiz-adv-x="542" d="M-16 16l223 1053q56 16 162 16q45 0 83.5 -4t53.5 -8l16 -4l-223 -1053q-60 -16 -162 -16q-47 0 -85.5 4t-53.5 8zM61 1233l50 235q49 15 139 15q39 0 72 -3.5t46 -7.5l13 -4l-49 -235q-51 -14 -139 -14q-39 0 -72 3.5t-47 7.5zM465 1233l49 235q49 15 139 15 q38 0 71 -3.5t46 -7.5l14 -4l-49 -235q-53 -14 -139 -14q-40 0 -72.5 3.5t-45.5 7.5z" />
<glyph unicode="&#xf0;" horiz-adv-x="1140" d="M51 537q30 143 85.5 243.5t132.5 155.5t163 78.5t193 23.5q110 0 178 -47q-19 118 -101 203l-223 -119q-62 59 -65 158l133 70q-75 32 -156 49q13 119 92 184q182 -24 314 -104l211 110q61 -58 61 -158l-131 -67q104 -120 137.5 -290t-10.5 -398q-39 -185 -100.5 -313.5 t-144.5 -201t-177.5 -103.5t-214.5 -31q-229 0 -333 137t-44 420zM344.5 362.5q-2.5 -60.5 13.5 -93t42 -44.5t69 -12t75 12.5t62.5 44.5t55.5 93t45 153q16 76 19 130.5t-3.5 88t-25 53t-42 26.5t-57.5 7q-43 0 -74 -12.5t-60.5 -45t-53.5 -93.5t-43 -154 q-20 -93 -22.5 -153.5z" />
<glyph unicode="&#xf1;" horiz-adv-x="1122" d="M-16 16l223 1053q56 16 162 16q45 0 79.5 -4t45.5 -8l12 -4v-86q141 123 299 123q155 0 214 -92.5t23 -263.5l-155 -734q-58 -16 -162 -16q-47 0 -85.5 4t-53.5 8l-15 4l152 719q26 123 -105 123q-78 0 -153 -57l-166 -785q-60 -16 -162 -16q-47 0 -85.5 4t-53.5 8z M365 1384q3 4 9.5 11t27.5 25.5t44.5 32t59 25t72.5 11.5q69 0 146.5 -33t123.5 -33q32 0 61 13.5t43 27.5l13 13q38 -21 57 -65t14 -91q-3 -4 -9 -11t-27 -25t-44 -32t-59 -25t-74 -11q-71 0 -146.5 32.5t-121.5 32.5q-31 0 -61.5 -13t-45.5 -27l-14 -13q-81 51 -69 155z " />
<glyph unicode="&#xf2;" horiz-adv-x="1126" d="M59 571q32 150 87 255t133 166t169.5 87.5t208.5 26.5q236 0 337.5 -145t37.5 -441q-32 -150 -86.5 -256t-131.5 -167.5t-169 -89t-209 -27.5q-234 0 -336.5 147.5t-40.5 443.5zM356.5 383.5q-2.5 -64.5 12 -100.5t40.5 -51t68 -15q55 0 96 27t77.5 100.5t62.5 198.5 q20 95 23 159t-12 99.5t-41 50t-67 14.5q-56 0 -97 -26t-77 -99t-63 -198q-20 -95 -22.5 -159.5zM406 1503q43 52 129.5 84t160.5 23l125 -301q-70 -70 -196 -90z" />
<glyph unicode="&#xf3;" horiz-adv-x="1126" d="M59 571q32 150 87 255t133 166t169.5 87.5t208.5 26.5q236 0 337.5 -145t37.5 -441q-32 -150 -86.5 -256t-131.5 -167.5t-169 -89t-209 -27.5q-234 0 -336.5 147.5t-40.5 443.5zM356.5 383.5q-2.5 -64.5 12 -100.5t40.5 -51t68 -15q55 0 96 27t77.5 100.5t62.5 198.5 q20 95 23 159t-12 99.5t-41 50t-67 14.5q-56 0 -97 -26t-77 -99t-63 -198q-20 -95 -22.5 -159.5zM496 1309l249 301q77 9 150.5 -23t95.5 -84l-344 -291q-113 20 -151 97z" />
<glyph unicode="&#xf4;" horiz-adv-x="1126" d="M59 571q32 150 87 255t133 166t169.5 87.5t208.5 26.5q236 0 337.5 -145t37.5 -441q-32 -150 -86.5 -256t-131.5 -167.5t-169 -89t-209 -27.5q-234 0 -336.5 147.5t-40.5 443.5zM356.5 383.5q-2.5 -64.5 12 -100.5t40.5 -51t68 -15q55 0 96 27t77.5 100.5t62.5 198.5 q20 95 23 159t-12 99.5t-41 50t-67 14.5q-56 0 -97 -26t-77 -99t-63 -198q-20 -95 -22.5 -159.5zM358 1337l363 244h72l264 -244q-72 -99 -166 -133l-184 133l-240 -131q-83 33 -109 131z" />
<glyph unicode="&#xf5;" horiz-adv-x="1126" d="M59 571q32 150 87 255t133 166t169.5 87.5t208.5 26.5q236 0 337.5 -145t37.5 -441q-32 -150 -86.5 -256t-131.5 -167.5t-169 -89t-209 -27.5q-234 0 -336.5 147.5t-40.5 443.5zM350 1386q3 4 9.5 11t28 25.5t45 32t59.5 25t73 11.5q69 0 146 -33t123 -33q32 0 61 13.5 t42 27.5l13 13q39 -21 58.5 -65t13.5 -91q-3 -4 -9 -11t-27 -25t-44 -32t-59 -25t-74 -11q-71 0 -146.5 32.5t-121.5 32.5q-31 0 -61 -13t-44 -27l-14 -13q-85 51 -72 155zM356.5 383.5q-2.5 -64.5 12 -100.5t40.5 -51t68 -15q55 0 96 27t77.5 100.5t62.5 198.5 q20 95 23 159t-12 99.5t-41 50t-67 14.5q-56 0 -97 -26t-77 -99t-63 -198q-20 -95 -22.5 -159.5z" />
<glyph unicode="&#xf6;" horiz-adv-x="1126" d="M59 571q32 150 87 255t133 166t169.5 87.5t208.5 26.5q236 0 337.5 -145t37.5 -441q-32 -150 -86.5 -256t-131.5 -167.5t-169 -89t-209 -27.5q-234 0 -336.5 147.5t-40.5 443.5zM342 1233l49 235q49 15 139 15q39 0 72 -3.5t46 -7.5l14 -4l-50 -235q-51 -14 -139 -14 q-39 0 -72 3.5t-46 7.5zM356.5 383.5q-2.5 -64.5 12 -100.5t40.5 -51t68 -15q55 0 96 27t77.5 100.5t62.5 198.5q20 95 23 159t-12 99.5t-41 50t-67 14.5q-56 0 -97 -26t-77 -99t-63 -198q-20 -95 -22.5 -159.5zM745 1233l50 235q49 15 139 15q38 0 71 -3.5t47 -7.5l13 -4 l-49 -235q-53 -14 -139 -14q-40 0 -73 3.5t-46 7.5z" />
<glyph unicode="&#xf7;" horiz-adv-x="1034" d="M49 481q-6 43 10 113q6 31 15.5 59.5t15.5 40.5l6 13h875q8 -43 -6 -113q-7 -31 -17.5 -59.5t-17.5 -40.5l-6 -13h-875zM256 98l59 279q52 16 154 16q43 0 79.5 -4t51.5 -8l16 -4l-59 -279q-60 -16 -156 -16q-44 0 -80.5 4t-50.5 8zM408 811l59 279q52 16 154 16 q43 0 79.5 -4t51.5 -8l16 -4l-59 -279q-60 -16 -156 -16q-44 0 -80.5 4t-50.5 8z" />
<glyph unicode="&#xf8;" horiz-adv-x="1126" d="M-39 -37l137 164q-101 156 -39 444q32 150 87 255t133 166t169.5 87.5t208.5 26.5q125 0 215 -41l101 121q45 -1 83 -23.5t58 -54.5l-121 -145q102 -145 39 -443q-32 -150 -86.5 -256t-131.5 -167.5t-169 -89t-209 -27.5q-128 0 -215 43l-117 -138q-47 1 -85 22t-58 56z M360 430l338 410q-23 26 -82 26q-56 0 -97 -26t-77 -99t-63 -198q-15 -82 -19 -113zM389 248q27 -31 88 -31q55 0 96 27t77.5 100.5t62.5 198.5q13 59 20 116z" />
<glyph unicode="&#xf9;" horiz-adv-x="1120" d="M43 336l156 733q57 16 161 16q47 0 85.5 -4t53.5 -8l15 -4l-154 -721q-27 -123 103 -123q87 0 160 76l163 768q60 16 162 16q46 0 84.5 -4t53.5 -8l16 -4l-223 -1053q-56 -16 -162 -16q-40 0 -71.5 4t-42.5 8l-11 4v82q-134 -118 -303 -118q-155 0 -218.5 94t-27.5 262z M430 1462q43 52 130 84t161 23l123 -301q-67 -70 -195 -90z" />
<glyph unicode="&#xfa;" horiz-adv-x="1120" d="M43 336l156 733q57 16 161 16q47 0 85.5 -4t53.5 -8l15 -4l-154 -721q-27 -123 103 -123q87 0 160 76l163 768q60 16 162 16q46 0 84.5 -4t53.5 -8l16 -4l-223 -1053q-56 -16 -162 -16q-40 0 -71.5 4t-42.5 8l-11 4v82q-134 -118 -303 -118q-155 0 -218.5 94t-27.5 262z M504 1288l250 301q77 9 150 -22.5t95 -83.5l-340 -285q-121 21 -155 90z" />
<glyph unicode="&#xfb;" horiz-adv-x="1120" d="M43 336l156 733q57 16 161 16q47 0 85.5 -4t53.5 -8l15 -4l-154 -721q-27 -123 103 -123q87 0 160 76l163 768q60 16 162 16q46 0 84.5 -4t53.5 -8l16 -4l-223 -1053q-56 -16 -162 -16q-40 0 -71.5 4t-42.5 8l-11 4v82q-134 -118 -303 -118q-155 0 -218.5 94t-27.5 262z M348 1313l350 243h72l277 -243q-75 -103 -166 -135l-185 133l-237 -131q-84 34 -111 133z" />
<glyph unicode="&#xfc;" horiz-adv-x="1120" d="M43 336l156 733q57 16 161 16q47 0 85.5 -4t53.5 -8l15 -4l-154 -721q-27 -123 103 -123q87 0 160 76l163 768q60 16 162 16q46 0 84.5 -4t53.5 -8l16 -4l-223 -1053q-56 -16 -162 -16q-40 0 -71.5 4t-42.5 8l-11 4v82q-134 -118 -303 -118q-155 0 -218.5 94t-27.5 262z M354 1233l49 235q50 15 140 15q39 0 72 -3.5t46 -7.5l13 -4l-49 -235q-52 -14 -140 -14q-39 0 -72 3.5t-46 7.5zM758 1233l49 235q49 15 139 15q38 0 71 -3.5t47 -7.5l13 -4l-49 -235q-53 -14 -139 -14q-40 0 -72.5 3.5t-45.5 7.5z" />
<glyph unicode="&#xfd;" horiz-adv-x="1122" d="M-109 -428q32 127 123 203q10 -5 29 -13t75.5 -21t112.5 -13q58 0 95.5 5t77.5 23t67.5 51.5t53 90.5t46.5 141l7 24q-121 -83 -275 -83q-166 0 -229 97t-29 261l156 731q57 16 161 16q47 0 85.5 -4t53.5 -8l15 -4l-154 -721q-27 -123 103 -123q79 0 156 58l167 786 q60 16 162 16q46 0 84.5 -4t53.5 -8l16 -4l-217 -1016q-62 -294 -222.5 -429.5t-426.5 -135.5q-64 0 -123.5 8.5t-98.5 21t-68.5 25t-43.5 21.5zM510 1288l250 301q77 9 150.5 -22.5t95.5 -83.5l-340 -285q-122 22 -156 90z" />
<glyph unicode="&#xfe;" horiz-adv-x="1150" d="M-115 -442l420 1970q60 16 160 16q44 0 83 -4t56 -8l17 -4l-113 -527q111 105 289 105q85 0 145.5 -32t99 -102.5t40.5 -182t-29 -271.5q-32 -153 -82 -260.5t-115.5 -167t-138 -85t-162.5 -25.5q-176 0 -242 104l-112 -526q-62 -17 -162 -17q-44 0 -82.5 4.5t-54.5 8.5z M383 418q-18 -82 10 -137.5t99 -55.5q41 0 71.5 12.5t60.5 46t54 97.5t45 162q20 96 23.5 158t-10.5 96.5t-40 47.5t-69 13q-67 0 -118 -49t-71 -131z" />
<glyph unicode="&#xff;" horiz-adv-x="1122" d="M-109 -428q32 127 123 203q10 -5 29 -13t75.5 -21t112.5 -13q58 0 95.5 5t77.5 23t67.5 51.5t53 90.5t46.5 141l7 24q-121 -83 -275 -83q-166 0 -229 97t-29 261l156 731q57 16 161 16q47 0 85.5 -4t53.5 -8l15 -4l-154 -721q-27 -123 103 -123q79 0 156 58l167 786 q60 16 162 16q46 0 84.5 -4t53.5 -8l16 -4l-217 -1016q-62 -294 -222.5 -429.5t-426.5 -135.5q-64 0 -123.5 8.5t-98.5 21t-68.5 25t-43.5 21.5zM350 1233l49 235q48 15 138 15q39 0 72 -3.5t46 -7.5l13 -4l-50 -235q-51 -14 -139 -14q-39 0 -71.5 3.5t-45.5 7.5zM752 1233 l49 235q49 15 139 15q38 0 71 -3.5t47 -7.5l13 -4l-49 -235q-53 -14 -139 -14q-40 0 -72.5 3.5t-45.5 7.5z" />
<glyph unicode="&#x152;" horiz-adv-x="1802" d="M121 780q42 196 113.5 335t171 222t219 120.5t268.5 37.5q101 0 182 -20h809q10 -53 -6 -123q-11 -64 -47 -123h-508l-76 -361h406q10 -53 -6 -123q-11 -63 -48 -124h-405l-78 -373h529q6 -52 -7 -125q-14 -62 -47 -123h-831q-102 -20 -189 -20q-294 0 -413 205.5 t-37 594.5zM409.5 526.5q-5.5 -88.5 6 -145t42 -90t70.5 -46t97 -12.5q104 0 198 43l195 922q-82 45 -178 45q-72 0 -127 -21.5t-106.5 -76t-93 -156t-73.5 -252.5q-25 -122 -30.5 -210.5z" />
<glyph unicode="&#x153;" horiz-adv-x="1648" d="M61 575q32 150 88 254.5t134.5 164.5t170.5 86t210 26q189 0 270 -129q135 129 319 129q206 0 298.5 -108.5t47.5 -323.5q-13 -60 -30 -116.5t-28 -82.5l-11 -26h-557q-13 -121 26 -171.5t134 -50.5q56 0 113.5 12t86.5 23l29 12q30 -30 44 -86.5t5 -115.5 q-6 -4 -16.5 -10t-47 -22t-77.5 -28t-107 -22t-135 -10q-196 0 -280 124q-154 -124 -324 -124q-232 0 -329 148t-34 447zM352.5 383.5q-2.5 -64.5 12 -100.5t40.5 -51t68 -15q82 0 132.5 70t88.5 256q30 127 26.5 198.5t-28.5 98t-80 26.5q-56 0 -97 -26t-77 -99t-63 -198 q-20 -95 -22.5 -159.5zM1012 645h274q18 59 19 64q32 168 -95 168q-65 0 -113 -54t-85 -178z" />
<glyph unicode="&#x178;" horiz-adv-x="1327" d="M190 1456q72 19 199 19q49 0 87.5 -4.5t52.5 -9.5l14 -5l180 -534l410 534q90 19 194 19q46 0 89 -4.5t63 -9.5l20 -5l-682 -872l-121 -566q-60 -18 -164 -18q-52 0 -92 4.5t-54 9.5l-15 4l118 564zM524 1593l51 236q48 14 138 14q39 0 72.5 -3.5t46.5 -7.5l14 -3 l-51 -236q-50 -14 -138 -14q-39 0 -72.5 3.5t-46.5 7.5zM928 1593l51 236q47 14 137 14q38 0 71.5 -3.5t47.5 -7.5l14 -3l-51 -236q-51 -14 -137 -14q-40 0 -73 3.5t-46 7.5z" />
<glyph unicode="&#x2c6;" horiz-adv-x="811" d="M4 1270l375 270h76l264 -270q-78 -105 -172 -140l-187 138l-245 -135q-88 39 -111 137z" />
<glyph unicode="&#x2dc;" horiz-adv-x="669" d="M-18 1423q4 4 12 11t33 25.5t51 32t64 25t75 11.5q55 0 96 -16.5t76 -33t76 -16.5q32 0 61.5 13.5t42.5 26.5l13 14q38 -21 57 -65t14 -91q-4 -4 -11.5 -11t-31.5 -25.5t-49.5 -32t-64 -25t-76.5 -11.5q-56 0 -97 16.5t-75.5 33t-75.5 16.5q-31 0 -61 -13.5t-44 -26.5 l-14 -13q-84 48 -71 155z" />
<glyph unicode="&#x2000;" horiz-adv-x="985" />
<glyph unicode="&#x2001;" horiz-adv-x="1970" />
<glyph unicode="&#x2002;" horiz-adv-x="985" />
<glyph unicode="&#x2003;" horiz-adv-x="1970" />
<glyph unicode="&#x2004;" horiz-adv-x="656" />
<glyph unicode="&#x2005;" horiz-adv-x="492" />
<glyph unicode="&#x2006;" horiz-adv-x="328" />
<glyph unicode="&#x2007;" horiz-adv-x="328" />
<glyph unicode="&#x2008;" horiz-adv-x="246" />
<glyph unicode="&#x2009;" horiz-adv-x="394" />
<glyph unicode="&#x200a;" horiz-adv-x="109" />
<glyph unicode="&#x2010;" horiz-adv-x="716" d="M94 481q-6 43 10 113q6 31 15.5 59.5t15.5 40.5l6 13h465q6 -43 -8 -113q-7 -31 -17 -59.5t-16 -40.5l-6 -13h-465z" />
<glyph unicode="&#x2011;" horiz-adv-x="716" d="M94 481q-6 43 10 113q6 31 15.5 59.5t15.5 40.5l6 13h465q6 -43 -8 -113q-7 -31 -17 -59.5t-16 -40.5l-6 -13h-465z" />
<glyph unicode="&#x2012;" horiz-adv-x="716" d="M94 481q-6 43 10 113q6 31 15.5 59.5t15.5 40.5l6 13h465q6 -43 -8 -113q-7 -31 -17 -59.5t-16 -40.5l-6 -13h-465z" />
<glyph unicode="&#x2013;" horiz-adv-x="1136" d="M100 481q-5 43 11 113q6 31 15 59.5t15 40.5l6 13h875q6 -43 -8 -113q-7 -31 -17 -59.5t-16 -40.5l-6 -13h-875z" />
<glyph unicode="&#x2014;" horiz-adv-x="1648" d="M100 481q-5 43 11 113q6 31 15 59.5t15 40.5l6 13h1387q6 -43 -8 -113q-7 -31 -17 -59.5t-16 -40.5l-6 -13h-1387z" />
<glyph unicode="&#x2018;" horiz-adv-x="503" d="M143 864l45 211q15 72 47.5 140t69 113t70.5 80t56 51l22 16l96 -76q-10 -10 -25.5 -28t-50 -77t-51.5 -123q27 -2 51.5 -5.5t35.5 -5.5l11 -3l-61 -293q-58 -16 -162 -16q-44 0 -82.5 4t-54.5 8z" />
<glyph unicode="&#x2019;" horiz-adv-x="485" d="M172 924q10 9 25.5 26.5t50 76t51.5 122.5q-27 2 -51.5 6t-35.5 7l-11 3l61 293q58 17 162 17q44 0 82.5 -4.5t55.5 -8.5l16 -4l-46 -211q-15 -72 -47.5 -140t-68.5 -113t-70 -79.5t-56 -50.5l-22 -16z" />
<glyph unicode="&#x201a;" horiz-adv-x="520" d="M-53 -225q10 9 25.5 27t50 76.5t51.5 121.5q-28 2 -52.5 6t-35.5 7l-11 3l62 293q58 17 162 17q44 0 82 -4t55 -8l16 -5l-45 -211q-15 -73 -48 -141t-69 -113t-69.5 -80t-55.5 -51l-22 -16z" />
<glyph unicode="&#x201c;" horiz-adv-x="886" d="M143 864l45 211q15 72 47.5 140t69 113t70.5 80t56 51l22 16l96 -76q-10 -10 -25.5 -28t-50 -77t-51.5 -123q27 -2 51.5 -5.5t35.5 -5.5l11 -3l-61 -293q-58 -16 -162 -16q-44 0 -82.5 4t-54.5 8zM526 864l45 211q15 72 47.5 140t69 113t70.5 80t56 51l22 16l94 -76 q-10 -10 -25.5 -28t-50 -77t-51.5 -123q27 -2 52 -5.5t37 -5.5l11 -3l-61 -293q-58 -16 -162 -16q-44 0 -82.5 4t-55.5 8z" />
<glyph unicode="&#x201d;" horiz-adv-x="868" d="M172 924q10 9 25.5 26.5t50 76t51.5 122.5q-27 2 -51.5 6t-35.5 7l-11 3l61 293q58 17 162 17q44 0 82.5 -4.5t55.5 -8.5l16 -4l-46 -211q-15 -72 -47.5 -140t-68.5 -113t-70 -79.5t-56 -50.5l-22 -16zM555 924q10 9 25 26.5t49 76t51 122.5q-26 2 -50 6t-35 7l-11 3 l61 293q58 17 162 17q44 0 82.5 -4.5t54.5 -8.5l17 -4l-46 -211q-15 -72 -47.5 -140t-68.5 -113t-70 -79.5t-56 -50.5l-22 -16z" />
<glyph unicode="&#x201e;" horiz-adv-x="903" d="M-53 -225q10 9 25.5 27t50 76.5t51.5 121.5q-28 2 -52.5 6t-35.5 7l-11 3l62 293q58 17 162 17q44 0 82 -4t55 -8l16 -5l-45 -211q-15 -73 -48 -141t-69 -113t-69.5 -80t-55.5 -51l-22 -16zM330 -225q10 9 25 27t49 76.5t51 121.5q-27 2 -51.5 6t-35.5 7l-10 3l62 293 q58 17 162 17q44 0 82 -4t54 -8l17 -5l-45 -211q-15 -73 -48 -141t-69 -113t-69.5 -80t-55.5 -51l-22 -16z" />
<glyph unicode="&#x2022;" horiz-adv-x="745" d="M119 578q23 107 107 174t190 67q104 0 158.5 -67t31.5 -174q-23 -106 -106 -172t-187 -66q-106 0 -161.5 66t-32.5 172z" />
<glyph unicode="&#x2026;" horiz-adv-x="1460" d="M-25 16l62 293q56 17 162 17q45 0 83.5 -4t53.5 -8l16 -5l-61 -293q-60 -16 -162 -16q-47 0 -85.5 4t-53.5 8zM446 16l62 293q56 17 162 17q45 0 83.5 -4t54.5 -8l15 -5l-61 -293q-60 -16 -162 -16q-46 0 -84.5 4t-53.5 8zM915 16l62 293q56 17 162 17q45 0 83.5 -4 t53.5 -8l16 -5l-61 -293q-60 -16 -162 -16q-47 0 -85.5 4t-53.5 8z" />
<glyph unicode="&#x202f;" horiz-adv-x="394" />
<glyph unicode="&#x2039;" horiz-adv-x="690" d="M41 424q-10 43 6 119q8 36 20 69t19 48l8 14l520 379q59 -68 52 -189l-342 -313l208 -311q-47 -119 -131 -189z" />
<glyph unicode="&#x203a;" horiz-adv-x="690" d="M-6 240l340 311l-207 313q18 53 52.5 104.5t76.5 84.5l360 -379q8 -49 -10 -131q-7 -34 -18 -63.5t-18 -42.5l-7 -13l-520 -373q-59 70 -49 189z" />
<glyph unicode="&#x205f;" horiz-adv-x="492" />
<glyph unicode="&#x20ac;" horiz-adv-x="1212" d="M29 430q-2 41 18 96t49 90h119l14 70q3 12 8.5 35.5t8.5 36.5h-148q-1 41 19 96t49 90h143q94 221 257.5 335t389.5 114q96 0 176.5 -18.5t113.5 -36.5l32 -19q-28 -136 -135 -207q-90 39 -203 39q-103 0 -180 -47.5t-133 -159.5h446q0 -41 -19 -95.5t-48 -90.5h-447 q-5 -16 -18 -74q-11 -44 -13 -68h392q0 -41 -19.5 -95.5t-48.5 -90.5h-334q6 -112 64 -157.5t163 -45.5q54 0 114 9.5t93 19.5l33 10q36 -33 46.5 -94.5t-3.5 -116.5q-6 -3 -17 -8t-48 -18t-77.5 -23t-102.5 -18t-126 -8q-227 0 -342.5 114t-113.5 336h-172z" />
<glyph unicode="&#x2122;" horiz-adv-x="1255" d="M217 1370q0 33 2 49q8 35 21 56h436q4 -16 -4 -54q-3 -23 -19 -51h-151l-101 -477q-26 -8 -67 -8q-19 0 -34.5 2t-21.5 4l-6 2l101 477h-156zM621 893l120 573q54 9 82 9q52 0 76 -9l35 -149q20 -120 20 -156q29 53 88 144l99 161q41 9 84 9q21 0 42 -2.5t31 -4.5l11 -2 l-121 -573q-25 -8 -64 -8q-18 0 -34 2t-22 4l-7 2l47 221q24 122 45 197q-14 -26 -41 -71t-29 -48l-98 -152q-22 -8 -59 -8q-16 0 -30 2t-20 4l-6 2l-28 170q-12 42 -23 101q-4 -37 -35 -197l-47 -221q-24 -8 -61 -8q-16 0 -29.5 2t-19.5 4z" />
<glyph unicode="&#x25fc;" horiz-adv-x="1085" d="M0 0v1085h1085v-1085h-1085z" />
</font>
</defs>
</svg>
