<?xml version="1.0" standalone="no"?>
<!DOCTYPE svg PUBLIC "-//W3C//DTD SVG 1.1//EN" "http://www.w3.org/Graphics/SVG/1.1/DTD/svg11.dtd" >
<svg xmlns="http://www.w3.org/2000/svg">
<metadata></metadata>
<defs>
<font id="globerxbold" horiz-adv-x="1380" >
<font-face units-per-em="2048" ascent="1536" descent="-512" />
<missing-glyph horiz-adv-x="403" />
<glyph unicode="&#xfb01;" horiz-adv-x="1226" d="M43 971q0 31 3 59.5t6 41.5l3 13h131v115q0 336 428 336q133 0 255 -19t177 -38l56 -19q-6 -119 -84 -211q-18 5 -49.5 12.5t-127.5 20t-190 12.5q-77 0 -113 -25t-36 -81v-103h452q45 0 84.5 -4t56.5 -8l17 -4v-1053q-56 -16 -158 -16q-47 0 -86.5 4t-55.5 8l-15 4v836 h-295v-836q-56 -16 -158 -16q-46 0 -85.5 4t-56.5 8l-16 4v836h-131q-12 47 -12 119z" />
<glyph unicode="&#xfb02;" horiz-adv-x="1228" d="M45 967q0 74 10 118h131v115q0 336 428 336q114 0 238.5 -19t191.5 -38l68 -19v-1444q-56 -16 -158 -16q-47 0 -86.5 4t-55.5 8l-15 4v1272q-129 6 -146 6q-77 0 -113 -25t-36 -81v-103h149q13 -57 13 -116q0 -60 -13 -117h-149v-836q-56 -16 -158 -16q-46 0 -85.5 4 t-56.5 8l-16 4v836h-131q-10 58 -10 115z" />
<glyph horiz-adv-x="0" />
<glyph horiz-adv-x="682" />
<glyph unicode=" "  horiz-adv-x="403" />
<glyph unicode="&#x09;" horiz-adv-x="403" />
<glyph unicode="&#xa0;" horiz-adv-x="403" />
<glyph unicode="!" horiz-adv-x="600" d="M129 1458q59 17 170 17q47 0 90 -4.5t63 -8.5l19 -4l-43 -1012q-47 -18 -127 -18q-36 0 -68 4.5t-47 9.5l-14 4zM143 16v293q49 17 158 17q44 0 83.5 -4t57.5 -8l17 -5v-293q-58 -16 -158 -16q-47 0 -86.5 4t-55.5 8z" />
<glyph unicode="&#x22;" horiz-adv-x="806" d="M78 1458q47 17 147 17q42 0 79.5 -4.5t53.5 -8.5l17 -4l-47 -448q-35 -15 -103 -15q-29 0 -54 3.5t-35 7.5l-11 4zM432 1458q50 17 150 17q42 0 78.5 -4.5t52.5 -8.5l16 -4l-47 -448q-34 -15 -100 -15q-30 0 -56 3.5t-36 7.5l-11 4z" />
<glyph unicode="#" d="M51 334q0 36 4.5 67t8.5 43l4 13h217l96 344h-143q-17 55 -17 121t17 118h211l61 217q59 19 125 19q71 0 133 -19l-61 -217h206l62 217q59 19 131 19q66 0 125 -19l-62 -217h142q16 -56 16 -110q0 -67 -16 -129h-209l-96 -344h135q16 -45 16 -121q0 -33 -4 -63t-8 -44 l-4 -14h-203l-55 -197q-55 -18 -125 -18q-76 0 -131 18l53 197h-207l-53 -197q-58 -18 -133 -18q-69 0 -125 18l55 197h-149q-17 43 -17 119zM541 457h207l96 344h-207z" />
<glyph unicode="$" horiz-adv-x="1150" d="M78 92q-6 49 14 119q9 31 22.5 59t23.5 40l9 12q22 -6 59.5 -16t141 -26t191.5 -16q118 0 179.5 29.5t61.5 99.5q0 43 -30 75t-79.5 50t-112 37t-128.5 36t-128.5 47.5t-112 70t-79.5 106t-30 152.5q0 165 100.5 267t292.5 128l-18 237q47 17 125 17q37 0 69.5 -4 t46.5 -8l13 -5l-19 -231q84 -5 166 -19.5t122 -26.5l40 -11q4 -53 -19 -121q-9 -28 -23.5 -54t-25.5 -38l-10 -13q-141 39 -291 39q-256 0 -256 -129q0 -38 30.5 -66.5t80.5 -45t113.5 -36t130 -37.5t130 -51t113.5 -75t80.5 -111.5t30.5 -158.5q0 -178 -104 -280.5 t-310 -125.5l21 -256q-43 -16 -127 -16q-35 0 -66.5 4t-45.5 8l-15 4l18 252q-105 6 -203.5 28t-145.5 41z" />
<glyph unicode="%" horiz-adv-x="1562" d="M51 1061q0 356 301 356q147 0 225 -84.5t78 -271.5t-78 -271.5t-225 -84.5t-224 84.5t-77 271.5zM270 1061q0 -81 9.5 -123t26 -54t46.5 -12q29 0 45.5 12t26.5 54.5t10 122.5t-10 123t-26.5 56t-45.5 13q-45 0 -63.5 -38t-18.5 -154zM276 -6l789 1429q37 15 117 15 q35 0 64.5 -4t41.5 -8l12 -3l-788 -1429q-39 -14 -119 -14q-35 0 -64 3.5t-41 6.5zM907 336q0 356 301 356q147 0 225 -84.5t78 -271.5t-78 -271.5t-225 -84.5t-224 84.5t-77 271.5zM1126 336q0 -81 9.5 -123t26 -54t46.5 -12q29 0 45.5 12t26.5 54.5t10 122.5t-10 123 t-26.5 56t-45.5 13q-45 0 -63.5 -38t-18.5 -154z" />
<glyph unicode="&#x26;" horiz-adv-x="1331" d="M59 334q0 80 29.5 152.5t78.5 126.5t93 89t92 64q-69 160 -69 307q0 158 91.5 249t276.5 91q160 0 253 -70.5t93 -197.5q0 -71 -25 -134t-73 -115t-97 -90.5t-118 -82.5q84 -125 234 -256q30 49 77 166q67 1 127.5 -27t94.5 -76q-43 -94 -117 -192q104 -64 223 -113 q-6 -73 -51.5 -137t-104.5 -90q-137 54 -264 133q-182 -151 -420 -151q-86 0 -160.5 21t-134.5 62.5t-94.5 111t-34.5 159.5zM348 375q0 -73 49 -118.5t129 -45.5q106 0 197 57q-156 135 -268 312q-107 -98 -107 -205zM545 1098q0 -94 43 -195q66 49 101.5 103.5t35.5 128.5 q0 41 -22.5 66.5t-63.5 25.5q-94 0 -94 -129z" />
<glyph unicode="'" horiz-adv-x="454" d="M80 1458q47 17 147 17q42 0 79.5 -4.5t53.5 -8.5l17 -4l-47 -448q-37 -15 -103 -15q-29 0 -54.5 3.5t-36.5 7.5l-11 4z" />
<glyph unicode="(" horiz-adv-x="612" d="M76 655q0 155 27 316t66 279.5t78 214.5t66 146l27 50q57 4 127 -33q31 -16 54.5 -37t31.5 -34l8 -13q-8 -14 -21 -40t-47 -114.5t-60 -185t-47 -246t-21 -303.5t20 -302t49 -249.5t58 -181t49 -117.5l20 -38q-2 -6 -7.5 -15.5t-29.5 -32t-57 -38.5q-31 -15 -63 -22.5 t-48 -8.5h-16q-11 18 -28.5 52t-63 141.5t-80.5 219t-63.5 274.5t-28.5 318z" />
<glyph unicode=")" horiz-adv-x="612" d="M51 -233q8 14 21.5 40t48 114t60.5 184.5t47.5 246t21.5 303.5t-20.5 302t-50 249.5t-58.5 181t-49 118.5l-21 38q3 5 9 14t30 31.5t55 38.5t63 24.5t48 8.5h16q11 -18 29 -52t63.5 -141.5t80.5 -219t63.5 -275t28.5 -318.5t-27.5 -316t-66.5 -279t-77.5 -214.5 t-65.5 -145.5l-28 -50q-57 -2 -127 31q-33 16 -56.5 37.5t-30.5 35.5z" />
<glyph unicode="*" horiz-adv-x="673" d="M72 1217q0 93 47 143l141 -45v149q76 25 154 -2v-147l145 45q43 -49 43 -143l-141 -48l92 -125q-59 -67 -129 -86l-86 121l-86 -121q-74 20 -129 86l88 123z" />
<glyph unicode="+" horiz-adv-x="931" d="M66 594q0 31 3.5 59.5t6.5 40.5l4 13h272v274q43 14 113 14q31 0 59.5 -3.5t41.5 -7.5l12 -3v-274h274q14 -43 14 -113q0 -31 -3.5 -59.5t-6.5 -40.5l-4 -13h-274v-272q-43 -16 -113 -16q-31 0 -59.5 4t-41.5 8l-12 4v272h-272q-14 43 -14 113z" />
<glyph unicode="," horiz-adv-x="520" d="M102 16v293q58 17 158 17q44 0 83.5 -4t56.5 -8l18 -5v-211q0 -73 -18.5 -141t-45 -113t-53 -80t-45.5 -51l-18 -16l-113 78q3 3 8 9.5t17.5 29t23 46.5t20 62.5t11.5 77.5q-28 2 -53.5 6t-37.5 7z" />
<glyph unicode="-" horiz-adv-x="714" d="M111 594q0 31 3.5 59.5t7.5 40.5l3 13h465q14 -43 14 -113q0 -31 -3.5 -59.5t-6.5 -40.5l-4 -13h-465q-14 43 -14 113z" />
<glyph unicode="." horiz-adv-x="520" d="M102 16v293q52 17 158 17q45 0 84.5 -4t56.5 -8l17 -5v-293q-56 -16 -158 -16q-47 0 -86.5 4t-55.5 8z" />
<glyph unicode="/" horiz-adv-x="1073" d="M37 -78l682 1596q64 18 158 18q44 0 84 -4.5t59 -9.5l18 -4l-682 -1596q-63 -18 -157 -18q-44 0 -84.5 4.5t-58.5 9.5z" />
<glyph unicode="0" horiz-adv-x="1275" d="M90 696q0 374 138 549.5t409 175.5t410 -174.5t139 -550.5t-139 -550.5t-410 -174.5q-272 0 -409.5 174t-137.5 551zM430 696q0 -143 13 -236t41 -143t64 -69t89 -19q54 0 89.5 19t62.5 69t39 143t12 236q0 144 -12 237t-39.5 143t-62.5 68.5t-89 18.5q-53 0 -89 -18.5 t-64 -68.5t-41 -143.5t-13 -236.5z" />
<glyph unicode="1" horiz-adv-x="880" d="M35 1124q125 36 210.5 97.5t153.5 160.5q58 19 160 19q44 0 84.5 -4.5t58.5 -9.5l19 -5v-1364q-58 -18 -160 -18q-44 0 -85 4.5t-60 9.5l-19 4v793q0 113 6 193q-118 -93 -284 -132q-46 40 -69.5 109t-14.5 143z" />
<glyph unicode="2" horiz-adv-x="1105" d="M72 152q0 88 25.5 165.5t54.5 127.5t93 108.5t99 84t114 78.5q4 3 7 5q135 93 182 151t47 140q0 76 -56 114.5t-157 38.5q-64 0 -133.5 -13.5t-107.5 -26.5l-37 -13q-46 35 -70.5 96t-19.5 127q7 3 20.5 9t56.5 21t89.5 26t116.5 20.5t139 9.5q225 0 356 -101t131 -300 q0 -73 -16.5 -133.5t-44 -106.5t-77.5 -91.5t-101.5 -81t-131.5 -83.5q-23 -14 -66.5 -37t-69 -38.5t-55.5 -38.5t-45.5 -49.5t-17.5 -57.5q0 -13 4 -33h580q27 -59 27 -135q0 -77 -27 -135h-893q-16 70 -16 152z" />
<glyph unicode="3" horiz-adv-x="1091" d="M68 55q-2 59 20 123.5t57 100.5q141 -41 291 -41q131 0 188.5 42.5t57.5 143.5q0 96 -49.5 140t-165.5 44h-186q-20 56 -20 123t20 119h186q174 0 174 156q0 86 -51.5 124.5t-155.5 38.5q-68 0 -131.5 -10.5t-92.5 -20.5l-30 -10q-47 34 -73.5 93t-22.5 122q6 3 18 8.5 t50.5 19t80.5 23.5t105 18.5t127 8.5q233 0 364.5 -96.5t131.5 -282.5q0 -223 -177 -305q222 -87 222 -352q0 -200 -131.5 -302.5t-419.5 -102.5q-109 0 -206 19t-139 37z" />
<glyph unicode="4" horiz-adv-x="1202" d="M39 440q0 36 5 67t10 45l5 13l598 817q60 19 162 19q45 0 84 -4.5t55 -9.5l17 -5v-817h160q18 -45 18 -125q0 -36 -4.5 -66.5t-8.5 -43.5l-5 -13h-160v-299q-56 -18 -148 -18q-43 0 -81 4.5t-55 9.5l-17 4v299h-615q-20 43 -20 123zM362 565h312v424z" />
<glyph unicode="5" horiz-adv-x="1081" d="M63 53q-3 136 72 223q129 -38 287 -38q130 0 194 45t64 141q0 108 -60.5 150t-205.5 42t-260 -8v793h782q20 -61 20 -133t-20 -129h-475v-277q53 0 112 -6q431 -28 431 -432q0 -216 -142.5 -330t-417.5 -114q-71 0 -136 7.5t-107.5 18t-75 21.5t-47.5 19z" />
<glyph unicode="6" horiz-adv-x="1132" d="M86 530q0 412 213 629.5t612 241.5q20 -54 20 -124t-20 -124q-187 -21 -296 -91.5t-158 -209.5q93 22 176 22q94 0 172 -26t138.5 -79.5t94 -142.5t33.5 -206q0 -223 -128.5 -331.5t-364.5 -108.5q-235 0 -363.5 135.5t-128.5 414.5zM408 522q0 -168 44 -238.5t126 -70.5 q80 0 125 51t45 156q0 217 -177 217q-76 0 -161 -29q-2 -27 -2 -86z" />
<glyph unicode="7" horiz-adv-x="1028" d="M51 1270q0 36 4.5 69t9.5 47l5 15h901q17 -76 14 -162q-3 -95 -31.5 -182.5t-71.5 -158.5t-95 -142t-103 -148t-93.5 -161t-68.5 -196t-26 -239q-56 -12 -152 -12q-98 0 -154 12q0 132 21.5 248t57.5 203t80 162t92.5 139.5t91.5 121.5t80 122t55 127h-598 q-19 53 -19 135z" />
<glyph unicode="8" horiz-adv-x="1191" d="M84 350q0 221 238 355q-199 127 -199 346q0 169 124.5 269.5t344.5 100.5q214 0 335.5 -91.5t121.5 -256.5q0 -193 -177 -323q111 -67 174.5 -156t63.5 -223q0 -189 -137.5 -294.5t-386.5 -105.5q-234 0 -368 98t-134 281zM387 367q0 -74 53.5 -116t153.5 -42 q91 0 144 42t53 114q0 51 -41 95t-80 65t-129 62q-12 6 -19 9q-135 -98 -135 -229zM432 1063q0 -37 17 -67t54.5 -56.5t70.5 -44t92 -43.5q96 84 96 197q0 72 -43 109.5t-125 37.5q-77 0 -119.5 -35.5t-42.5 -97.5z" />
<glyph unicode="9" horiz-adv-x="1132" d="M61 977q0 223 128.5 333.5t363.5 110.5t364.5 -136t129.5 -415q0 -412 -213.5 -629t-612.5 -241q-43 130 0 248q185 17 293.5 88t157.5 211q-86 -21 -174 -21q-93 0 -170.5 26t-138 79t-94.5 141.5t-34 204.5zM385 977q0 -117 45 -166t129 -49q73 0 162 26q4 58 4 91 q0 168 -45 238.5t-127 70.5q-79 0 -123.5 -52t-44.5 -159z" />
<glyph unicode=":" horiz-adv-x="536" d="M111 16v293q51 17 157 17q45 0 84.5 -4t56.5 -8l17 -5v-293q-56 -16 -158 -16q-47 0 -86.5 4t-55.5 8zM111 768v293q51 16 157 16q45 0 84.5 -4t56.5 -8l17 -4v-293q-56 -16 -158 -16q-47 0 -86.5 4t-55.5 8z" />
<glyph unicode=";" horiz-adv-x="536" d="M111 16v293q53 17 157 17q44 0 83.5 -4t56.5 -8l18 -5v-211q0 -73 -18.5 -141t-45 -113t-53 -80t-45.5 -51l-18 -16l-113 78q3 3 8 9.5t17.5 29t23 46.5t20 62.5t11.5 77.5q-28 2 -53.5 6t-37.5 7zM111 768v293q51 16 157 16q45 0 84.5 -4t56.5 -8l17 -4v-293 q-56 -16 -158 -16q-47 0 -86.5 4t-55.5 8z" />
<glyph unicode="&#x3c;" horiz-adv-x="874" d="M68 596q0 32 3.5 61t6.5 41l4 13l670 293q14 -37 14 -113q0 -33 -3.5 -61.5t-6.5 -41.5l-4 -12l-420 -186l420 -180q14 -37 14 -113q0 -33 -3.5 -61t-6.5 -40l-4 -12l-670 293q-14 49 -14 119z" />
<glyph unicode="=" horiz-adv-x="1050" d="M118 399.5q0 62.5 13 108.5h787q15 -49 14.5 -111.5t-14.5 -113.5h-787q-13 54 -13 116.5zM118 794.5q0 62.5 13 108.5h787q15 -49 14.5 -111.5t-14.5 -113.5h-787q-13 54 -13 116.5z" />
<glyph unicode="&#x3e;" horiz-adv-x="872" d="M109 297q0 34 3.5 62t7.5 39l3 12l418 180l-418 186q-14 41 -14 115q0 34 3.5 62t7.5 39l3 12l670 -293q14 -43 14 -115q0 -31 -3.5 -61t-7.5 -44l-3 -14l-670 -293q-14 39 -14 113z" />
<glyph unicode="?" horiz-adv-x="915" d="M51 1339q15 8 44 20.5t121.5 33t189.5 20.5t175.5 -18t143.5 -58.5t101 -113.5t36 -174q0 -78 -19.5 -138.5t-51 -98.5t-69.5 -69t-76 -57t-69.5 -54t-51 -69t-19.5 -94q-41 -25 -127 -25q-36 0 -68.5 6t-46.5 12l-14 7q0 85 16 149.5t41.5 103.5t56 68.5t61.5 52 t56.5 46t41.5 58.5t16 81q0 78 -46.5 108.5t-134.5 30.5q-56 0 -109.5 -11.5t-78.5 -23.5l-25 -12q-52 36 -76 93.5t-18 125.5zM221 16v293q49 17 158 17q44 0 83.5 -4t57.5 -8l17 -5v-293q-58 -16 -158 -16q-47 0 -86.5 4t-55.5 8z" />
<glyph unicode="@" horiz-adv-x="1859" d="M74 571q0 255 116 444.5t315.5 286.5t455.5 97q380 0 596.5 -210.5t216.5 -567.5q0 -214 -108.5 -330.5t-287.5 -116.5q-214 0 -288 113q-74 -113 -263 -113q-152 0 -234.5 92t-82.5 303q0 213 82.5 305.5t234.5 92.5q151 0 226 -66v55q37 21 127 21q40 0 71 -5.5 t43 -10.5l11 -5v-483q0 -106 86 -106q141 0 141 254q0 270 -149.5 426.5t-421.5 156.5q-293 0 -456 -166t-163 -467q0 -131 33.5 -236t91 -174.5t137 -115.5t167.5 -66t187 -20q277 0 512 135q37 -18 60.5 -58t28.5 -87q-289 -193 -631 -193q-133 0 -256.5 31t-232.5 96.5 t-190 160t-128 230t-47 297.5zM782 569q0 -124 32 -169.5t108 -45.5q58 0 93 35t38 100v168q-4 63 -39 97t-92 34q-77 0 -108.5 -45t-31.5 -174z" />
<glyph unicode="A" d="M16 18l467 1438q78 19 207 19q60 0 111.5 -4.5t73.5 -9.5l22 -5l467 -1438q-57 -18 -172 -18q-47 0 -86.5 4.5t-55.5 9.5l-16 4l-96 299h-514l-96 -299q-60 -18 -160 -18q-43 0 -81 4.5t-55 9.5zM500 557h362l-119 371q-19 58 -34 118t-20 90l-5 31h-8q-14 -110 -55 -239 z" />
<glyph unicode="B" horiz-adv-x="1290" d="M141 0v1475h602q199 0 312.5 -110t113.5 -302q0 -204 -159 -301q96 -47 149 -132t53 -204q0 -204 -122 -315t-338 -111h-611zM467 238h221q193 0 193 196q0 101 -48 149t-145 48h-221v-393zM467 866h211q81 0 123.5 50t42.5 137q0 89 -42 137.5t-124 48.5h-211v-373z" />
<glyph unicode="C" horiz-adv-x="1167" d="M84 737q0 372 165.5 567t479.5 195q69 0 133 -8t106.5 -20t75 -24t47.5 -20l15 -8v-14q0 -120 -94 -211q-111 41 -240 41q-82 0 -142 -23.5t-106.5 -79t-70 -155t-23.5 -242.5t23.5 -241.5t70 -152.5t106 -76.5t142.5 -22.5q62 0 126.5 11t97.5 23l34 11 q45 -41 70.5 -103t25.5 -129q-6 -3 -16.5 -8.5t-48 -19.5t-80 -24.5t-111 -19t-141.5 -8.5q-314 0 -479.5 195t-165.5 567z" />
<glyph unicode="D" horiz-adv-x="1366" d="M141 0v1475h506q153 0 268.5 -41t198 -128.5t124.5 -230t42 -338.5t-42 -338t-124.5 -229.5t-198 -128.5t-268.5 -41h-506zM469 256h166q59 0 102.5 12t82 43.5t62.5 85t38 139t14 201.5q0 118 -14 203.5t-38 139t-62.5 85t-82 43t-102.5 11.5h-166v-963z" />
<glyph unicode="E" horiz-adv-x="1142" d="M141 0v1475h897q21 -65 21 -119q0 -70 -21 -131h-569v-357h467q20 -70 20 -120q0 -65 -20 -127h-467v-371h590q20 -55 20 -123q0 -74 -20 -127h-918z" />
<glyph unicode="F" horiz-adv-x="1095" d="M141 18v1457h877q20 -66 20 -123q0 -69 -20 -127h-549v-383h487q21 -51 21 -121q0 -71 -21 -129h-487v-574q-64 -18 -166 -18q-44 0 -84.5 4.5t-58.5 9.5z" />
<glyph unicode="G" horiz-adv-x="1306" d="M84 737q0 370 174.5 564t505.5 194q76 0 146.5 -8.5t117.5 -20.5t83 -24t53 -20l16 -9q-3 -137 -93 -227q-15 5 -41.5 13.5t-101.5 22t-143 13.5q-70 0 -125.5 -14.5t-103.5 -49.5t-80 -91.5t-50 -143.5t-18 -201q0 -142 25.5 -239.5t76 -151.5t115 -77t152.5 -23l100 6 v360h-223q-21 43 -21 123q0 36 5.5 68t10.5 45l5 14h530v-799q-6 -3 -18.5 -8.5t-54 -19.5t-88.5 -24.5t-121.5 -19.5t-153.5 -9q-331 0 -505.5 193.5t-174.5 563.5z" />
<glyph unicode="H" horiz-adv-x="1394" d="M139 18v1438q62 19 162 19q45 0 86.5 -4.5t60.5 -9.5l19 -5v-567h461v567q64 19 164 19q44 0 85 -4.5t59 -9.5l19 -5v-1438q-61 -18 -161 -18q-49 0 -90.5 4.5t-58.5 9.5l-17 4v605h-461v-605q-66 -18 -164 -18q-48 0 -89 4.5t-58 9.5z" />
<glyph unicode="I" horiz-adv-x="606" d="M139 18v1438q62 19 162 19q45 0 86.5 -4.5t60.5 -9.5l19 -5v-1438q-66 -18 -164 -18q-48 0 -89 4.5t-58 9.5z" />
<glyph unicode="J" horiz-adv-x="952" d="M25 49v11q0 59 20 118q22 64 64 107q86 -33 180 -33q203 0 203 197v1007q54 19 163 19q45 0 86 -4.5t59 -9.5l19 -5v-1038q0 -213 -122 -325.5t-332 -112.5q-90 0 -175 17t-125 35z" />
<glyph unicode="K" horiz-adv-x="1290" d="M139 18v1438q60 19 166 19q46 0 86.5 -4.5t58.5 -9.5l17 -5v-567h78l352 567q86 19 164 19q81 0 174 -19l-410 -661l473 -777q-75 -18 -192 -18q-51 0 -96 4.5t-64 9.5l-20 4l-381 625h-78v-625q-51 -18 -164 -18q-46 0 -87 4.5t-59 9.5z" />
<glyph unicode="L" horiz-adv-x="1089" d="M141 0v1456q62 19 162 19q45 0 86.5 -4.5t60.5 -9.5l19 -5v-1190h573q21 -62 21 -133q0 -58 -21 -133h-901z" />
<glyph unicode="M" horiz-adv-x="1697" d="M139 18v1438q111 19 201 19q50 0 99 -4.5t73 -9.5l23 -5l161 -377q108 -257 142 -395h10q18 101 70 234q62 151 227 538q83 19 198 19q97 0 216 -19v-1438q-56 -18 -156 -18q-45 0 -85 4.5t-58 9.5l-17 4v431q0 178 8 371.5t19 277.5h-13q-19 -66 -72.5 -210t-105.5 -270 l-133 -313q-41 -14 -117 -14q-34 0 -61 3.5t-37 7.5l-10 3l-129 301q-56 128 -111 276t-73 216h-13q15 -71 25 -253t10 -364v-463q-53 -18 -145 -18q-40 0 -76.5 4.5t-52.5 9.5z" />
<glyph unicode="N" horiz-adv-x="1435" d="M139 18v1438q70 19 209 19q62 0 112.5 -4.5t70.5 -9.5l20 -5l340 -741q34 -77 65.5 -169t46.5 -145l15 -53h8q-18 197 -18 416v692q53 19 147 19q43 0 78 -4.5t49 -9.5l14 -5v-1438q-63 -18 -204 -18q-58 0 -110 4.5t-74 9.5l-23 4l-348 748q-34 77 -64 163t-43 133 l-14 48h-10q20 -170 20 -391v-701q-47 -18 -145 -18q-43 0 -78.5 4.5t-49.5 9.5z" />
<glyph unicode="O" horiz-adv-x="1411" d="M86 737q0 194 43.5 340.5t125.5 238.5t195 137.5t257 45.5q293 0 455.5 -187.5t162.5 -574.5q0 -388 -161.5 -575t-456.5 -187q-297 0 -459 187t-162 575zM434 737q0 -120 12.5 -208.5t35 -144.5t57.5 -90t75 -47.5t93 -13.5q68 0 115 22t84 77t55 155.5t18 249.5 q0 150 -18 250.5t-55 156t-84 77.5t-115 22q-53 0 -93 -13.5t-75 -47.5t-57.5 -90.5t-35 -145.5t-12.5 -209z" />
<glyph unicode="P" horiz-adv-x="1245" d="M141 18v1457h568q223 0 352 -126t129 -345q0 -218 -129 -343.5t-352 -125.5h-240v-517q-60 -18 -164 -18q-49 0 -90 4.5t-57 9.5zM469 788h193q91 0 140.5 56t49.5 160q0 105 -49.5 160t-140.5 55h-193v-431z" />
<glyph unicode="Q" horiz-adv-x="1411" d="M86 737q0 194 43.5 340.5t125.5 238.5t195 137.5t257 45.5q293 0 455.5 -187.5t162.5 -574.5q0 -420 -195 -612q115 -78 273 -109q-6 -85 -52 -156t-106 -100q-191 68 -325 246q-98 -31 -213 -31q-297 0 -459 187t-162 575zM434 737q0 -120 12.5 -208.5t35 -144.5 t57.5 -90t75 -47.5t93 -13.5q68 0 115 22t84 77t55 155.5t18 249.5q0 150 -18 250.5t-55 156t-84 77.5t-115 22q-53 0 -93 -13.5t-75 -47.5t-57.5 -90.5t-35 -145.5t-12.5 -209z" />
<glyph unicode="R" horiz-adv-x="1296" d="M141 18v1457h564q230 0 356.5 -123t126.5 -330q0 -145 -67 -253t-189 -157l334 -594q-68 -18 -187 -18q-51 0 -96 4.5t-65 9.5l-19 4l-303 553h-127v-553q-62 -18 -162 -18q-49 0 -90.5 4.5t-58.5 9.5zM469 825h188q93 0 141 51t48 146q0 96 -48 147.5t-141 51.5h-188 v-396z" />
<glyph unicode="S" horiz-adv-x="1181" d="M76 76q0 64 21.5 132t56.5 118q21 -7 57 -17.5t138.5 -28.5t193.5 -18q235 0 235 158q0 64 -52.5 101.5t-158.5 74.5q-16 5 -50 16q-44 14 -67.5 22t-66 24.5t-67 29t-60.5 34.5t-57 43t-46 52t-38 64t-22 76t-9 92q0 209 135.5 329.5t405.5 120.5q118 0 225.5 -17.5 t155.5 -34.5l49 -17q0 -67 -21 -132.5t-61 -109.5q-135 41 -297 41q-260 0 -260 -158q0 -27 14.5 -50t35 -38.5t58 -32t68 -26.5t82.5 -26.5t84 -27.5q61 -22 107.5 -45t96.5 -60t82 -81t53 -108t21 -142q0 -225 -138.5 -342t-414.5 -117q-134 0 -256 25.5t-177 50.5z" />
<glyph unicode="T" horiz-adv-x="1159" d="M35 1335q0 36 5 71t10 52l5 17h1049q20 -58 20 -136q0 -36 -5 -70.5t-10 -51.5l-5 -17h-356v-1182q-66 -18 -164 -18q-48 0 -88.5 4.5t-57.5 9.5l-16 4v1182h-367q-20 53 -20 135z" />
<glyph unicode="U" d="M131 514v942q58 19 162 19q46 0 87 -4.5t59 -9.5l18 -5v-967q0 -115 60.5 -176t174.5 -61q115 0 174.5 60.5t59.5 176.5v967q55 19 159 19q46 0 87 -4.5t59 -9.5l18 -5v-942q0 -255 -152 -397t-409 -142q-256 0 -406.5 143t-150.5 396z" />
<glyph unicode="V" horiz-adv-x="1363" d="M18 1450q68 25 179 25q45 0 83.5 -5.5t53.5 -10.5l16 -5l256 -815q25 -84 44.5 -166t26.5 -122l7 -40h8q21 135 80 330l258 813q46 21 152 21q45 0 86 -5.5t60 -10.5l18 -5l-455 -1438q-84 -16 -209 -16q-57 0 -110 4t-77 8l-24 4z" />
<glyph unicode="W" horiz-adv-x="2023" d="M35 1456q60 19 166 19q45 0 84 -4.5t55 -9.5l16 -5l197 -819q16 -71 30 -153t21 -128l6 -47h8q15 164 48 326l170 821q59 19 188 19q56 0 103.5 -4.5t66.5 -9.5l20 -5l168 -819q15 -76 25.5 -158t14.5 -126l3 -44h9q16 148 57 326l201 821q55 19 147 19q40 0 78 -4.5 t56 -9.5l18 -5l-355 -1438q-73 -18 -200 -18q-58 0 -111 4.5t-77 9.5l-23 4l-158 785q-19 97 -30.5 189t-12.5 136l-2 43h-10q-2 -149 -47 -368l-158 -785q-88 -18 -217 -18q-124 0 -205 18z" />
<glyph unicode="X" horiz-adv-x="1320" d="M-2 16l444 754l-391 686q64 19 191 19q49 0 94 -4.5t66 -9.5l20 -5l254 -436l260 436q84 19 168 19q88 0 172 -19l-399 -674l440 -759q-63 -23 -182 -23q-52 0 -97.5 5t-65.5 10l-20 5l-303 515l-309 -519q-72 -16 -156 -16q-115 0 -186 16z" />
<glyph unicode="Y" horiz-adv-x="1329" d="M16 1456q68 19 193 19q49 0 93.5 -4.5t64.5 -9.5l20 -5l293 -534l299 534q64 19 168 19q47 0 91 -4.5t64 -9.5l21 -5l-498 -872v-566q-55 -18 -159 -18q-52 0 -93.5 4.5t-56.5 9.5l-16 4v564z" />
<glyph unicode="Z" horiz-adv-x="1251" d="M53 139q0 75 21 131l682 936h-625q-18 64 -18 142q0 68 18 127h1010q20 -50 20 -127q0 -83 -20 -142l-695 -936h721q17 -66 17 -131q0 -78 -17 -139h-1093q-21 64 -21 139z" />
<glyph unicode="[" horiz-adv-x="700" d="M154 -348v2007h479q14 -39 14 -115q0 -33 -3.5 -60.5t-7.5 -38.5l-3 -11h-184v-1557h184q14 -39 14 -113q0 -34 -3.5 -62t-7.5 -39l-3 -11h-479z" />
<glyph unicode="\" horiz-adv-x="1077" d="M35 1518q66 18 164 18q43 0 82.5 -4.5t58.5 -9.5l18 -4l682 -1596q-63 -18 -163 -18q-42 0 -82 4.5t-59 9.5l-19 4z" />
<glyph unicode="]" horiz-adv-x="700" d="M53 -236q0 33 4 61t7 40l4 12h184v1557h-184q-15 36 -15 110q0 34 4 62.5t7 40.5l4 12h479v-2007h-479q-15 36 -15 112z" />
<glyph unicode="^" horiz-adv-x="1097" d="M57 920l371 540q47 15 121 15q33 0 63.5 -3.5t45.5 -7.5l14 -4l368 -540q-51 -15 -127 -15q-34 0 -67 3.5t-50 7.5l-16 4l-231 337l-230 -337q-59 -15 -135 -15q-34 0 -65.5 3.5t-46.5 7.5z" />
<glyph unicode="_" horiz-adv-x="1112" d="M84 -139q0 31 3.5 55.5t6.5 33.5l4 9h916q14 -28 14 -98q0 -31 -3.5 -56t-6.5 -34l-4 -9h-916q-14 29 -14 99z" />
<glyph unicode="`" horiz-adv-x="487" d="M16 1571q32 52 112.5 83.5t156.5 22.5l186 -301q-50 -69 -174 -90z" />
<glyph unicode="a" horiz-adv-x="1058" d="M51 336q0 172 102.5 251t307.5 79q59 0 178 -9v33q0 156 -168 156q-56 0 -118.5 -12t-96.5 -24l-35 -11q-40 30 -67 96q-13 29 -18 60.5t-4 48.5l1 16q7 3 19 9t52.5 20.5t83 25.5t106.5 20t128 9q228 0 330 -91.5t102 -287.5v-709q-45 -16 -131 -16q-36 0 -69 4t-48 8 l-14 4l-37 101q-69 -137 -286 -137q-154 0 -236 89t-82 267zM367 334q0 -77 29.5 -110.5t88.5 -33.5q54 0 89.5 32t50 79t14.5 105v61q-62 6 -131 6q-70 0 -105.5 -33t-35.5 -106z" />
<glyph unicode="b" horiz-adv-x="1148" d="M113 16v1504q55 16 155 16q44 0 84 -4t58 -8l18 -4v-521q88 105 262 105q89 0 157 -29t120 -93.5t79 -175t27 -265.5q0 -154 -27 -264.5t-79 -174.5t-120 -93t-157 -29q-174 0 -262 102v-66q-60 -16 -160 -16q-44 0 -83 4t-55 8zM428 410q0 -84 41 -134.5t109 -50.5 q58 0 91.5 25t52.5 95t19 196t-19 196.5t-52.5 95.5t-91.5 25q-67 0 -107.5 -50.5t-42.5 -135.5v-262z" />
<glyph unicode="c" horiz-adv-x="917" d="M72 539q0 565 477 565q95 0 171.5 -16t105.5 -32l30 -16q-2 -60 -26 -118.5t-64 -96.5q-64 29 -156 29q-116 0 -164.5 -73t-48.5 -240q0 -163 51.5 -233t169.5 -70q44 0 86 7.5t62 14.5l20 8q38 -36 62 -94.5t29 -122.5q-4 -3 -12.5 -7.5t-38.5 -17t-64.5 -22t-92 -17 t-120.5 -7.5q-240 0 -358.5 138t-118.5 421z" />
<glyph unicode="d" horiz-adv-x="1146" d="M76 539q0 154 26 264t77 175.5t119.5 95.5t160.5 30q172 0 260 -105v521q60 16 160 16q44 0 83 -4t56 -8l16 -4v-1504q-57 -16 -141 -16q-38 0 -74 4t-53 8l-16 4l-15 84q-90 -120 -276 -120q-89 0 -157 29t-120 93t-79 174t-27 263zM406 539q0 -124 19 -193.5t53 -95 t93 -25.5q67 0 106.5 48t41.5 124v291q-3 75 -42.5 122.5t-105.5 47.5q-59 0 -93 -25t-53 -95.5t-19 -198.5z" />
<glyph unicode="e" horiz-adv-x="1036" d="M72 537q0 285 125 426t354 141q205 0 313.5 -107t108.5 -323q0 -60 -5.5 -116t-11.5 -82l-6 -27h-555q14 -120 68 -165.5t153 -45.5q56 0 110.5 12t81.5 24l26 13q38 -34 66.5 -94.5t29.5 -120.5q-5 -4 -14.5 -10t-44 -22t-73.5 -28t-102 -22t-131 -10q-252 0 -372.5 136 t-120.5 421zM393 645h293q4 40 4 64q0 165 -133 165q-142 0 -164 -229z" />
<glyph unicode="f" horiz-adv-x="745" d="M43 969q0 59 12 108h131v123q0 163 89.5 249.5t291.5 86.5q75 0 142.5 -14t98.5 -28l30 -13q-8 -120 -86 -211q-54 24 -148 24q-53 0 -77.5 -25t-24.5 -81v-111h205q14 -52 14 -112q0 -67 -14 -113h-205v-836q-56 -16 -158 -16q-46 0 -85.5 4t-56.5 8l-16 4v836h-131 q-12 70 -12 117z" />
<glyph unicode="g" horiz-adv-x="1114" d="M23 -233q0 160 180 266q-43 49 -43 125q0 123 112 231q-198 88 -198 336q0 177 113 278t327 101q149 0 254 -51l297 51q20 -44 20 -112q-1 -72 -20 -120l-145 21q34 -64 34 -168q0 -180 -112 -280.5t-328 -100.5q-41 0 -59 2q-21 -32 -21 -62q0 -9 2 -18 q6 -27 36.5 -43.5t76 -22.5t101.5 -14.5t113.5 -16t112.5 -29.5t97 -53.5t68 -88.5t26 -135q0 -170 -152 -272.5t-415 -102.5q-240 0 -358.5 72t-118.5 207zM313 -170q0 -131 193 -131q131 0 195.5 33t64.5 92q0 32 -24 52t-69 29.5t-92.5 15t-111 13.5t-107.5 19 q-49 -58 -49 -123zM377 725q0 -182 137 -182t137 182q0 180 -137 180t-137 -180z" />
<glyph unicode="h" horiz-adv-x="1120" d="M111 16v1504q51 16 157 16q45 0 84.5 -4t56.5 -8l17 -4v-512q105 96 274 96q153 0 233.5 -82.5t80.5 -222.5v-783q-54 -16 -158 -16q-47 0 -86.5 4t-55.5 8l-16 4v717q0 123 -131 123q-78 0 -141 -57v-783q-56 -16 -158 -16q-47 0 -86.5 4t-55.5 8z" />
<glyph unicode="i" horiz-adv-x="540" d="M113 16v1053q48 16 157 16q44 0 83.5 -4t56.5 -8l18 -4v-1053q-58 -16 -158 -16q-47 0 -86.5 4t-55.5 8zM113 1284v256q48 16 157 16q44 0 83.5 -4t56.5 -8l18 -4v-256q-58 -16 -158 -16q-47 0 -86.5 4t-55.5 8z" />
<glyph unicode="j" horiz-adv-x="544" d="M-100 -410q0 46 8.5 85.5t17.5 56.5l8 16q35 -8 70 -8q56 0 83.5 29.5t27.5 95.5v1204q53 16 157 16q44 0 83.5 -4t56.5 -8l18 -4v-1249q0 -161 -83 -246.5t-251 -85.5q-52 0 -99 8t-68 16l-21 9q-8 32 -8 69zM115 1280v258q51 16 157 16q45 0 84.5 -4t56.5 -8l17 -4 v-258q-56 -16 -158 -16q-47 0 -86.5 4t-55.5 8z" />
<glyph unicode="k" horiz-adv-x="1064" d="M113 16v1508q61 12 159 12q40 0 79 -3t58 -6l19 -3v-844h53l217 389q54 16 154 16q42 0 82.5 -4t59.5 -8l20 -4l-266 -485l313 -568q-70 -18 -176 -18q-45 0 -87 4.5t-62 9.5l-19 4l-240 437h-49v-437q-56 -16 -156 -16q-44 0 -84 4t-58 8z" />
<glyph unicode="l" horiz-adv-x="544" d="M115 16v1504q51 16 157 16q45 0 84.5 -4t56.5 -8l17 -4v-1504q-56 -16 -158 -16q-47 0 -86.5 4t-55.5 8z" />
<glyph unicode="m" horiz-adv-x="1679" d="M111 16v1051q51 16 157 16q44 0 83.5 -4t56.5 -8l18 -4v-63q48 45 117.5 72.5t148.5 27.5q174 0 258 -125q125 125 316 125q148 0 227.5 -84t79.5 -227v-777q-60 -16 -158 -16q-46 0 -85.5 4t-55.5 8l-17 4v717q0 123 -124 123q-77 0 -134 -57v-783q-59 -16 -157 -16 q-46 0 -85.5 4t-56.5 8l-16 4v717q0 123 -123 123q-77 0 -135 -55v-785q-60 -16 -158 -16q-46 0 -85.5 4t-55.5 8z" />
<glyph unicode="n" horiz-adv-x="1120" d="M111 16v1051q51 16 157 16q45 0 84.5 -4t56.5 -8l17 -4v-61q107 98 274 98q153 0 233.5 -83t80.5 -224v-781q-54 -16 -158 -16q-47 0 -86.5 4t-55.5 8l-16 4v717q0 123 -131 123q-78 0 -141 -57v-783q-56 -16 -158 -16q-47 0 -86.5 4t-55.5 8z" />
<glyph unicode="o" horiz-adv-x="1132" d="M72 543q0 561 495 561q117 0 205.5 -30.5t154.5 -96.5t100 -175t34 -259q0 -563 -494 -563q-495 0 -495 563zM399 543q0 -126 20.5 -199t56 -100t91.5 -27q84 0 125 71t41 255q0 95 -11 159t-33.5 99t-51.5 49t-70 14q-57 0 -91.5 -25.5t-55.5 -98t-21 -197.5z" />
<glyph unicode="p" horiz-adv-x="1148" d="M113 -442v1511q55 16 155 16q44 0 84 -4t58 -8l18 -4v-68q86 103 266 103q87 0 153.5 -28.5t118.5 -91.5t79.5 -174t27.5 -267q0 -154 -27 -264.5t-79 -175t-119.5 -94t-155.5 -29.5q-177 0 -264 104v-526q-60 -17 -160 -17q-44 0 -83 4.5t-55 8.5zM428 418 q0 -82 39.5 -137.5t110.5 -55.5q41 0 69 12.5t50.5 46t33 97.5t10.5 162q0 95 -10 157.5t-32 97t-50.5 47.5t-70.5 13q-67 0 -107.5 -49t-42.5 -131v-260z" />
<glyph unicode="q" horiz-adv-x="1148" d="M76 543q0 154 26.5 263.5t78 174t120 94t158.5 29.5q176 0 262 -103v68q56 16 156 16q44 0 84 -4t57 -8l18 -4v-1511q-55 -17 -155 -17q-44 0 -84 4.5t-58 8.5l-18 4v526q-87 -104 -262 -104q-89 0 -157 30t-120 94.5t-79 175t-27 263.5zM406 543q0 -127 20 -198 t54 -95.5t91 -24.5q67 0 107 52.5t43 132.5v266q0 83 -40.5 132.5t-109.5 49.5q-34 0 -58 -8t-45.5 -28.5t-34.5 -55.5t-20 -90.5t-7 -132.5z" />
<glyph unicode="r" horiz-adv-x="831" d="M111 16v1053q53 16 157 16q45 0 79.5 -4t46.5 -8l12 -4l8 -108q94 143 237 143q92 0 180 -57q-6 -79 -39 -139t-94 -115q-47 41 -106 41q-93 0 -166 -95v-723q-60 -16 -158 -16q-46 0 -85.5 4t-55.5 8z" />
<glyph unicode="s" horiz-adv-x="925" d="M68 61q0 137 75 215q132 -47 273 -47q149 0 149 90q0 15 -5.5 27.5t-18.5 23t-25.5 18t-35 16t-39.5 13.5t-46 14t-47 15q-45 14 -79 28.5t-72.5 40t-63 57t-41 80t-16.5 108.5q0 163 103 253.5t310 90.5q100 0 183 -16t116 -32l33 -16v-12q1 -54 -15 -106 q-18 -57 -56 -93q-107 33 -228 33q-153 0 -153 -90q0 -21 13 -36.5t40.5 -27t55 -19.5t70.5 -20.5t73 -23.5q52 -18 91.5 -40.5t77 -58.5t58 -90.5t20.5 -125.5q0 -168 -105 -259t-319 -91q-67 0 -130 8.5t-105.5 20t-76 23.5t-48.5 20z" />
<glyph unicode="t" horiz-adv-x="802" d="M27 963q0 34 3.5 62.5t7.5 40.5l3 11h147v183q59 32 145 46q54 8 108 8q32 0 63 -3v-234h221q14 -40 14 -112q0 -29 -3.5 -57.5t-7.5 -41.5l-3 -14h-221v-457q0 -101 39.5 -137.5t126.5 -36.5q18 0 38.5 2t31.5 4l12 2q24 -47 24 -125q0 -28 -3.5 -53.5t-6.5 -36.5 l-4 -12q-81 -22 -184 -22q-206 0 -298 96.5t-92 310.5v465h-147q-14 43 -14 111z" />
<glyph unicode="u" horiz-adv-x="1120" d="M106 287v782q54 16 158 16q47 0 86.5 -4t55.5 -8l16 -4v-721q0 -123 129 -123q79 0 143 58v786q56 16 158 16q46 0 85.5 -4t56.5 -8l16 -4v-1053q-52 -16 -158 -16q-45 0 -84.5 4t-56.5 8l-17 4v62q-107 -98 -274 -98q-153 0 -233.5 83t-80.5 224z" />
<glyph unicode="v" horiz-adv-x="1087" d="M16 1069q66 16 164 16q46 0 86 -4t57 -8l17 -4l147 -479q21 -72 36.5 -149t20.5 -117l5 -41h8q19 145 68 309l149 477q58 16 146 16q42 0 78.5 -4t52.5 -8l16 -4l-326 -1053q-75 -16 -194 -16q-56 0 -105 4t-70 8l-22 4z" />
<glyph unicode="w" horiz-adv-x="1638" d="M25 1069q59 16 155 16q45 0 79 -4t45 -8l11 -4l129 -479q35 -142 50 -297h6q22 187 51 299l117 477q76 16 168 16q44 0 82.5 -4t55.5 -8l17 -4l115 -477q33 -145 47 -299h6q14 147 53 299l127 477q50 16 138 16q41 0 74.5 -4t46.5 -8l14 -4l-269 -1053q-76 -16 -188 -16 q-110 0 -186 16l-97 404q-39 169 -47 377h-8q-8 -210 -47 -377l-96 -404q-79 -16 -185 -16q-113 0 -192 16z" />
<glyph unicode="x" horiz-adv-x="1081" d="M2 16l340 537l-305 516q70 16 172 16q48 0 91 -4t62 -8l19 -4l172 -291l182 291q54 16 148 16q44 0 85.5 -4t61.5 -8l19 -4l-314 -498l342 -555q-72 -16 -174 -16q-48 0 -91 4t-62 8l-19 4l-205 338l-211 -338q-61 -16 -151 -16q-44 0 -84.5 4t-59.5 8z" />
<glyph unicode="y" horiz-adv-x="1118" d="M18 1069q62 16 166 16q48 0 88 -4t56 -8l16 -4l166 -485q24 -70 40 -141t20 -107l5 -35h9q14 123 61 283l146 485q53 16 151 16q42 0 80.5 -4t55.5 -8l18 -4l-353 -1186q-31 -103 -64.5 -171t-84.5 -121.5t-122.5 -78t-170.5 -24.5q-39 0 -78 6t-59 12l-19 7 q-18 46 -18 112q0 29 5.5 59t11.5 45l6 15q49 -8 90 -8q43 0 69 6t53.5 25.5t48.5 59.5t42 107l20 66q-50 0 -96 16z" />
<glyph unicode="z" horiz-adv-x="980" d="M61 129q0 53 17 119l475 590h-453q-16 51 -16 125q0 33 4 63.5t8 44.5l4 14h793q14 -49 14 -116q0 -74 -14 -131l-475 -590h473q18 -45 18 -125q0 -34 -4.5 -64.5t-8.5 -44.5l-5 -14h-813q-17 58 -17 129z" />
<glyph unicode="{" horiz-adv-x="765" d="M27 686q0 63 16 113h53q101 0 101 100v473q0 132 74 209.5t212 77.5h215q15 -49 15 -115q0 -52 -15 -114h-98q-100 0 -100 -101v-411q0 -160 -103 -232q103 -72 103 -233v-412q0 -100 100 -100h98q15 -52 15 -119q0 -65 -15 -111h-215q-138 0 -212 77.5t-74 209.5v473 q0 100 -101 100h-53q-16 41 -16 115z" />
<glyph unicode="|" horiz-adv-x="624" d="M152 -387v1989q57 16 161 16q44 0 84.5 -4t58.5 -8l19 -4v-1989q-64 -16 -162 -16q-46 0 -86.5 4t-57.5 8z" />
<glyph unicode="}" horiz-adv-x="763" d="M53 -178q0 66 15 119h98q100 0 100 100v412q0 163 103 233q-103 70 -103 232v411q0 101 -100 101h-98q-15 62 -15 114q0 66 15 115h215q138 0 212 -77.5t74 -209.5v-473q0 -100 101 -100h53q16 -50 16 -113q0 -74 -16 -115h-53q-101 0 -101 -100v-473q0 -132 -74 -209.5 t-212 -77.5h-215q-15 46 -15 111z" />
<glyph unicode="~" horiz-adv-x="1048" d="M88 582q3 6 9 16t28 36t49 45.5t74 35.5t100 16q52 0 100.5 -16.5t80 -35.5t75 -35.5t86.5 -16.5q26 0 49.5 7.5t38.5 17.5t26 20.5t16 17.5l5 8q55 -19 92 -59t46 -92q-3 -6 -9 -16t-28.5 -36t-49.5 -46t-74 -36t-100 -16q-52 0 -101 16.5t-81 36t-75 36t-85 16.5 q-43 0 -77 -18t-47 -36l-13 -18q-53 19 -89 59t-46 93z" />
<glyph unicode="&#xa1;" horiz-adv-x="573" d="M117 -397l43 1011q45 15 125 15q36 0 68 -3.5t47 -7.5l14 -4l43 -1011q-57 -17 -170 -17q-46 0 -88.5 4t-62.5 8zM129 752v292q56 17 158 17q46 0 85.5 -4.5t55.5 -8.5l16 -4v-292q-51 -17 -157 -17q-45 0 -84.5 4.5t-56.5 8.5z" />
<glyph unicode="&#xa2;" horiz-adv-x="948" d="M78 539q0 499 368 557l-16 188q59 21 133 21q36 0 70 -5.5t49 -10.5l16 -5l-18 -190q57 -6 103 -19t63 -23l18 -10q-6 -118 -90 -202q-64 26 -158 26q-114 0 -162 -77.5t-48 -247.5q0 -165 51.5 -240.5t167.5 -75.5q44 0 86.5 7.5t62.5 15.5l21 8q78 -74 90 -205 q-66 -43 -205 -61l18 -197q-53 -20 -135 -20q-33 0 -66 5t-50 10l-17 5l16 195q-368 55 -368 551z" />
<glyph unicode="&#xa3;" horiz-adv-x="1107" d="M82 692q0 29 4 56t8 39l4 12h109q-37 122 -37 227q0 102 36 178t101 121.5t147.5 67.5t182.5 22q202 0 379 -76q6 -133 -88 -217q-114 42 -230 45q-204 0 -204 -178q0 -76 30 -190h355q14 -39 14 -105q0 -29 -3.5 -57t-7.5 -41l-3 -14h-314q14 -184 -125 -314h572 q18 -51 18 -133q0 -36 -4.5 -69.5t-9.5 -49.5l-4 -16h-893v268q89 88 120 163t23 151h-164q-16 44 -16 110z" />
<glyph unicode="&#xa4;" horiz-adv-x="1230" d="M86 182l147 148q-63 102 -63 225q0 118 63 225l-147 148q4 49 55 102q24 24 50 38t39 16l14 1l145 -147q101 63 227 63q119 0 226 -63l147 147q5 0 14.5 -1.5t37 -15.5t51.5 -38q23 -24 36.5 -49.5t15.5 -38.5l3 -14l-148 -148q64 -108 64 -225q0 -119 -64 -227l148 -146 q-2 -51 -53 -104q-24 -25 -50.5 -38.5t-40.5 -13.5l-14 -1l-147 145q-103 -61 -226 -61q-124 0 -227 61l-145 -145q-50 2 -105 57q-23 24 -36 49t-15 38zM391 555q0 -95 65.5 -160t159.5 -65q95 0 160.5 65t65.5 160t-65.5 160t-160.5 65q-94 0 -159.5 -65t-65.5 -160z" />
<glyph unicode="&#xa5;" horiz-adv-x="1298" d="M49 1378q63 23 172 23q45 0 86.5 -5.5t60.5 -10.5l19 -5l266 -481l285 485q64 17 162 17q39 0 77.5 -4.5t56.5 -8.5l19 -4l-374 -628h202q13 -47 13 -92q0 -48 -13 -95h-299v-125h299q13 -44 13 -88q0 -48 -13 -98h-299v-240q-65 -18 -143 -18q-34 0 -68.5 4.5t-52.5 9.5 l-18 4v240h-307q-13 54 -13 98q0 41 13 88h307v125h-307q-13 50 -13 93q0 44 13 94h208z" />
<glyph unicode="&#xa6;" horiz-adv-x="610" d="M143 -395v899q58 16 162 16q44 0 84.5 -4t58.5 -8l19 -4v-899q-64 -17 -162 -17q-46 0 -86.5 4t-58.5 8zM143 733v877q58 16 162 16q44 0 84.5 -4t58.5 -8l19 -4v-877q-64 -16 -162 -16q-46 0 -86.5 4t-58.5 8z" />
<glyph unicode="&#xa7;" horiz-adv-x="997" d="M94 666q0 126 111 225q-90 76 -90 219q0 149 108.5 226t294.5 77q172 0 320 -53q2 -53 -15 -106t-51 -87q-105 24 -188 29q-191 8 -191 -92q0 -30 28 -50t72.5 -30.5t98.5 -21t108 -28.5t98.5 -45.5t72.5 -79t28 -122.5q0 -124 -106 -211q118 -82 118 -240 q0 -77 -35 -135.5t-97.5 -93t-140.5 -51t-171 -16.5q-88 0 -179 15t-138 31l-46 15q-6 57 11 112t57 87q120 -36 252 -39q192 -4 192 88q0 26 -22.5 44.5t-59 28.5t-83.5 21.5t-96 21.5t-96 31t-83.5 48.5t-59 74t-22.5 107.5zM358 715q0 -21 11 -37.5t25.5 -26.5t42.5 -20 t49 -15t58 -13.5t58 -14.5q31 39 31 92q0 21 -10.5 37t-25.5 26.5t-41.5 20t-48.5 15.5t-56.5 14.5t-57.5 15.5q-35 -44 -35 -94z" />
<glyph unicode="&#xa8;" horiz-adv-x="931" d="M121 1255v236q45 14 135 14q39 0 73 -3.5t48 -7.5l14 -3v-236q-47 -14 -135 -14q-39 0 -73 3.5t-48 7.5zM524 1255v236q45 14 135 14q38 0 72 -3.5t49 -7.5l15 -3v-236q-50 -14 -136 -14q-40 0 -73.5 3.5t-47.5 7.5z" />
<glyph unicode="&#xa9;" horiz-adv-x="1622" d="M80 696q0 200 97.5 368t265.5 265.5t368 97.5t368 -97.5t265.5 -265.5t97.5 -368t-97.5 -368t-265.5 -265.5t-368 -97.5t-368 97.5t-265.5 265.5t-97.5 368zM283 696q0 -145 70 -267t191.5 -192.5t266.5 -70.5t266.5 70.5t191.5 192.5t70 267t-70 267.5t-191.5 193 t-266.5 70.5t-266.5 -70.5t-191.5 -193t-70 -267.5zM453 709q0 201 93 304t273 103q64 0 122.5 -14t84.5 -28l27 -15q-3 -95 -78 -152q-59 29 -127 29q-79 0 -122.5 -52.5t-43.5 -176.5q0 -123 43 -171.5t123 -48.5q34 0 67.5 5.5t50.5 11.5l17 6q38 -22 58 -64t22 -90 q-11 -6 -30.5 -15.5t-83 -25.5t-130.5 -16q-179 0 -272.5 106t-93.5 304z" />
<glyph unicode="&#xaa;" horiz-adv-x="735" d="M78 823q0 106 66 156.5t184 50.5l102 -4v25q0 71 -84 71q-36 0 -76 -7.5t-62 -14.5l-22 -8q-56 63 -59 143q12 6 34.5 15t88.5 24.5t129 15.5q139 0 200.5 -57.5t61.5 -177.5v-424q-33 -17 -90 -17q-23 0 -45 4t-32 8l-11 5l-17 45q-59 -72 -170 -72q-93 0 -145.5 56 t-52.5 163zM84 418.5q0 46.5 10 81.5h541q12 -38 11.5 -84t-11.5 -84h-541q-10 40 -10 86.5zM291 823q0 -38 15 -54.5t46 -16.5q39 0 58.5 31.5t19.5 78.5v31q-29 2 -70 2q-69 0 -69 -72z" />
<glyph unicode="&#xab;" horiz-adv-x="1112" d="M66 545q0 36 5 68t10 47l5 14l426 379q73 -70 90 -189l-274 -313l274 -311q-16 -118 -90 -189l-426 373q-20 43 -20 121zM522 545q0 34 5 64.5t11 44.5l5 14l405 360q69 -63 86 -176l-260 -301l260 -299q-19 -112 -86 -176l-405 356q-21 43 -21 113z" />
<glyph unicode="&#xac;" horiz-adv-x="1232" d="M78 786q0 35 5.5 66.5t10.5 45.5l6 15h1012v-581q-45 -23 -127 -23q-36 0 -68 5.5t-45 11.5l-14 6v330h-758q-22 50 -22 124z" />
<glyph unicode="&#xad;" horiz-adv-x="446" />
<glyph unicode="&#xae;" horiz-adv-x="1093" d="M90 965q0 189 134 322.5t323 133.5t323 -133.5t134 -322.5t-134 -323t-323 -134t-323 134t-134 323zM211 965q0 -139 99 -237.5t237 -98.5q139 0 236.5 98t97.5 238q0 139 -97 236t-237 97q-139 0 -237.5 -97t-98.5 -236zM379 750v456h205q73 0 118.5 -40t45.5 -105 q0 -46 -24.5 -82t-66.5 -51l111 -172q-29 -17 -72 -17q-16 0 -31 2.5t-21 5.5l-7 3l-111 165h-24v-165q-27 -11 -62 -11q-17 0 -32.5 2.5t-21.5 5.5zM502 1014h63q56 0 56 47q0 49 -56 49h-63v-96z" />
<glyph unicode="&#xaf;" horiz-adv-x="833" d="M54 1374q0 51 12 88h675q12 -40 11.5 -90.5t-11.5 -91.5h-675q-12 43 -12 94z" />
<glyph unicode="&#xb0;" horiz-adv-x="722" d="M66 1237q0 117 80.5 205t218.5 88t215 -85.5t77 -201.5t-77 -201.5t-215 -85.5q-143 0 -221 83t-78 198zM256 1239q0 -41 27.5 -71.5t78.5 -30.5q48 0 75.5 31t27.5 73q0 43 -27.5 75t-75.5 32q-51 0 -78.5 -32t-27.5 -77z" />
<glyph unicode="&#xb1;" horiz-adv-x="1009" d="M104 322q0 31 4 59t8 41l3 12h772q14 -42 14 -112q0 -31 -3.5 -59.5t-7.5 -40.5l-3 -13h-772q-15 43 -15 113zM104 823q0 31 4 59.5t8 41.5l3 12h272v205q43 14 113 14q31 0 59 -3.5t41 -7.5l12 -3v-205h275q14 -43 14 -113q0 -31 -3.5 -59t-7.5 -40l-3 -13h-275v-205 q-42 -14 -112 -14q-31 0 -59.5 3.5t-40.5 6.5l-13 4v205h-272q-15 42 -15 112z" />
<glyph unicode="&#xb2;" horiz-adv-x="618" d="M41 807q0 56 17.5 101t45.5 74t62 52.5t68.5 41t62.5 34.5t45.5 38t17.5 46q0 63 -104 63q-62 0 -129 -18q-53 59 -43 147q94 35 219 35q121 0 192.5 -52t71.5 -157q0 -62 -23.5 -107t-62 -72t-79 -47.5t-85 -47t-69.5 -57.5h284q15 -44 15 -88q0 -43 -15 -84h-481 q-10 41 -10 98z" />
<glyph unicode="&#xb3;" horiz-adv-x="618" d="M41 743q0 36 13.5 75t37.5 61q68 -23 146 -23q61 0 89.5 18t28.5 56q0 37 -21.5 53t-74.5 16h-98q-12 34 -12 76t12 76h98q41 0 58.5 13t17.5 40q0 32 -22.5 47t-71.5 15q-32 0 -66 -5t-52 -9l-18 -5q-23 20 -37 57t-14 78q90 39 215 39q135 0 206 -49.5t71 -140.5 q0 -109 -90 -152q110 -45 110 -172q0 -101 -69 -155t-230 -54q-64 0 -121 11t-81 23z" />
<glyph unicode="&#xb4;" horiz-adv-x="458" d="M8 1376l187 301q75 9 155.5 -22.5t112.5 -83.5l-279 -285q-126 21 -176 90z" />
<glyph unicode="&#xb5;" horiz-adv-x="1196" d="M145 -29v1098q60 16 158 16q46 0 85.5 -4t55.5 -8l17 -4v-719q0 -125 129 -125q77 0 143 60v784q60 16 158 16q46 0 85.5 -4t55.5 -8l17 -4v-1053q-54 -16 -158 -16q-44 0 -83.5 4t-57.5 8l-17 4v47q-74 -83 -203 -83q-77 0 -131 40q16 -129 44.5 -244.5t48.5 -166.5 l20 -51q-60 -51 -162 -65t-178 9q-27 128 -27 469z" />
<glyph unicode="&#xb6;" horiz-adv-x="1409" d="M47 944q2 94 34 180t90.5 155.5t152 111t208.5 41.5h242v-1885q-49 -12 -129 -12q-37 0 -69.5 3t-45.5 6l-14 3v912q-115 2 -207 44.5t-148 111.5t-85.5 153.5t-28.5 175.5zM985 -453v1872q45 13 129 13q36 0 68 -3t46 -7l15 -3v-1872q-49 -12 -129 -12q-37 0 -69.5 3 t-46.5 6z" />
<glyph unicode="&#xb7;" horiz-adv-x="497" d="M111 457v254q45 16 139 16q39 0 73.5 -4t48.5 -8l15 -4v-254q-49 -17 -137 -17q-42 0 -76.5 4t-48.5 8z" />
<glyph unicode="&#xb8;" horiz-adv-x="606" d="M72 -412q-2 33 12.5 67.5t38.5 51.5q58 -26 133 -26q123 -4 123 77q0 72 -88 72h-109l-28 33l45 246l163 -37l-22 -119q113 0 164 -54.5t51 -148.5q0 -103 -71.5 -157t-196.5 -54q-62 0 -115.5 12.5t-76.5 24.5z" />
<glyph unicode="&#xb9;" horiz-adv-x="524" d="M25 1282q130 35 204 117q34 10 107 10q48 0 96 -10v-682q-48 -10 -98 -10q-67 0 -113 10v370q0 62 4 91q-64 -44 -149 -54q-26 26 -40 70.5t-11 87.5z" />
<glyph unicode="&#xba;" horiz-adv-x="757" d="M78 948q0 180 74.5 261t226.5 81q151 0 227 -80t76 -262q0 -181 -76 -262.5t-227 -81.5q-152 0 -226.5 81t-74.5 263zM96 418q0 51 10 82h541q12 -38 12 -82q0 -46 -12 -86h-541q-10 34 -10 86zM297 948q0 -75 9.5 -114t26 -50.5t46.5 -11.5q29 0 45.5 11.5t26.5 50.5 t10 114t-10 115t-26.5 52.5t-45.5 12.5q-45 0 -63.5 -35.5t-18.5 -144.5z" />
<glyph unicode="&#xbb;" horiz-adv-x="1112" d="M78 252l260 299l-260 301q17 113 86 176l405 -360q21 -47 21 -123q0 -31 -5 -59.5t-11 -41.5l-5 -12l-405 -356q-67 64 -86 176zM510 240l274 311l-274 313q17 119 90 189l426 -379q21 -49 21 -129q0 -35 -5.5 -65t-10.5 -43l-5 -13l-426 -373q-71 71 -90 189z" />
<glyph unicode="&#xbc;" horiz-adv-x="1419" d="M47 1282q132 35 205 117q34 10 106 10q49 0 97 -10v-682q-48 -10 -99 -10q-66 0 -112 10v370q0 62 4 91q-64 -44 -150 -54q-26 26 -40 70.5t-11 87.5zM207 -6l788 1429q37 15 117 15q36 0 65.5 -4t41.5 -8l12 -3l-791 -1429q-46 -14 -118 -14q-30 0 -59 3.5t-43 6.5z M756 215q0 37 8 64l319 411q47 12 99 12t96 -12v-399h76q10 -34 10 -74q0 -28 -10 -70h-76v-137q-44 -10 -92 -10q-49 0 -90 10v137h-330q-10 38 -10 68zM958 291h138v180z" />
<glyph unicode="&#xbd;" horiz-adv-x="1509" d="M47 1282q132 35 205 117q34 10 106 10q49 0 97 -10v-682q-48 -10 -99 -10q-66 0 -112 10v370q0 62 4 91q-64 -44 -150 -54q-26 26 -40 70.5t-11 87.5zM207 -6l788 1429q37 15 117 15q36 0 65.5 -4t41.5 -8l12 -3l-791 -1429q-46 -14 -118 -14q-30 0 -59 3.5t-43 6.5z M918 98q0 56 17.5 101t46 74t62.5 52.5t68.5 41t63 34.5t46 38t17.5 46q0 64 -100 64q-56 2 -135 -19q-25 27 -36.5 67.5t-6.5 80.5q96 35 219 35q121 0 193.5 -52t72.5 -157q0 -62 -23.5 -107t-62.5 -72.5t-80.5 -48t-86 -47t-69.5 -57.5h287q14 -41 14 -88q0 -46 -14 -84 h-483q-10 41 -10 98z" />
<glyph unicode="&#xbe;" horiz-adv-x="1480" d="M61 743q0 36 14 75t38 61q67 -23 145 -23q119 0 119 74q0 37 -21.5 53t-74.5 16h-99q-12 34 -12 76t12 76h99q41 0 58 13t17 40q0 32 -22.5 47t-71.5 15q-32 0 -65.5 -5t-51.5 -9l-18 -5q-23 20 -37 57t-14 78q90 39 215 39q135 0 205.5 -49t70.5 -141q0 -109 -90 -152 q111 -45 111 -172q0 -101 -69 -155t-230 -54q-64 0 -121 11t-82 23zM274 -6l789 1429q37 15 117 15q36 0 65.5 -4t40.5 -8l12 -3l-790 -1429q-47 -14 -119 -14q-30 0 -59 3.5t-42 6.5zM823 217q0 35 8 62l320 411q47 12 98 12q53 0 97 -12v-399h75q11 -37 11 -74 q0 -24 -11 -70h-75v-137q-44 -10 -93 -10t-90 10v137h-329q-11 42 -11 70zM1026 291h137v180z" />
<glyph unicode="&#xbf;" horiz-adv-x="905" d="M49 18q0 78 19.5 138.5t51 98.5t70 69t76.5 57t69.5 54t51 69t19.5 94q40 16 124 16q37 0 70 -4t48 -8l14 -4q0 -85 -16 -150t-41.5 -104t-56 -69t-61.5 -52.5t-56.5 -46t-41.5 -58.5t-16 -81q0 -78 46 -108.5t132 -30.5q56 0 110 12t79 24l26 11q50 -36 74.5 -93.5 t19.5 -125.5q-15 -8 -43.5 -20.5t-121.5 -33t-191 -20.5q-97 0 -175.5 18.5t-143.5 59t-100.5 113.5t-35.5 175zM375 756v293q55 16 157 16q46 0 85.5 -4t56.5 -8l16 -4v-293q-52 -17 -158 -17q-45 0 -84.5 4.5t-55.5 8.5z" />
<glyph unicode="&#xc0;" d="M16 18l467 1438q80 19 207 19q61 0 112.5 -4.5t73.5 -9.5l21 -5l467 -1438q-57 -18 -172 -18q-46 0 -85.5 4.5t-56.5 9.5l-16 4l-96 299h-514l-96 -299q-60 -18 -158 -18q-44 0 -82.5 4.5t-55.5 9.5zM401 1819q32 52 112.5 83.5t156.5 22.5l186 -301q-50 -69 -174 -90z M500 557h362l-119 371q-19 58 -34 118t-20 90l-5 31h-8q-14 -110 -53 -239z" />
<glyph unicode="&#xc1;" d="M16 18l467 1438q78 19 207 19q60 0 111.5 -4.5t73.5 -9.5l22 -5l467 -1438q-57 -18 -172 -18q-47 0 -86.5 4.5t-55.5 9.5l-16 4l-96 299h-514l-96 -299q-60 -18 -160 -18q-43 0 -81 4.5t-55 9.5zM500 557h362l-119 371q-19 58 -34 118t-20 90l-5 31h-8q-14 -110 -55 -239 zM545 1626l186 301q75 9 155.5 -22.5t112.5 -83.5l-280 -285q-121 17 -174 90z" />
<glyph unicode="&#xc2;" horiz-adv-x="1382" d="M16 18l469 1438q78 19 207 19q60 0 111 -4.5t73 -9.5l21 -5l469 -1438q-59 -18 -172 -18q-47 0 -87 4.5t-57 9.5l-16 4l-96 299h-514l-96 -299q-58 -18 -158 -18q-43 0 -81.5 4.5t-55.5 9.5zM324 1675l319 271h74l321 -271q-53 -104 -139 -139l-219 137l-215 -135 q-90 37 -141 137zM500 557h362l-119 371q-18 58 -32.5 118t-19.5 90l-5 31h-8q-14 -110 -55 -239z" />
<glyph unicode="&#xc3;" d="M16 18l467 1438q78 19 207 19q60 0 111.5 -4.5t73.5 -9.5l22 -5l467 -1438q-57 -18 -172 -18q-47 0 -86.5 4.5t-55.5 9.5l-16 4l-96 299h-516l-96 -299q-58 -18 -158 -18q-43 0 -81 4.5t-55 9.5zM334 1655q4 16 19 39t40 48.5t65.5 44.5t86.5 21q55 3 101.5 -17t87 -40 t81.5 -18q27 2 50.5 15t33.5 26l10 12q41 -14 77.5 -43t55.5 -64q-8 -16 -23.5 -35.5t-42 -43t-66.5 -40t-85 -18.5q-56 -3 -101.5 15t-84 36.5t-78.5 16.5q-31 -1 -56 -14.5t-35 -26.5l-9 -13q-97 23 -127 99zM500 557h362l-121 371q-18 58 -32.5 118t-19.5 90l-5 31h-8 q-14 -110 -55 -239z" />
<glyph unicode="&#xc4;" d="M16 18l467 1438q80 19 207 19q61 0 112.5 -4.5t73.5 -9.5l21 -5l467 -1438q-57 -18 -172 -18q-46 0 -85.5 4.5t-56.5 9.5l-16 4l-96 299h-514l-96 -299q-60 -18 -158 -18q-44 0 -82.5 4.5t-55.5 9.5zM346 1550v236q45 14 135 14q39 0 73 -3.5t48 -6.5l14 -4v-236 q-47 -14 -135 -14q-39 0 -73 3.5t-48 6.5zM500 557h362l-119 371q-19 58 -34 118t-20 90l-5 31h-8q-14 -110 -53 -239zM750 1550v236q45 14 135 14q38 0 72 -3.5t49 -6.5l14 -4v-236q-49 -14 -135 -14q-40 0 -74 3.5t-47 6.5z" />
<glyph unicode="&#xc5;" d="M14 18l463 1391q-80 67 -80 182q0 124 85.5 194t203.5 70t205.5 -70t87.5 -194q0 -112 -76 -178l463 -1395q-59 -18 -174 -18q-46 0 -85.5 4.5t-56.5 9.5l-16 4l-96 299h-514l-96 -299q-60 -18 -158 -18q-44 0 -83 4.5t-56 9.5zM500 557h362l-119 363q-19 58 -34 118 t-20 90l-5 31h-8q-12 -110 -55 -239zM582 1591q0 -42 26.5 -71t75.5 -29q52 0 80.5 30t28.5 70q0 42 -28.5 71.5t-80.5 29.5q-49 0 -75.5 -30t-26.5 -71z" />
<glyph unicode="&#xc6;" horiz-adv-x="1847" d="M-10 20l887 1455h866q22 -60 21 -126t-21 -120h-506v-361h403q20 -57 20 -125t-20 -122h-403v-373h526q21 -60 21 -128t-21 -120h-839v326h-410l-180 -306q-68 -20 -176 -20q-118 0 -168 20zM659 571h265v445z" />
<glyph unicode="&#xc7;" horiz-adv-x="1165" d="M84 737q0 370 165.5 564t479.5 194q108 0 202.5 -19.5t134.5 -39.5l40 -19q4 -53 -23 -123q-14 -33 -32 -58.5t-29 -34.5l-12 -9q-111 41 -238 41q-65 0 -116 -14t-94.5 -49t-71.5 -91t-44 -142.5t-16 -201.5t16 -201t44 -141t71.5 -88.5t94 -47t116.5 -13.5q62 0 126 11 t97 23l33 11q41 -31 72 -105q14 -30 20.5 -61.5t5.5 -47.5v-16q-14 -8 -40.5 -19.5t-118.5 -32.5t-195 -25l-12 -70q113 0 164 -54.5t51 -148.5q0 -103 -71.5 -157t-196.5 -54q-62 0 -115.5 12t-76.5 24l-23 13q-2 33 12.5 67.5t38.5 51.5q58 -26 133 -26q123 -4 123 77 q0 72 -88 72h-109l-29 33l31 168q-254 35 -387 225.5t-133 521.5z" />
<glyph unicode="&#xc8;" horiz-adv-x="1140" d="M141 0v1475h895q21 -54 21 -119q0 -78 -21 -131h-569v-357h467q20 -58 20 -120q0 -74 -20 -127h-467v-371h590q20 -55 20 -123q0 -74 -20 -127h-916zM289 1819q32 52 112.5 83.5t155.5 22.5l186 -301q-50 -69 -174 -90z" />
<glyph unicode="&#xc9;" horiz-adv-x="1140" d="M141 0v1475h895q21 -54 21 -119q0 -78 -21 -131h-569v-357h467q20 -58 20 -120q0 -74 -20 -127h-467v-371h590q20 -55 20 -123q0 -74 -20 -127h-916zM399 1626l187 303q75 8 155.5 -23.5t112.5 -82.5l-279 -287q-124 21 -176 90z" />
<glyph unicode="&#xca;" horiz-adv-x="1142" d="M141 0v1475h897q21 -65 21 -119q0 -70 -21 -131h-569v-357h467q20 -70 20 -120q0 -65 -20 -127h-467v-371h590q20 -55 20 -123q0 -74 -20 -127h-918zM236 1675l319 271h74l321 -271q-52 -102 -139 -139l-219 137l-217 -135q-88 36 -139 137z" />
<glyph unicode="&#xcb;" horiz-adv-x="1142" d="M141 0v1475h897q21 -65 21 -119q0 -70 -21 -131h-569v-357h467q20 -70 20 -120q0 -65 -20 -127h-467v-371h590q20 -55 20 -123q0 -74 -20 -127h-918zM244 1550v236q45 14 135 14q38 0 72 -3.5t49 -6.5l14 -4v-236q-49 -14 -135 -14q-40 0 -74 3.5t-47 6.5zM645 1550v236 q45 14 135 14q39 0 73 -3.5t48 -6.5l14 -4v-236q-47 -14 -135 -14q-39 0 -73 3.5t-48 6.5z" />
<glyph unicode="&#xcc;" horiz-adv-x="606" d="M27 1819q32 52 112.5 83.5t155.5 22.5l186 -301q-50 -69 -174 -90zM139 18v1438q62 19 162 19q45 0 86.5 -4.5t60.5 -9.5l19 -5v-1438q-66 -18 -164 -18q-48 0 -89 4.5t-58 9.5z" />
<glyph unicode="&#xcd;" horiz-adv-x="606" d="M111 1626l186 303q75 8 155.5 -23.5t112.5 -82.5l-280 -287q-121 20 -174 90zM139 18v1438q62 19 162 19q45 0 86.5 -4.5t60.5 -9.5l19 -5v-1438q-66 -18 -164 -18q-48 0 -89 4.5t-58 9.5z" />
<glyph unicode="&#xce;" horiz-adv-x="606" d="M-49 1675l317 271h74l322 -271q-48 -101 -140 -139l-217 137l-217 -135q-92 38 -139 137zM141 18v1438q60 19 160 19q45 0 86.5 -4.5t60.5 -9.5l19 -5v-1438q-66 -18 -164 -18q-48 0 -88.5 4.5t-56.5 9.5z" />
<glyph unicode="&#xcf;" horiz-adv-x="604" d="M-39 1550v236q45 14 135 14q39 0 73 -3.5t48 -6.5l14 -4v-236q-47 -14 -135 -14q-39 0 -73 3.5t-48 6.5zM139 18v1438q62 19 162 19q45 0 86 -4.5t59 -9.5l19 -5v-1438q-64 -18 -162 -18q-48 0 -89 4.5t-58 9.5zM365 1550v236q45 14 135 14q38 0 72 -3.5t48 -6.5l15 -4 v-236q-49 -14 -135 -14q-40 0 -74 3.5t-48 6.5z" />
<glyph unicode="&#xd0;" horiz-adv-x="1411" d="M25 732.5q0 63.5 12 103.5h151v639h506q153 0 268 -41t197.5 -128.5t124 -230t41.5 -338.5t-41.5 -338t-124 -229.5t-197.5 -128.5t-268 -41h-506v625h-151q-12 44 -12 107.5zM514 256h168q59 0 102.5 12t82 43.5t62.5 85t38 139t14 201.5q0 118 -14 203.5t-38 139 t-62.5 85t-82 43t-102.5 11.5h-168v-383h223q13 -42 12.5 -106t-12.5 -105h-223v-369z" />
<glyph unicode="&#xd1;" horiz-adv-x="1433" d="M139 18v1438q70 19 207 19q62 0 112.5 -4.5t70.5 -9.5l20 -5l340 -741q34 -77 65.5 -169t46.5 -145l15 -53h10q-18 197 -18 416v692q53 19 145 19q43 0 78 -4.5t49 -9.5l14 -5v-1438q-63 -18 -202 -18q-59 0 -111.5 4.5t-74.5 9.5l-23 4l-346 748q-35 77 -65.5 163 t-43.5 133l-14 48h-11q23 -170 23 -391v-701q-49 -18 -147 -18q-43 0 -78 4.5t-49 9.5zM403 1706q3 4 9.5 11t27 25t43.5 32t58.5 25t72.5 11q71 0 144 -32.5t119 -32.5q33 0 60 13.5t37 26.5l11 13q43 -22 71 -66t34 -92q-3 -4 -9 -11t-26.5 -25t-43.5 -32t-59.5 -25 t-74.5 -11q-69 0 -143 33t-120 33q-30 0 -56.5 -13.5t-37.5 -26.5l-12 -14q-96 53 -105 158z" />
<glyph unicode="&#xd2;" horiz-adv-x="1411" d="M86 737q0 383 163.5 572.5t455.5 189.5q295 0 457.5 -187.5t162.5 -574.5q0 -388 -161.5 -575t-458.5 -187q-296 0 -457.5 187t-161.5 575zM434 737q0 -149 18.5 -249.5t55.5 -155.5t84 -77t113 -22q68 0 115.5 22t84.5 77t54.5 155.5t17.5 249.5q0 150 -17.5 250.5 t-54.5 156t-84.5 77.5t-115.5 22q-52 0 -92 -13.5t-75 -47.5t-57 -90.5t-34.5 -145.5t-12.5 -209zM444 1827q32 52 112.5 83.5t156.5 22.5l186 -303q-54 -71 -174 -88z" />
<glyph unicode="&#xd3;" horiz-adv-x="1411" d="M86 737q0 383 163.5 572.5t455.5 189.5q295 0 457.5 -187.5t162.5 -574.5q0 -388 -161.5 -575t-458.5 -187q-296 0 -457.5 187t-161.5 575zM434 737q0 -149 18.5 -249.5t55.5 -155.5t84 -77t113 -22q68 0 115.5 22t84.5 77t54.5 155.5t17.5 249.5q0 150 -17.5 250.5 t-54.5 156t-84.5 77.5t-115.5 22q-52 0 -92 -13.5t-75 -47.5t-57 -90.5t-34.5 -145.5t-12.5 -209zM616 1667l187 301q75 9 155.5 -22.5t112.5 -83.5l-278 -285q-127 21 -177 90z" />
<glyph unicode="&#xd4;" horiz-adv-x="1409" d="M84 737q0 194 43.5 340.5t125.5 238.5t195 137.5t257 45.5q294 0 456 -187.5t162 -574.5q0 -388 -161.5 -575t-456.5 -187q-297 0 -459 187t-162 575zM350 1675l318 271h73l322 -271q-22 -47 -58 -84t-81 -55l-219 137l-216 -135q-92 38 -139 137zM432 737 q0 -120 12.5 -208.5t35 -144.5t57.5 -90t75 -47.5t93 -13.5q68 0 115 22t84 77t55 155.5t18 249.5q0 150 -18 250.5t-55 156t-84 77.5t-115 22q-53 0 -93 -13.5t-75 -47.5t-57.5 -90.5t-35 -145.5t-12.5 -209z" />
<glyph unicode="&#xd5;" horiz-adv-x="1411" d="M86 737q0 194 43.5 340.5t125.5 238.5t195 137.5t257 45.5q294 0 456 -187.5t162 -574.5q0 -388 -161.5 -575t-456.5 -187q-297 0 -459 187t-162 575zM371 1729q3 4 9 11.5t26.5 26t43 32.5t58 26.5t72.5 13.5q70 2 144 -28t120 -29q32 2 58 16t36 28l10 13 q43 -20 73 -62.5t38 -88.5q-3 -4 -8.5 -11.5t-25.5 -26.5t-42.5 -34t-58.5 -27.5t-74 -13.5q-61 -2 -139 28t-125 29q-30 -1 -56.5 -15t-37.5 -28l-11 -14q-97 46 -110 154zM434 737q0 -120 12.5 -208.5t35 -144.5t57.5 -90t75 -47.5t93 -13.5q68 0 115 22t84 77t55 155.5 t18 249.5q0 150 -18 250.5t-55 156t-84 77.5t-115 22q-53 0 -93 -13.5t-75 -47.5t-57.5 -90.5t-35 -145.5t-12.5 -209z" />
<glyph unicode="&#xd6;" horiz-adv-x="1411" d="M86 737q0 383 163.5 572.5t455.5 189.5q295 0 457.5 -187.5t162.5 -574.5q0 -388 -161.5 -575t-458.5 -187q-296 0 -457.5 187t-161.5 575zM373 1573v235q45 15 135 15q38 0 72 -3.5t48 -7.5l15 -4v-235q-49 -14 -135 -14q-40 0 -74 3.5t-48 7.5zM434 737 q0 -149 18.5 -249.5t55.5 -155.5t84 -77t113 -22q68 0 115.5 22t84.5 77t54.5 155.5t17.5 249.5q0 150 -17.5 250.5t-54.5 156t-84.5 77.5t-115.5 22q-52 0 -92 -13.5t-75 -47.5t-57 -90.5t-34.5 -145.5t-12.5 -209zM774 1573v235q45 15 135 15q39 0 73 -3.5t48 -7.5l14 -4 v-235q-47 -14 -135 -14q-39 0 -73 3.5t-48 7.5z" />
<glyph unicode="&#xd7;" horiz-adv-x="962" d="M90 358l234 234l-234 233q19 41 68 90q22 22 45 39.5t35 23.5l12 7l233 -235l234 235q41 -19 90 -70q23 -22 39.5 -44.5t21.5 -34.5l6 -11l-233 -233l233 -234q-16 -43 -67 -92q-22 -22 -44.5 -38.5t-34.5 -22.5l-11 -6l-234 233l-233 -233q-43 18 -92 69 q-22 22 -39 44.5t-23 33.5z" />
<glyph unicode="&#xd8;" horiz-adv-x="1409" d="M84 737q0 194 43.5 340.5t125.5 238.5t195 137.5t257 45.5q158 0 282 -59l88 143q59 -1 116.5 -29.5t92.5 -70.5l-113 -185q152 -194 152 -561q0 -388 -161.5 -575t-456.5 -187q-176 0 -302 66l-90 -150q-60 2 -118 30t-93 73l121 196q-139 190 -139 547zM432 737 q0 -127 17 -205l407 666q-59 45 -151 45q-53 0 -93 -13.5t-75 -47.5t-57.5 -90.5t-35 -145.5t-12.5 -209zM547 283q55 -50 158 -50q68 0 115 22t84 77t55 155.5t18 249.5q0 118 -21 221z" />
<glyph unicode="&#xd9;" d="M131 514v942q58 19 162 19q46 0 87 -4.5t59 -9.5l18 -5v-967q0 -115 60.5 -176t174.5 -61q115 0 174.5 60.5t59.5 176.5v967q55 19 159 19q46 0 87 -4.5t59 -9.5l18 -5v-942q0 -255 -152 -397t-409 -142q-256 0 -406.5 143t-150.5 396zM399 1819q32 52 112.5 83.5 t156.5 22.5l186 -301q-50 -69 -174 -90z" />
<glyph unicode="&#xda;" d="M131 514v942q58 19 162 19q46 0 87 -4.5t59 -9.5l18 -5v-967q0 -115 60.5 -176t174.5 -61q115 0 174.5 60.5t59.5 176.5v967q55 19 159 19q46 0 87 -4.5t59 -9.5l18 -5v-942q0 -255 -152 -397t-409 -142q-256 0 -406.5 143t-150.5 396zM524 1626l187 303 q75 8 155.5 -23.5t112.5 -82.5l-281 -287q-121 20 -174 90z" />
<glyph unicode="&#xdb;" d="M131 514v942q58 19 162 19q47 0 88.5 -4.5t59.5 -9.5l18 -5v-967q0 -116 60 -176.5t175 -60.5q114 0 174 61t60 176v967q53 19 157 19q46 0 87 -4.5t59 -9.5l18 -5v-942q0 -255 -151 -397t-408 -142q-256 0 -407.5 143.5t-151.5 395.5zM352 1675l320 271h73l322 -271 q-52 -102 -139 -139l-219 137l-215 -135q-91 37 -142 137z" />
<glyph unicode="&#xdc;" d="M131 514v942q58 19 162 19q46 0 87 -4.5t59 -9.5l18 -5v-967q0 -115 60.5 -176t174.5 -61q115 0 174.5 60.5t59.5 176.5v967q55 19 159 19q46 0 87 -4.5t59 -9.5l18 -5v-942q0 -255 -152 -397t-409 -142q-256 0 -406.5 143t-150.5 396zM358 1550v236q46 14 136 14 q38 0 72 -3.5t48 -6.5l15 -4v-236q-49 -14 -135 -14q-40 0 -74 3.5t-48 6.5zM760 1550v236q45 14 135 14q38 0 72 -3.5t49 -6.5l14 -4v-236q-49 -14 -135 -14q-40 0 -73.5 3.5t-47.5 6.5z" />
<glyph unicode="&#xdd;" horiz-adv-x="1331" d="M16 1456q68 19 195 19q49 0 93.5 -4.5t64.5 -9.5l20 -5l293 -534l297 534q66 19 170 19q46 0 90 -4.5t65 -9.5l21 -5l-498 -872v-566q-55 -18 -159 -18q-52 0 -93.5 4.5t-56.5 9.5l-16 4v564zM502 1626l186 303q75 8 155.5 -23.5t112.5 -82.5l-280 -287q-121 20 -174 90z " />
<glyph unicode="&#xde;" horiz-adv-x="1247" d="M141 18v1438q58 19 158 19q45 0 85.5 -4.5t58.5 -9.5l18 -5v-229h258q217 0 344 -127t127 -340t-127 -340t-344 -127h-258v-275q-62 -18 -160 -18q-48 0 -88 4.5t-56 9.5zM461 547h192q205 0 205 213t-205 213h-192v-426z" />
<glyph unicode="&#xdf;" horiz-adv-x="1196" d="M113 16v1117q0 201 124 302t355 101q211 0 324.5 -105.5t115.5 -273.5q0 -96 -33 -186q-20 -2 -45 -10t-56.5 -24t-52 -47t-20.5 -71q0 -37 18 -69.5t47.5 -58t64.5 -51.5t70 -57t64.5 -67.5t47.5 -89.5t18 -117q0 -162 -103 -245.5t-276 -83.5q-69 0 -133.5 10t-94.5 20 l-30 10q-12 125 62 213q75 -22 139 -22q58 0 94.5 23t36.5 73q0 29 -18 56.5t-46 51.5t-62.5 49.5t-69 56.5t-62.5 67t-46 86.5t-18 109.5q0 42 10 80t25.5 66t35 51.5t38.5 39t34.5 26.5t25.5 15l10 5q16 53 16 92q-2 62 -37.5 100.5t-99.5 38.5q-84 0 -124 -43t-40 -137 v-1102q-60 -16 -158 -16q-46 0 -84 4t-52 8z" />
<glyph unicode="&#xe0;" horiz-adv-x="1058" d="M51 336q0 172 102.5 251t307.5 79q59 0 178 -9v43q0 146 -168 146q-56 0 -118.5 -12t-96.5 -24l-35 -11q-40 30 -67 96q-13 29 -18 60.5t-4 48.5l1 16q7 3 19 9t52.5 21t83 26t106.5 20.5t128 9.5q228 0 330 -92.5t102 -288.5v-709q-45 -16 -131 -16q-36 0 -69 4t-48 8 l-14 4l-37 101q-69 -137 -286 -137q-154 0 -236 89t-82 267zM207 1503q32 52 112.5 84t155.5 23l187 -301q-50 -69 -175 -90zM367 334q0 -77 29.5 -110.5t88.5 -33.5q54 0 89.5 32t50 79t14.5 105v61q-62 6 -131 6q-70 0 -105.5 -33t-35.5 -106z" />
<glyph unicode="&#xe1;" horiz-adv-x="1058" d="M51 336q0 172 102.5 251t307.5 79q59 0 178 -9v43q0 146 -168 146q-56 0 -118.5 -12t-96.5 -24l-35 -11q-40 30 -67 96q-13 29 -18 60.5t-4 48.5l1 16q7 3 19 9t52.5 21t83 26t106.5 20.5t128 9.5q228 0 330 -92.5t102 -288.5v-709q-45 -16 -131 -16q-36 0 -69 4t-48 8 l-14 4l-37 101q-69 -137 -286 -137q-154 0 -236 89t-82 267zM336 1309l186 301q75 9 156 -23t113 -84l-279 -284q-126 21 -176 90zM367 334q0 -77 29.5 -110.5t88.5 -33.5q54 0 89.5 32t50 79t14.5 105v61q-62 6 -131 6q-70 0 -105.5 -33t-35.5 -106z" />
<glyph unicode="&#xe2;" horiz-adv-x="1058" d="M51 336q0 172 102.5 251t307.5 79q59 0 178 -9v50q0 139 -168 139q-56 0 -118.5 -12t-96.5 -24l-35 -11q-40 30 -67 96q-13 29 -18 60.5t-4 48.5l1 16q7 3 19 9t52.5 21t83 26t106.5 20.5t128 9.5q228 0 330 -92.5t102 -288.5v-709q-45 -16 -131 -16q-36 0 -69 4t-48 8 l-14 4l-37 101q-69 -137 -286 -137q-154 0 -236 89t-82 267zM193 1354l311 264h71l316 -264q-54 -103 -137 -135l-213 133l-211 -131q-88 33 -137 133zM367 334q0 -77 29.5 -110.5t88.5 -33.5q54 0 89.5 32t50 79t14.5 105v61q-62 6 -131 6q-70 0 -105.5 -33t-35.5 -106z " />
<glyph unicode="&#xe3;" horiz-adv-x="1058" d="M51 336q0 172 102.5 251t307.5 79q59 0 178 -9v54q0 71 -39.5 103t-128.5 32q-56 0 -118.5 -12t-96.5 -24l-35 -11q-40 30 -67 96q-13 29 -18 60.5t-4 48.5l1 16q7 3 19 9t52.5 21t83 26t106.5 20.5t128 9.5q228 0 330 -92.5t102 -288.5v-709q-45 -16 -131 -16 q-36 0 -69 4t-48 8l-14 4l-37 101q-69 -137 -286 -137q-154 0 -236 89t-82 267zM190 1391q3 4 9.5 11t27.5 25t44.5 32t59 25t72.5 11q69 0 143 -32.5t120 -32.5q32 0 58.5 13t37.5 27l10 13q43 -23 71.5 -67t33.5 -91q-3 -4 -9 -11t-26.5 -25t-43 -32t-58.5 -25t-74 -11 q-71 0 -144 32.5t-119 32.5q-31 0 -58 -13t-39 -27l-11 -13q-96 55 -105 158zM367 334q0 -77 29.5 -110.5t88.5 -33.5q54 0 89.5 32t50 79t14.5 105v61q-62 6 -131 6q-70 0 -105.5 -33t-35.5 -106z" />
<glyph unicode="&#xe4;" horiz-adv-x="1058" d="M51 336q0 172 102.5 251t307.5 79q59 0 178 -9v48q0 141 -168 141q-56 0 -118.5 -12t-96.5 -24l-35 -11q-40 30 -67 96q-13 29 -18 60.5t-4 48.5l1 16q7 3 19 9t52.5 21t83 26t106.5 20.5t128 9.5q228 0 330 -92.5t102 -288.5v-709q-45 -16 -131 -16q-36 0 -69 4t-48 8 l-14 4l-37 101q-69 -137 -286 -137q-154 0 -236 89t-82 267zM203 1233v235q45 15 135 15q39 0 73 -3.5t48 -7.5l14 -4v-235q-47 -14 -135 -14q-39 0 -73 3.5t-48 7.5zM367 334q0 -77 29.5 -110.5t88.5 -33.5q54 0 89.5 32t50 79t14.5 105v61q-62 6 -131 6q-70 0 -105.5 -33 t-35.5 -106zM606 1233v235q45 15 135 15q38 0 72 -3.5t49 -7.5l15 -4v-235q-50 -14 -136 -14q-40 0 -74 3.5t-47 7.5z" />
<glyph unicode="&#xe5;" horiz-adv-x="1058" d="M51 336q0 172 102.5 251t307.5 79q59 0 178 -9v43q0 71 -39 108.5t-129 37.5q-56 0 -118.5 -12t-96.5 -24l-35 -11q-40 30 -67 96q-13 29 -18 60.5t-4 48.5l1 16q7 3 19 9t52.5 21t83 26t106.5 20.5t128 9.5q228 0 330 -92.5t102 -288.5v-709q-45 -16 -131 -16 q-36 0 -69 4t-48 8l-14 4l-37 101q-69 -137 -286 -137q-154 0 -236 89t-82 267zM252 1434q0 114 83 177.5t200 63.5q115 0 199.5 -63.5t84.5 -177.5q0 -116 -82.5 -182t-204.5 -66q-123 0 -201.5 66t-78.5 182zM367 334q0 -77 29.5 -110.5t88.5 -33.5q54 0 89.5 32t50 79 t14.5 105v61q-62 6 -131 6q-70 0 -105.5 -33t-35.5 -106zM436 1434q0 -36 25.5 -61t70.5 -25q48 0 74.5 25.5t26.5 60.5q0 36 -26.5 61t-74.5 25q-45 0 -70.5 -25.5t-25.5 -60.5z" />
<glyph unicode="&#xe6;" horiz-adv-x="1581" d="M51 334q0 169 103 245t307 76h164v56q0 68 -36.5 101.5t-123.5 33.5q-55 0 -115.5 -12t-93.5 -24l-33 -11q-87 90 -90 221l18 9t51.5 21t81.5 26t105.5 20.5t126.5 9.5q200 0 297 -123q123 123 287 123q197 0 309.5 -107.5t112.5 -320.5q0 -56 -6 -111.5t-12 -82.5 l-5 -27h-555q13 -120 66.5 -175t148.5 -55q54 0 106.5 11.5t78.5 23.5l26 12q37 -31 62.5 -86t29.5 -116q-5 -4 -14 -10t-41.5 -22t-70 -28t-100 -22t-130.5 -10q-76 0 -140 18.5t-105.5 48t-66 55t-40.5 52.5q-111 -174 -355 -174q-348 0 -348 354zM369 328 q0 -133 106 -133q76 0 113 57t37 151v60h-119q-74 0 -105.5 -31t-31.5 -104zM942 651h272q5 29 5 58q0 168 -121 168q-65 0 -105 -52.5t-51 -173.5z" />
<glyph unicode="&#xe7;" horiz-adv-x="917" d="M72 539q0 567 479 567q94 0 170.5 -16t106.5 -32l30 -16q-6 -118 -90 -202q-64 26 -158 26q-114 0 -162.5 -77.5t-48.5 -247.5q0 -165 51.5 -240.5t167.5 -75.5q44 0 86.5 7.5t63.5 15.5l20 8q79 -75 91 -205q-4 -3 -11.5 -7t-35 -16t-59 -21t-84 -17t-109.5 -10l-15 -78 q213 0 213 -203q0 -103 -71.5 -157t-194.5 -54q-62 0 -115.5 12t-76.5 24l-23 13q-2 33 12.5 67.5t38.5 51.5q60 -27 133 -27q53 -2 88 16.5t35 61.5q0 72 -90 72h-106l-29 33l33 180q-340 73 -340 547z" />
<glyph unicode="&#xe8;" horiz-adv-x="1054" d="M72 545q0 284 127 422.5t358 138.5q206 0 322 -108.5t116 -323.5q0 -60 -5.5 -116t-11.5 -82l-5 -27h-572q13 -119 67.5 -165t154.5 -46q56 0 110.5 12t80.5 24l26 13q38 -33 65.5 -94t30.5 -121q-5 -4 -14.5 -10t-44 -22t-73.5 -28t-102 -22t-131 -10q-253 0 -376 139.5 t-123 425.5zM266 1503q32 52 113 84t156 23l186 -301q-50 -69 -174 -90zM399 645h289q2 20 2 64q0 168 -129 168q-140 0 -162 -232z" />
<glyph unicode="&#xe9;" horiz-adv-x="1054" d="M72 545q0 284 127 422.5t358 138.5q206 0 322 -108.5t116 -323.5q0 -60 -5.5 -116t-11.5 -82l-5 -27h-572q13 -119 67.5 -165t154.5 -46q56 0 110.5 12t80.5 24l26 13q38 -33 65.5 -94t30.5 -121q-5 -4 -14.5 -10t-44 -22t-73.5 -28t-102 -22t-131 -10q-253 0 -376 139.5 t-123 425.5zM344 1309l186 301q75 9 156 -23t113 -84l-279 -284q-126 21 -176 90zM399 645h289q2 20 2 64q0 168 -129 168q-140 0 -162 -232z" />
<glyph unicode="&#xea;" horiz-adv-x="1054" d="M72 545q0 284 127 422.5t358 138.5q206 0 322 -108.5t116 -323.5q0 -60 -5.5 -116t-11.5 -82l-5 -27h-572q13 -119 67.5 -165t154.5 -46q56 0 110.5 12t80.5 24l26 13q38 -33 65.5 -94t30.5 -121q-5 -4 -14.5 -10t-44 -22t-73.5 -28t-102 -22t-131 -10q-253 0 -376 139.5 t-123 425.5zM201 1354l311 264h72l315 -264q-54 -103 -137 -135l-213 133l-211 -131q-88 33 -137 133zM399 645h289q2 20 2 64q0 168 -129 168q-140 0 -162 -232z" />
<glyph unicode="&#xeb;" horiz-adv-x="1054" d="M72 545q0 284 127 422.5t358 138.5q206 0 322 -108.5t116 -323.5q0 -60 -5.5 -116t-11.5 -82l-5 -27h-572q13 -119 67.5 -165t154.5 -46q56 0 110.5 12t80.5 24l26 13q38 -33 65.5 -94t30.5 -121q-5 -4 -14.5 -10t-44 -22t-73.5 -28t-102 -22t-131 -10q-253 0 -376 139.5 t-123 425.5zM211 1233v235q45 15 135 15q39 0 73 -3.5t48 -7.5l14 -4v-235q-47 -14 -135 -14q-39 0 -73 3.5t-48 7.5zM399 645h289q2 20 2 64q0 168 -129 168q-140 0 -162 -232zM614 1233v235q46 15 136 15q38 0 72 -3.5t48 -7.5l15 -4v-235q-49 -14 -135 -14q-40 0 -74 3.5 t-48 7.5z" />
<glyph unicode="&#xec;" horiz-adv-x="542" d="M-16 1507q32 52 112.5 84t155.5 23l186 -301q-53 -73 -174 -90zM115 16v1053q51 16 157 16q45 0 84.5 -4t56.5 -8l17 -4v-1053q-56 -16 -158 -16q-47 0 -86.5 4t-55.5 8z" />
<glyph unicode="&#xed;" horiz-adv-x="542" d="M86 1309l186 301q75 9 156 -23t113 -84l-281 -284q-124 21 -174 90zM115 16v1053q51 16 157 16q45 0 84.5 -4t56.5 -8l17 -4v-1053q-56 -16 -158 -16q-46 0 -85.5 4t-55.5 8z" />
<glyph unicode="&#xee;" horiz-adv-x="542" d="M-76 1354l314 264h71l316 -264q-54 -102 -138 -135l-213 133l-213 -131q-84 33 -137 133zM115 16v1053q51 16 157 16q45 0 84.5 -4t56.5 -8l17 -4v-1053q-56 -16 -158 -16q-46 0 -85.5 4t-55.5 8z" />
<glyph unicode="&#xef;" horiz-adv-x="542" d="M-66 1233v235q46 15 136 15q39 0 73 -3.5t48 -7.5l14 -4v-235q-47 -14 -135 -14q-39 0 -73 3.5t-49 7.5zM115 16v1053q51 16 157 16q45 0 84.5 -4t56.5 -8l17 -4v-1053q-56 -16 -158 -16q-47 0 -86.5 4t-55.5 8zM338 1233v235q45 15 135 15q38 0 72 -3.5t49 -7.5l14 -4 v-235q-49 -14 -135 -14q-40 0 -74 3.5t-47 7.5z" />
<glyph unicode="&#xf0;" horiz-adv-x="1144" d="M70 516q0 522 471 522q111 0 188 -47q-47 122 -143 203l-224 -133q-75 60 -98 158l144 84q-81 32 -166 49q-13 121 53 184q188 -25 334 -104l188 110q35 -27 60 -70t34 -88l-116 -67q131 -120 202.5 -294.5t71.5 -393.5q0 -148 -24 -260.5t-66.5 -186t-107.5 -119 t-140 -64.5t-170 -19q-112 0 -199.5 29t-154 91t-102 167t-35.5 249zM393 516q0 -122 21 -190t55.5 -90.5t91.5 -22.5q34 0 59 7t47 27t36 53.5t22 87.5t8 128q0 76 -8 130.5t-21.5 88t-36 53t-47.5 26.5t-59 7q-57 0 -91.5 -23t-55.5 -91.5t-21 -190.5z" />
<glyph unicode="&#xf1;" horiz-adv-x="1120" d="M111 16v1053q51 16 157 16q45 0 84.5 -4t56.5 -8l17 -4v-61q107 98 274 98q153 0 233.5 -83t80.5 -224v-783q-54 -16 -158 -16q-47 0 -86.5 4t-55.5 8l-16 4v719q0 123 -131 123q-78 0 -141 -57v-785q-56 -16 -158 -16q-47 0 -86.5 4t-55.5 8zM201 1384q3 4 9.5 11 t27.5 25.5t44.5 32t59 25t72.5 11.5q69 0 142.5 -33t119.5 -33q32 0 58.5 13.5t37.5 27.5l10 13q43 -21 71.5 -65.5t33.5 -90.5q-3 -4 -9 -11t-26.5 -25t-43 -32t-58.5 -25t-74 -11q-71 0 -143.5 32.5t-118.5 32.5q-20 0 -38 -5.5t-30.5 -13t-22 -15.5t-13.5 -14l-5 -5 q-95 51 -104 155z" />
<glyph unicode="&#xf2;" horiz-adv-x="1132" d="M72 543q0 563 493 563q496 0 496 -563t-496 -563q-493 0 -493 563zM225 1503q32 52 113 84t156 23l188 -301q-53 -70 -176 -90zM397 543q0 -125 21 -198.5t56.5 -100.5t90.5 -27q56 0 91.5 27t56 100t20.5 199q0 125 -21 198t-56 99t-91 26q-41 0 -70.5 -14.5t-52 -50 t-34 -99.5t-11.5 -159z" />
<glyph unicode="&#xf3;" horiz-adv-x="1134" d="M72 543q0 563 495 563q496 0 496 -563t-496 -563q-495 0 -495 563zM356 1309l187 301q75 9 155.5 -23t112.5 -84l-279 -284q-126 21 -176 90zM399 543q0 -125 21 -198.5t56.5 -100.5t90.5 -27q56 0 91 27t55 100t20 199t-20 198.5t-55 98.5t-91 26q-41 0 -70.5 -14.5 t-52 -50t-34 -99.5t-11.5 -159z" />
<glyph unicode="&#xf4;" horiz-adv-x="1134" d="M72 543q0 563 495 563q496 0 496 -563t-496 -563q-495 0 -495 563zM213 1337l311 265h72l315 -265q-53 -100 -137 -133l-213 133l-211 -131q-89 34 -137 131zM399 543q0 -125 21 -198.5t56.5 -100.5t90.5 -27q56 0 91 27t55 100t20 199t-20 198.5t-55 98.5t-91 26 q-41 0 -70.5 -14.5t-52 -50t-34 -99.5t-11.5 -159z" />
<glyph unicode="&#xf5;" horiz-adv-x="1132" d="M72 543q0 563 495 563q238 0 366 -134t128 -429q0 -563 -494 -563q-495 0 -495 563zM211 1386q3 4 9.5 11t27.5 25.5t44.5 32t59 25t72.5 11.5q69 0 142.5 -33t119.5 -33q32 0 59 13.5t37 27.5l11 13q43 -21 71 -65t33 -91q-3 -4 -9 -11t-26.5 -25t-43 -32t-58.5 -25 t-74 -11q-71 0 -143.5 32.5t-118.5 32.5q-20 0 -38 -5.5t-30.5 -13t-22 -15.5t-13.5 -14l-5 -5q-95 51 -104 155zM399 543q0 -126 20.5 -199t56 -100t91.5 -27q84 0 125 71t41 255q0 125 -20.5 198t-55.5 99t-90 26q-56 0 -91 -26t-56 -99t-21 -198z" />
<glyph unicode="&#xf6;" horiz-adv-x="1134" d="M72 543q0 563 495 563q496 0 496 -563t-496 -563q-495 0 -495 563zM223 1233v235q45 15 135 15q39 0 73 -3.5t49 -7.5l14 -4v-235q-48 -14 -136 -14q-39 0 -73 3.5t-48 7.5zM399 543q0 -125 21 -198.5t56.5 -100.5t90.5 -27q56 0 91 27t55 100t20 199t-20 198.5t-55 98.5 t-91 26q-41 0 -70.5 -14.5t-52 -50t-34 -99.5t-11.5 -159zM627 1233v235q45 15 135 15q38 0 72 -3.5t48 -7.5l15 -4v-235q-49 -14 -135 -14q-40 0 -74 3.5t-48 7.5z" />
<glyph unicode="&#xf7;" horiz-adv-x="1038" d="M68 594q0 31 3.5 59.5t6.5 40.5l4 13h874q17 -43 17 -113q0 -31 -4.5 -59.5t-8.5 -40.5l-4 -13h-874q-14 43 -14 113zM371 98v279q47 16 149 16q43 0 81 -4t55 -8l16 -4v-279q-56 -16 -152 -16q-44 0 -81.5 4t-52.5 8zM371 811v279q47 16 149 16q43 0 81 -4t55 -8l16 -4 v-279q-56 -16 -152 -16q-44 0 -81.5 4t-52.5 8z" />
<glyph unicode="&#xf8;" horiz-adv-x="1134" d="M72 543q0 563 495 563q126 0 219 -37l72 117q45 -1 88.5 -24t69.5 -54l-84 -135q131 -140 131 -430q0 -563 -496 -563q-128 0 -219 36l-82 -131q-101 3 -160 78l95 152q-129 142 -129 428zM399 543q0 -65 9 -111l249 408q-36 26 -90 26q-56 0 -91 -26t-56 -99t-21 -198z M475 246q36 -29 92 -29t90.5 26t55 98.5t20.5 199.5q0 71 -8 112z" />
<glyph unicode="&#xf9;" horiz-adv-x="1120" d="M106 287v782q54 16 158 16q47 0 86.5 -4t55.5 -8l16 -4v-721q0 -123 129 -123q79 0 143 58v786q56 16 158 16q46 0 85.5 -4t56.5 -8l16 -4v-1053q-52 -16 -158 -16q-45 0 -84.5 4t-56.5 8l-17 4v62q-107 -98 -274 -98q-153 0 -233.5 83t-80.5 224zM266 1503q32 52 113 84 t156 23l186 -301q-50 -69 -174 -90z" />
<glyph unicode="&#xfa;" horiz-adv-x="1120" d="M106 287v782q54 16 158 16q47 0 86.5 -4t55.5 -8l16 -4v-721q0 -123 129 -123q79 0 143 58v786q56 16 158 16q46 0 85.5 -4t56.5 -8l16 -4v-1053q-52 -16 -158 -16q-45 0 -84.5 4t-56.5 8l-17 4v62q-107 -98 -274 -98q-153 0 -233.5 83t-80.5 224zM360 1309l187 301 q75 9 155.5 -23t112.5 -84l-278 -284q-127 21 -177 90z" />
<glyph unicode="&#xfb;" horiz-adv-x="1120" d="M106 287v782q54 16 158 16q47 0 86.5 -4t55.5 -8l16 -4v-721q0 -123 129 -123q79 0 143 58v786q56 16 158 16q46 0 85.5 -4t56.5 -8l16 -4v-1053q-52 -16 -158 -16q-45 0 -84.5 4t-56.5 8l-17 4v62q-107 -98 -274 -98q-153 0 -233.5 83t-80.5 224zM217 1354l311 264h72 l315 -264q-54 -103 -137 -135l-213 133l-211 -131q-88 33 -137 133z" />
<glyph unicode="&#xfc;" horiz-adv-x="1120" d="M106 287v782q54 16 158 16q47 0 86.5 -4t55.5 -8l16 -4v-721q0 -123 129 -123q79 0 143 58v786q56 16 158 16q46 0 85.5 -4t56.5 -8l16 -4v-1053q-52 -16 -158 -16q-45 0 -84.5 4t-56.5 8l-17 4v62q-107 -98 -274 -98q-153 0 -233.5 83t-80.5 224zM227 1233v235 q45 15 135 15q39 0 73 -3.5t49 -7.5l14 -4v-235q-48 -14 -136 -14q-39 0 -73 3.5t-48 7.5zM631 1233v235q45 15 135 15q38 0 72 -3.5t48 -7.5l15 -4v-235q-49 -14 -135 -14q-40 0 -74 3.5t-48 7.5z" />
<glyph unicode="&#xfd;" horiz-adv-x="1118" d="M18 1069q62 16 166 16q48 0 88 -4t56 -8l16 -4l166 -485q24 -70 40 -141t20 -107l5 -35h9q14 123 61 283l146 485q53 16 151 16q42 0 80.5 -4t55.5 -8l18 -4l-353 -1186q-31 -103 -64.5 -171t-84.5 -121.5t-122.5 -78t-170.5 -24.5q-39 0 -78 6t-59 12l-19 7 q-18 46 -18 112q0 29 5.5 59t11.5 45l6 15q49 -8 90 -8q43 0 69 6t53.5 25.5t48.5 59.5t42 107l20 66q-50 0 -96 16zM373 1309l186 301q75 9 155.5 -23t112.5 -84l-278 -284q-126 21 -176 90z" />
<glyph unicode="&#xfe;" horiz-adv-x="1148" d="M113 -442v1970q57 16 157 16q44 0 83.5 -4t56.5 -8l18 -4v-527q88 105 266 105q86 0 153 -29t119 -92.5t79.5 -174.5t27.5 -267q0 -154 -27 -264.5t-79 -175t-119.5 -94t-155.5 -29.5q-177 0 -264 104v-526q-58 -17 -158 -17q-44 0 -83.5 4.5t-56.5 8.5zM428 418 q0 -82 39.5 -137.5t110.5 -55.5q41 0 69 12.5t50.5 46t33 97.5t10.5 162q0 126 -19 196t-52.5 94.5t-91.5 24.5q-67 0 -107.5 -49t-42.5 -131v-260z" />
<glyph unicode="&#xff;" horiz-adv-x="1118" d="M18 1069q62 16 166 16q48 0 88 -4t56 -8l16 -4l166 -485q24 -70 40 -141t20 -107l5 -35h9q14 123 61 283l146 485q53 16 151 16q42 0 80.5 -4t55.5 -8l18 -4l-353 -1186q-31 -103 -64.5 -171t-84.5 -121.5t-122.5 -78t-170.5 -24.5q-39 0 -78 6t-59 12l-19 7 q-18 46 -18 112q0 29 5.5 59t11.5 45l6 15q49 -8 90 -8q43 0 69 6t53.5 25.5t48.5 59.5t42 107l20 66q-50 0 -96 16zM246 1233v235q43 15 133 15q39 0 73 -3.5t48 -7.5l14 -4v-235q-47 -14 -135 -14q-39 0 -72.5 3.5t-46.5 7.5zM647 1233v235q45 15 135 15q38 0 72 -3.5 t49 -7.5l15 -4v-235q-50 -14 -136 -14q-40 0 -74 3.5t-48 7.5z" />
<glyph unicode="&#x152;" horiz-adv-x="1828" d="M86 737q0 387 161.5 572.5t461.5 185.5q102 0 186 -20h829q21 -58 21 -123t-21 -123h-507v-361h405q20 -55 20 -123q0 -69 -20 -124h-405v-373h528q20 -58 20 -125q0 -68 -20 -123h-852q-98 -20 -184 -20q-299 0 -461 187t-162 570zM418 737q0 -122 13.5 -210.5t37 -145 t61 -90t80 -46t99.5 -12.5q106 0 188 43v922q-92 45 -188 45q-57 0 -99.5 -13t-80 -46.5t-61 -90t-37 -145.5t-13.5 -211z" />
<glyph unicode="&#x153;" horiz-adv-x="1652" d="M70 543q0 563 495 563q191 0 299 -129q108 129 291 129q206 0 322 -108.5t116 -323.5q0 -60 -5.5 -116.5t-11.5 -82.5l-5 -26h-557q13 -121 62.5 -171.5t144.5 -50.5q56 0 111.5 11.5t82.5 23.5l27 12q36 -30 62 -86.5t30 -115.5q-5 -4 -14 -10t-43 -22t-72.5 -28 t-102.5 -22t-133 -10q-196 0 -307 124q-127 -124 -297 -124q-495 0 -495 563zM397 543q0 -126 20.5 -199t56 -100t91.5 -27q54 0 86 27.5t49 99.5t17 199t-17 198.5t-48.5 98t-86.5 26.5q-56 0 -91 -26t-56 -99t-21 -198zM1012 645h274q4 40 4 64q0 168 -129 168 q-65 0 -102 -54t-47 -178z" />
<glyph unicode="&#x178;" horiz-adv-x="1331" d="M16 1456q68 19 195 19q49 0 93.5 -4.5t64.5 -9.5l20 -5l293 -534l297 534q66 19 170 19q46 0 90 -4.5t65 -9.5l21 -5l-498 -872v-566q-55 -18 -159 -18q-52 0 -93.5 4.5t-56.5 9.5l-16 4v564zM350 1552v236q45 14 135 14q39 0 73 -3.5t48 -6.5l15 -4v-236 q-48 -14 -136 -14q-39 0 -73 3.5t-48 6.5zM754 1552v236q45 14 135 14q38 0 72 -3.5t49 -6.5l14 -4v-236q-49 -14 -135 -14q-40 0 -73.5 3.5t-47.5 6.5z" />
<glyph unicode="&#x2c6;" horiz-adv-x="811" d="M47 1270l318 270h75l322 -270q-53 -104 -141 -140l-218 138l-217 -135q-92 38 -139 137z" />
<glyph unicode="&#x2dc;" horiz-adv-x="669" d="M-8 1423q3 4 9.5 11t27.5 25.5t44.5 32t59 25t72.5 11.5q69 0 142.5 -33t119.5 -33q32 0 58.5 13.5t36.5 26.5l11 14q43 -21 71.5 -65.5t33.5 -90.5q-3 -4 -9 -11t-26.5 -25.5t-43 -32t-58.5 -25t-74 -11.5q-71 0 -143.5 33t-118.5 33q-31 0 -58.5 -13.5t-38.5 -26.5 l-12 -13q-95 50 -104 155z" />
<glyph unicode="&#x2000;" horiz-adv-x="985" />
<glyph unicode="&#x2001;" horiz-adv-x="1970" />
<glyph unicode="&#x2002;" horiz-adv-x="985" />
<glyph unicode="&#x2003;" horiz-adv-x="1970" />
<glyph unicode="&#x2004;" horiz-adv-x="656" />
<glyph unicode="&#x2005;" horiz-adv-x="492" />
<glyph unicode="&#x2006;" horiz-adv-x="328" />
<glyph unicode="&#x2007;" horiz-adv-x="328" />
<glyph unicode="&#x2008;" horiz-adv-x="246" />
<glyph unicode="&#x2009;" horiz-adv-x="394" />
<glyph unicode="&#x200a;" horiz-adv-x="109" />
<glyph unicode="&#x2010;" horiz-adv-x="714" d="M111 594q0 31 3.5 59.5t7.5 40.5l3 13h465q14 -43 14 -113q0 -31 -3.5 -59.5t-6.5 -40.5l-4 -13h-465q-14 43 -14 113z" />
<glyph unicode="&#x2011;" horiz-adv-x="714" d="M111 594q0 31 3.5 59.5t7.5 40.5l3 13h465q14 -43 14 -113q0 -31 -3.5 -59.5t-6.5 -40.5l-4 -13h-465q-14 43 -14 113z" />
<glyph unicode="&#x2012;" horiz-adv-x="714" d="M111 594q0 31 3.5 59.5t7.5 40.5l3 13h465q14 -43 14 -113q0 -31 -3.5 -59.5t-6.5 -40.5l-4 -13h-465q-14 43 -14 113z" />
<glyph unicode="&#x2013;" horiz-adv-x="1124" d="M111 594q0 31 3.5 59.5t7.5 40.5l3 13h874q15 -43 15 -113q0 -31 -4 -59.5t-8 -40.5l-3 -13h-874q-14 43 -14 113z" />
<glyph unicode="&#x2014;" horiz-adv-x="1636" d="M111 594q0 31 3.5 59.5t7.5 40.5l3 13h1386q15 -43 15 -113q0 -31 -4 -59.5t-8 -40.5l-3 -13h-1386q-14 43 -14 113z" />
<glyph unicode="&#x2018;" horiz-adv-x="499" d="M90 864v211q0 72 18.5 140t45 113t53 80t45.5 51l18 16l113 -76q-8 -10 -20 -28t-34 -77t-26 -123q28 -2 53.5 -5.5t37.5 -5.5l12 -3v-293q-54 -16 -158 -16q-44 0 -83.5 4t-56.5 8z" />
<glyph unicode="&#x2019;" horiz-adv-x="481" d="M88 1165v293q54 17 158 17q44 0 83 -4.5t57 -8.5l17 -4v-211q0 -72 -18.5 -140t-45 -113t-53 -79.5t-44.5 -50.5l-19 -16l-112 76q8 9 20 26.5t33.5 76t25.5 122.5q-28 2 -53.5 6t-36.5 7z" />
<glyph unicode="&#x201a;" horiz-adv-x="520" d="M102 16v293q54 17 158 17q44 0 83.5 -4t56.5 -8l18 -5v-211q0 -73 -18.5 -141t-45 -113t-53 -80t-45.5 -51l-18 -16l-113 78q3 3 8 9.5t17.5 29t23 46.5t20 62.5t11.5 77.5q-28 2 -53.5 6t-37.5 7z" />
<glyph unicode="&#x201c;" horiz-adv-x="884" d="M92 864v211q0 72 18.5 140t45 113t53 80t45.5 51l18 16l113 -76q-8 -10 -20 -28t-34 -77t-26 -123q28 -2 53.5 -5.5t37.5 -5.5l12 -3v-293q-54 -16 -158 -16q-44 0 -83.5 4t-56.5 8zM475 864v211q0 72 18.5 140t45 113t53 80t44.5 51l19 16l111 -76q-8 -10 -20 -28 t-34 -77t-26 -123q28 -2 54 -5.5t38 -5.5l13 -3v-293q-54 -16 -158 -16q-44 0 -83.5 4t-57.5 8z" />
<glyph unicode="&#x201d;" horiz-adv-x="864" d="M88 1165v293q54 17 158 17q44 0 83 -4.5t57 -8.5l17 -4v-211q0 -72 -18.5 -140t-45 -113t-53 -79.5t-44.5 -50.5l-19 -16l-112 76q8 9 20 26.5t33.5 76t25.5 122.5q-28 2 -53.5 6t-36.5 7zM471 1165v293q54 17 158 17q44 0 83 -4.5t56 -8.5l18 -4v-211q0 -72 -18.5 -140 t-45 -113t-53 -79.5t-45.5 -50.5l-18 -16l-112 76q8 9 19.5 26.5t32.5 76t25 122.5q-27 2 -52 6t-37 7z" />
<glyph unicode="&#x201e;" horiz-adv-x="903" d="M102 16v293q54 17 158 17q44 0 83.5 -4t56.5 -8l18 -5v-211q0 -73 -18.5 -141t-45 -113t-53 -80t-45.5 -51l-18 -16l-113 78q3 3 8 9.5t17.5 29t23 46.5t20 62.5t11.5 77.5q-28 2 -53.5 6t-37.5 7zM485 16v293q54 17 158 17q44 0 83.5 -4t57.5 -8l17 -5v-211 q0 -73 -18.5 -141t-45 -113t-53 -80t-44.5 -51l-19 -16l-113 78q3 3 7.5 9.5t17 29t22.5 46.5t19.5 62.5t11.5 77.5q-27 2 -52.5 6t-37.5 7z" />
<glyph unicode="&#x2022;" horiz-adv-x="741" d="M127 578q0 107 70 174t176 67q104 0 172.5 -67t68.5 -174q0 -106 -68.5 -172t-172.5 -66q-106 0 -176 66t-70 172z" />
<glyph unicode="&#x2026;" horiz-adv-x="1460" d="M102 16v293q52 17 158 17q45 0 84.5 -4t56.5 -8l17 -5v-293q-56 -16 -158 -16q-47 0 -86.5 4t-55.5 8zM573 16v293q52 17 158 17q45 0 84.5 -4t56.5 -8l17 -5v-293q-56 -16 -158 -16q-46 0 -85.5 4t-55.5 8zM1042 16v293q52 17 158 17q45 0 84.5 -4t56.5 -8l17 -5v-293 q-56 -16 -158 -16q-47 0 -86.5 4t-55.5 8z" />
<glyph unicode="&#x202f;" horiz-adv-x="394" />
<glyph unicode="&#x2039;" horiz-adv-x="688" d="M63 543q0 36 4.5 69t9.5 48l5 14l440 379q73 -70 90 -189l-274 -313l274 -311q-19 -118 -90 -189l-440 373q-19 43 -19 119z" />
<glyph unicode="&#x203a;" horiz-adv-x="686" d="M76 240l274 311l-274 313q14 119 90 189l440 -379q19 -49 19 -131q0 -34 -4.5 -63.5t-9.5 -42.5l-5 -13l-440 -373q-74 71 -90 189z" />
<glyph unicode="&#x205f;" horiz-adv-x="492" />
<glyph unicode="&#x20ac;" horiz-adv-x="1218" d="M71 526q8 55 29 90h119v70v72h-147q-9 41 -1 96t29 90h144q47 221 187 335t366 114q96 0 180 -18.5t120 -36.5l36 -19q0 -135 -91 -207q-98 39 -211 39q-103 0 -170.5 -47.5t-99.5 -159.5h447q9 -39 0.5 -94.5t-29.5 -91.5h-447q-2 -25 -2 -74q0 -48 2 -68h392 q9 -39 0.5 -94.5t-29.5 -91.5h-334q30 -112 97.5 -157.5t172.5 -45.5q54 0 112 9.5t89 19.5l31 10q43 -33 65.5 -91.5t22.5 -119.5q-5 -3 -15 -8t-44 -18t-72 -23t-98.5 -18t-124.5 -8q-227 0 -367 114t-186 336h-172q-9 41 -1 96z" />
<glyph unicode="&#x2122;" horiz-adv-x="1249" d="M51 1419q0 35 8 56h437q8 -19 8 -54q0 -23 -8 -51h-152v-477q-24 -8 -65 -8q-19 0 -35 2t-22 4l-7 2v477h-156q-8 28 -8 49zM563 893v573q54 9 80 9q51 0 78 -9l65 -149q48 -118 56 -156q14 45 57 144l64 161q38 9 81 9q21 0 42.5 -2.5t32.5 -4.5l11 -2v-573 q-22 -8 -61 -8q-18 0 -34.5 2t-23.5 4l-7 2v221q0 146 4 197q-6 -17 -45 -119l-66 -152q-20 -8 -57 -8q-16 0 -30.5 2t-21.5 4l-6 2l-65 170q-25 51 -43 101q6 -61 6 -197v-221q-22 -8 -59 -8q-16 0 -30.5 2t-20.5 4z" />
<glyph unicode="&#x25fc;" horiz-adv-x="1085" d="M0 0v1085h1085v-1085h-1085z" />
</font>
</defs>
</svg>
