<?xml version="1.0" standalone="no"?>
<!DOCTYPE svg PUBLIC "-//W3C//DTD SVG 1.1//EN" "http://www.w3.org/Graphics/SVG/1.1/DTD/svg11.dtd" >
<svg xmlns="http://www.w3.org/2000/svg">
<metadata></metadata>
<defs>
<font id="globerthin_italic" horiz-adv-x="1136" >
<font-face units-per-em="2048" ascent="1536" descent="-512" />
<missing-glyph horiz-adv-x="550" />
<glyph unicode="&#xfb01;" horiz-adv-x="1124" d="M98 4l224 1045h-132q-6 12 7 28h131l26 131q18 83 47.5 141.5t78.5 101.5t123.5 64t176.5 21q73 0 150.5 -13t118.5 -27l41 -13q0 -7 -5.5 -15.5t-11.5 -11.5q-15 6 -42 14.5t-104.5 22.5t-148.5 14q-131 0 -212 -34.5t-120 -96t-61 -166.5l-29 -133h658l-230 -1073 q-2 -4 -16 -4l-12 4l223 1045h-629l-223 -1045q-2 -4 -14 -4z" />
<glyph unicode="&#xfb02;" horiz-adv-x="1126" d="M98 4l224 1045h-132q-2 12 7 28h131l26 123q16 78 43.5 136t72.5 105t115.5 71t164.5 24q87 0 173.5 -17.5t129.5 -34.5l43 -18l-312 -1462q-14 -8 -28 0l307 1442q-151 61 -309 61q-91 0 -156.5 -20t-107 -60.5t-65.5 -92t-40 -124.5l-29 -133h295q3 -14 -6 -28h-295 l-223 -1045q-2 -4 -14 -4z" />
<glyph horiz-adv-x="0" />
<glyph horiz-adv-x="682" />
<glyph unicode=" "  horiz-adv-x="550" />
<glyph unicode="&#x09;" horiz-adv-x="550" />
<glyph unicode="&#xa0;" horiz-adv-x="550" />
<glyph unicode="!" horiz-adv-x="466" d="M72 2l8 41q15 8 31 8q8 0 14.5 -2t8.5 -4l3 -2l-8 -41q-13 -8 -31 -8q-7 0 -13.5 2t-9.5 4zM147 291l252 1179q15 6 31 0l-256 -1179q-14 -7 -27 0z" />
<glyph unicode="&#x22;" horiz-adv-x="567" d="M270 1085l78 385q9 5 17 5q5 0 9 -1.5t6 -2.5l1 -1l-86 -385q-2 0 -6.5 -1t-7.5 -1zM459 1085l78 385q4 5 16 5q5 0 9 -1.5t6 -2.5l1 -1l-86 -385q-4 -2 -14 -2z" />
<glyph unicode="#" horiz-adv-x="1310" d="M37 317q-3 16 6 31h248l280 563h-235q-4 8 -2 15q3 11 8 16h244l164 330q15 5 30 0l-164 -330h396l164 330q15 5 30 0l-164 -330h232v-16q-1 -3 -3 -7.5t-3 -7.5h-240l-280 -563h227q3 -16 -6 -31h-236l-153 -311q-18 -5 -31 0l153 311h-395l-153 -311q-18 -5 -31 0 l153 311h-239zM322 348h395l280 563h-395z" />
<glyph unicode="$" horiz-adv-x="1138" d="M23 70q6 19 18 28q18 -7 50.5 -17t128 -27t183.5 -17q210 0 346 82t169 235q33 160 -94 238q-65 39 -227 80q-164 41 -225 69q-139 63 -152 184q-5 45 7 101q32 151 157.5 240.5t322.5 99.5l47 242q8 4 20 4l23 -4l-60 -240q104 1 190.5 -9t120.5 -20l35 -10 q-3 -21 -16 -31q-131 39 -317 39q-210 0 -335 -84t-157 -227q-14 -66 -1.5 -117t46 -82t81.5 -55.5t105 -38.5t117 -31t116.5 -32t104 -41.5t80.5 -60.5t44.5 -89t-3.5 -127q-32 -152 -166 -245.5t-333 -102.5l-50 -252q-6 -4 -18 -4l-21 4l58 252q-111 -1 -210 15.5 t-142 33.5z" />
<glyph unicode="%" horiz-adv-x="1501" d="M211 -16l1106 1450q17 6 35 0l-1106 -1450q-18 -6 -35 0zM211 1061q74 354 330 354t180 -354t-332 -354q-124 0 -171 84.5t-7 269.5zM223 905.5q1 -62.5 24 -100.5t59 -54t89 -16q109 0 183 74.5t112 251.5q36 174 -6 249.5t-149 75.5q-108 0 -182.5 -75t-112.5 -250 q-18 -93 -17 -155.5zM813 334q74 354 328 354q255 0 182 -354q-76 -354 -332 -354q-124 0 -171 84.5t-7 269.5zM825 178.5q1 -62.5 24 -100.5t59 -54t89 -16q109 0 183 74.5t112 251.5q68 325 -157 325q-108 0 -182.5 -75t-110.5 -250q-18 -93 -17 -155.5z" />
<glyph unicode="&#x26;" horiz-adv-x="1273" d="M48 168q-15 65 3 156q12 61 40.5 115t63.5 94t85 77.5t96.5 63.5t107.5 55q-35 167 -2 318q37 173 139 269.5t250 96.5q123 0 177 -72.5t34 -169.5q-10 -48 -31.5 -90.5t-45.5 -74.5t-63.5 -64.5t-70 -53.5t-83.5 -48.5t-85 -42.5t-92.5 -42t-89.5 -40q72 -295 338 -516 q174 152 256 358q18 -3 27 -20q-93 -208 -260 -357q140 -107 245 -151q-3 -21 -18 -31q-123 52 -256 158q-219 -176 -463 -176q-75 0 -136 19.5t-106 61.5t-60 107zM82 322q-30 -145 47 -228.5t229 -83.5q227 0 433 164q-265 232 -340 526q-73 -35 -126 -67.5t-105.5 -77.5 t-87.5 -103.5t-50 -129.5zM475 743q28 13 86.5 39.5t89.5 40.5t81.5 40.5t79.5 46t66.5 50t59.5 59.5t41.5 67.5t28.5 80.5q22 97 -30.5 155t-162.5 58q-128 0 -218 -87t-122 -242q-33 -145 0 -308z" />
<glyph unicode="'" horiz-adv-x="378" d="M270 1085l78 385q5 5 17 5q5 0 9 -1.5t6 -2.5l1 -1l-86 -385q-16 -6 -25 0z" />
<glyph unicode="(" horiz-adv-x="563" d="M113.5 172.5q-7.5 97.5 1.5 224t37 258.5t72.5 258.5t93.5 223.5t101.5 184t99.5 147.5t85 105t60 66.5l22 21q18 -4 23 -16q-8 -7 -22.5 -21t-57.5 -63t-84 -104t-96 -143.5t-101.5 -182t-91 -219.5t-72.5 -257t-37.5 -256t-2 -221t22.5 -181t36 -144t39.5 -102.5 t31.5 -64.5l13 -20q-7 -12 -23 -16q-2 -1 -15.5 20.5t-33.5 65.5t-41 105t-37 147.5t-23.5 184z" />
<glyph unicode=")" horiz-adv-x="565" d="M-129 -334q8 7 22.5 21t57 63t84 103.5t96.5 143t101 182t90.5 219.5t72.5 257t37.5 256t2.5 221t-22.5 181.5t-36 144.5t-39 102.5t-31.5 63.5l-13 21q10 13 26 16q5 -8 13.5 -22t31.5 -64.5t41.5 -106.5t36.5 -146t24.5 -185.5t-2 -222.5t-36.5 -259t-72.5 -258.5 t-94 -224t-102.5 -184t-100.5 -147.5t-86 -105t-60.5 -65.5t-23 -20.5q-16 4 -18 16z" />
<glyph unicode="*" horiz-adv-x="755" d="M289 1274q5 17 14 26l176 -57l39 187q17 6 31 0l-39 -187l201 57q8 -11 4 -26l-205 -60l88 -167q-19 -14 -27 -17l-88 166l-155 -168q-16 6 -23 16l160 170z" />
<glyph unicode="+" horiz-adv-x="944" d="M133 580q-4 2 0 14l6 16h316l67 314q3 4 15 4q6 0 10 -1t5 -2l1 -1l-68 -314h314l1 -1q0 -1 1 -4.5t0 -10.5l-8 -14h-314l-67 -316q-3 -4 -17 -4q-5 0 -8.5 1t-4.5 2l-1 1l68 316h-316z" />
<glyph unicode="," horiz-adv-x="360" d="M-29 -131q7 7 18 19t32.5 45.5t27.5 62.5l-20 4l8 41q8 4 26 4l23 -4l-6 -35q-9 -40 -32.5 -77.5t-42.5 -54.5l-19 -17z" />
<glyph unicode="-" horiz-adv-x="710" d="M168 575q-3 16 6 31h352q3 -16 -6 -31h-352z" />
<glyph unicode="." horiz-adv-x="321" d="M12 2l8 41q15 8 31 8q8 0 14.5 -2t9.5 -4l3 -2l-8 -41q-13 -8 -31 -8q-7 0 -14 2t-10 4z" />
<glyph unicode="/" horiz-adv-x="841" d="M-92 -90l1034 1620q16 7 33 0l-1034 -1620q-20 -7 -33 0z" />
<glyph unicode="0" horiz-adv-x="1271" d="M178 696q80 372 234.5 544.5t388.5 172.5q117 0 195.5 -40.5t122 -127t44 -222.5t-38.5 -327q-80 -374 -235 -545t-391 -171q-234 0 -317 171.5t-3 544.5zM205 180q71 -170 295 -170q228 0 374 169.5t220 516.5q75 347 4.5 517.5t-297.5 170.5q-226 0 -372 -170.5 t-220 -517.5q-75 -346 -4 -516z" />
<glyph unicode="1" horiz-adv-x="776" d="M172 1049q136 34 269 123.5t233 216.5q2 4 14 4l12 -4l-294 -1385q-15 -9 -31 0l282 1325q-94 -114 -221.5 -194t-259.5 -115q-12 9 -4 29z" />
<glyph unicode="2" horiz-adv-x="1067" d="M10 0q3 65 17 137q13 60 34 111.5t43 89.5t57 73.5t61.5 58t72.5 49.5t73.5 41t80.5 40t79 39q185 94 244 133q150 96 203 220q17 39 26 83q9 42 10 78.5t-12 80.5t-43.5 75t-93.5 52t-153 21q-196 0 -369 -69q-7 7 -4 26q17 8 49 20.5t132 33t202 20.5q81 0 144 -19 t109 -61t60.5 -108t-2.5 -160q-10 -47 -28.5 -88t-38.5 -73t-56 -64.5t-66 -55.5t-86 -55.5t-96.5 -54t-115.5 -60.5q-27 -14 -78 -37t-84 -39.5t-79.5 -44t-79.5 -58.5t-67 -73.5t-58.5 -99t-39.5 -125.5q-14 -69 -14 -106h741q6 -16 -6 -31h-768z" />
<glyph unicode="3" horiz-adv-x="1038" d="M-8 43q5 18 16 27q137 -60 299 -60q204 0 327.5 85t158.5 249q10 59 11.5 106.5t-13 84.5t-33 65t-48.5 48.5t-60 33.5t-67 21t-70 11t-69 3h-75q0 18 8 31h76q56 0 103 5.5t107.5 25.5t105.5 54.5t84.5 98t57.5 149.5q31 139 -41 220t-252 81q-77 0 -156.5 -13 t-119.5 -27l-41 -13q-12 4 -8 25q17 7 47.5 16.5t118.5 26t170 16.5q190 0 267.5 -94t47.5 -236t-118 -233.5t-257 -120.5q106 -15 172 -69.5t83 -133.5t-1 -178q-38 -180 -170 -274t-350 -94q-86 0 -163.5 15.5t-112.5 31.5z" />
<glyph unicode="4" horiz-adv-x="1155" d="M37 389q-2 2 0 14q1 6 3 10.5t4 5.5l1 1l918 969q4 4 18 4l12 -4l-205 -969h232q2 -3 0 -17q-1 -5 -3 -8.5t-3 -4.5l-2 -1h-232l-82 -385q-4 -4 -16 -4q-6 0 -9.5 1t-4.5 2v1l82 385h-713zM84 420h674l194 915z" />
<glyph unicode="5" horiz-adv-x="1056" d="M6 27q0 14 12 26q13 -5 37 -12.5t96 -20t140 -12.5q237 0 369.5 87.5t170.5 269.5q11 52 12.5 95.5t-7.5 87t-34.5 76t-66.5 58.5t-107 39.5t-153 13.5q-52 0 -111.5 -6t-93 -11.5t-43.5 -8.5l144 684h649q3 -18 -6 -31h-619l-131 -617q113 21 217 21q234 0 328 -104 t53 -297q-41 -190 -179 -287.5t-390 -97.5q-90 0 -162 12t-99 24z" />
<glyph unicode="6" horiz-adv-x="1126" d="M115 279q-9 103 20 247q44 209 131 372t204.5 266.5t254.5 160.5t293 68q3 -15 -4 -29q-585 -55 -801 -657q109 75 210.5 110t213.5 35q200 0 281.5 -110.5t35.5 -325.5q-43 -205 -183.5 -320.5t-326.5 -115.5q-92 0 -161 31.5t-114 98t-54 169.5zM166 518 q-53 -251 25 -379.5t253 -128.5q174 0 306.5 106.5t173.5 299.5q43 200 -30 302.5t-257 102.5q-221 0 -436 -151q-15 -51 -35 -152z" />
<glyph unicode="7" horiz-adv-x="999" d="M201 4q32 150 89.5 281t124.5 225.5t142.5 179.5t148.5 160.5t136 150.5t112 167t70 194h-795q-2 4 0 14l7 17h821q3 -11 0 -21q-22 -108 -71.5 -204.5t-112.5 -173t-136.5 -152t-148.5 -159t-142.5 -177t-125 -223t-89.5 -279.5q-7 -5 -14.5 -5t-11.5 3z" />
<glyph unicode="8" horiz-adv-x="1187" d="M86 315q16 73 55.5 142t83.5 117t100 92t93 66.5t74 41.5q-42 22 -73 44t-60.5 52t-43.5 62.5t-21.5 76.5t5.5 93q32 147 153 229t306 82q176 0 265 -89t60 -232q-17 -79 -59.5 -148t-98.5 -117.5t-99.5 -77t-88.5 -51.5q36 -16 64.5 -31.5t58.5 -36.5t50 -43t39 -50.5 t25.5 -60t9.5 -71t-9 -83.5q-34 -161 -170.5 -251.5t-345.5 -90.5t-308 88.5t-65 246.5zM117 317q-31 -145 59 -226t285 -81q196 0 324 82.5t159 229.5q18 83 1.5 145t-78.5 110.5t-106 72t-145 67.5q-64 28 -96 43q-36 -15 -87.5 -48.5t-119 -89t-123 -137t-73.5 -168.5z M332 1104q-16 -77 0.5 -134.5t75.5 -102.5t101 -66.5t135 -60.5l63 -27q47 21 95 52t101 78t93.5 113t56.5 140q27 131 -54 209.5t-249 78.5q-169 0 -279.5 -74.5t-138.5 -205.5z" />
<glyph unicode="9" horiz-adv-x="1128" d="M119 0q-3 17 6 29q289 27 500.5 190t318.5 467q-207 -145 -428 -145q-190 0 -273 115t-40 321q43 204 184.5 320t327.5 116q187 0 277 -137t32 -410q-36 -168 -102 -307t-152 -237.5t-192 -168.5t-220 -107t-239 -46zM233 977q-40 -193 32.5 -300.5t250.5 -107.5 q221 0 440 154q5 14 37 151q53 251 -26.5 379.5t-255.5 128.5q-174 0 -305.5 -106t-172.5 -299z" />
<glyph unicode=":" horiz-adv-x="421" d="M51 2l8 41q15 8 31 8q8 0 15 -2t9 -4l3 -2l-8 -41q-13 -8 -31 -8q-7 0 -14 2t-10 4zM225 815l8 41q15 8 31 8q8 0 14.5 -2t9.5 -4l3 -2l-8 -41q-13 -8 -31 -8q-7 0 -14 2t-10 4z" />
<glyph unicode=";" horiz-adv-x="444" d="M14 -131q7 7 18 19t32.5 45.5t27.5 62.5l-20 4l8 41q8 4 26 4l23 -4l-6 -35q-9 -40 -32.5 -77.5t-42.5 -54.5l-19 -17zM242 815l8 41q15 8 31 8q8 0 14.5 -2t8.5 -4l3 -2l-8 -41q-13 -8 -31 -8q-7 0 -13.5 2t-9.5 4z" />
<glyph unicode="&#x3c;" horiz-adv-x="976" d="M119 571q-2 11 2 23l8 22l723 316q2 -5 0 -17l-8 -18l-694 -303l565 -303q2 -9 0 -19l-6 -16z" />
<glyph unicode="=" horiz-adv-x="1044" d="M145 410q0 15 9 30h655q3 -16 -8 -30h-656zM217 741q-3 16 6 31h656q3 -14 -7 -31h-655z" />
<glyph unicode="&#x3e;" horiz-adv-x="970" d="M104 263q-1 4 0 9l9 19l696 303l-567 303q-2 6 0 18q1 5 3 9.5t3 5.5l2 2l588 -316q2 -12 0 -22l-11 -23l-721 -315v2q-1 1 -2 5z" />
<glyph unicode="?" horiz-adv-x="862" d="M168 2l8 41q15 8 31 8q8 0 14.5 -2t8.5 -4l3 -2l-8 -41q-12 -8 -30 -8q-7 0 -14 2t-10 4zM239.5 1341q-0.5 11 2.5 15q15 6 42.5 15.5t110.5 25.5t164 16q65 0 116 -13t84 -36t54.5 -52t30 -65t8.5 -71.5t-8 -73.5q-18 -83 -54 -149.5t-81 -111t-96 -84.5t-102.5 -82.5 t-97.5 -91.5t-83.5 -124t-57.5 -170q-6 -4 -16 -4l-14 4q21 98 59.5 176.5t84.5 129.5t97.5 94.5t103 83t96 83t80 106.5t52.5 142q7 42 7.5 81.5t-17 75.5t-46.5 62.5t-82 42.5t-124 16q-81 0 -157.5 -14t-113.5 -28l-36 -13q-6 3 -6.5 14z" />
<glyph unicode="@" horiz-adv-x="1875" d="M137 571q52 245 193 433t340 288.5t424 100.5q249 0 407 -100.5t209.5 -273.5t3.5 -398q-46 -220 -149 -333.5t-258 -113.5q-72 0 -120 50t-38 155q-45 -91 -126 -148t-181 -57q-163 0 -225 100t-21 295t146.5 296.5t267.5 101.5q94 0 150 -51t69 -125l37 170q7 4 14.5 4 t11.5 -2l4 -2l-108 -510q-28 -127 8.5 -186.5t120.5 -59.5q137 0 230 106t136 310q73 338 -86 539.5t-510 201.5q-212 0 -402 -95.5t-328 -277t-189 -418.5q-77 -366 72 -571t493 -205q347 0 627 187q14 -6 14 -23q-298 -195 -647 -195q-358 0 -513.5 213t-76.5 594z M627 569q-77 -364 217 -364q116 0 203 79.5t112 182.5l43 197q16 68 0 129t-69 102t-134 41q-146 0 -240 -92.5t-132 -274.5z" />
<glyph unicode="A" horiz-adv-x="1292" d="M-88 2l911 1479q2 2 4 2l4 -2l283 -1479q-6 -4 -16 -4l-15 4l-90 465h-760l-284 -465q-11 -4 -20 -4t-17 4zM254 498h733l-172 913z" />
<glyph unicode="B" horiz-adv-x="1284" d="M100 0l314 1475h454q196 0 276 -97q55 -66 54 -172q0 -50 -12 -110q-63 -300 -344 -353q25 -1 49.5 -6.5t54 -17t53 -30t46 -46t33 -65t13.5 -87.5q0 -8 1 -17q0 -43 -13 -95q-40 -195 -165 -287t-351 -92h-463zM137 31h441q214 0 324.5 89t146.5 259q12 56 12 103 q0 100 -54 160q-79 88 -282 87h-438zM293 758h424q180 0 290.5 86.5t147.5 255.5q12 56 12 104q0 96 -49 154q-73 86 -264 86h-416z" />
<glyph unicode="C" horiz-adv-x="1130" d="M184 735q85 394 249.5 577t432.5 183q99 0 180.5 -16.5t113.5 -32.5l32 -16q-3 -16 -18 -25q-12 7 -35.5 16.5t-104 26t-168.5 16.5q-255 0 -413.5 -177t-237.5 -552q-41 -190 -42 -329q0 -134 39 -220q78 -176 331 -176q147 0 220 15.5t144 50.5q17 -7 13 -29 q-53 -24 -83.5 -35t-107 -21.5t-188.5 -10.5q-268 0 -354 183q-44 93 -44 240q0 141 41 332z" />
<glyph unicode="D" horiz-adv-x="1345" d="M100 0l314 1475h368q312 0 412 -176q54 -95 53 -251q0 -133 -39 -311q-86 -395 -257.5 -566t-481.5 -171h-369zM137 31h332q299 0 464.5 164t244.5 542q39 182 39 314q1 145 -47 231q-92 164 -400 164h-332z" />
<glyph unicode="E" d="M100 0l314 1475h776q1 -4 1 -8q0 -12 -7 -23h-746l-145 -680h643q3 -16 -6 -31h-643l-150 -702h766q3 -16 -6 -31h-797z" />
<glyph unicode="F" horiz-adv-x="1103" d="M100 4l314 1471h780q1 -4 1 -8q0 -12 -7 -23h-750l-147 -696h647q0 -18 -8 -31h-647l-152 -713q-2 -4 -14 -4z" />
<glyph unicode="G" horiz-adv-x="1263" d="M186 737q62 285 149.5 448.5t219.5 236.5t334 73q64 0 123.5 -6.5t99.5 -15.5t71 -18.5t45 -16.5l15 -6q-6 -18 -18 -27q-16 7 -45 16.5t-117 26t-174 16.5q-146 0 -250.5 -37t-185 -124.5t-136 -223.5t-100.5 -342q-36 -168 -36 -297q0 -430 397 -430q196 0 366 53 l141 660h-428l7 29h456l-151 -709q-18 -7 -52 -17.5t-139 -28t-211 -17.5q-265 0 -363 196q-54 107 -54 266q0 131 36 295z" />
<glyph unicode="H" horiz-adv-x="1384" d="M100 4l314 1466q6 5 16 5l14 -5l-149 -698h856l149 698q7 5 15 5l16 -5l-313 -1466q-5 -4 -17 -4q-5 0 -8.5 1t-4.5 2l-1 1l158 737h-856l-158 -737q-4 -4 -14 -4z" />
<glyph unicode="I" horiz-adv-x="497" d="M100 4l314 1466q4 5 16 5l14 -5l-311 -1466q-4 -4 -16 -4z" />
<glyph unicode="J" horiz-adv-x="851" d="M-55 41q3 22 20 29q11 -7 31.5 -17t86.5 -26.5t134 -16.5q129 0 202.5 66.5t106.5 220.5l250 1173q7 5 15 5l16 -5l-250 -1175q-36 -168 -115 -241.5t-237 -73.5q-65 0 -130 15t-97 31z" />
<glyph unicode="K" horiz-adv-x="1236" d="M100 4l314 1466q6 5 14 5l16 -5l-147 -690h336l631 690q10 5 20 5t14 -3l5 -2l-648 -708l392 -758l-7 -2q-6 -2 -12 -2l-18 4l-381 746h-338l-160 -746q-6 -4 -14 -4z" />
<glyph unicode="L" horiz-adv-x="1011" d="M100 0l314 1470q6 5 16 5l14 -5l-307 -1439h697q1 -5 1 -10q-1 -3 -1 -6q-2 -7 -4 -11l-3 -4h-727z" />
<glyph unicode="M" horiz-adv-x="1769" d="M100 4l314 1466q11 5 22.5 5t22.5 -5l389 -1005l823 1005q12 5 23 5t22 -5l-313 -1466q-5 -4 -17 -4q-5 0 -8.5 1t-4.5 2l-1 1l285 1325l26 115l-815 -1000q-26 -10 -45 0l-385 1000l-24 -115l-283 -1325q-2 -4 -14 -4z" />
<glyph unicode="N" horiz-adv-x="1417" d="M100 4l314 1466q6 5 16 5q4 0 7.5 -1.5t4.5 -2.5l2 -1l525 -1261l63 -166q14 90 43 225l256 1202q5 5 19 5l14 -5l-313 -1466q-7 -4 -15 -4l-16 4l-588 1419l-49 -237l-250 -1182q-10 -4 -18 -4z" />
<glyph unicode="O" horiz-adv-x="1382" d="M182 737q164 758 695 758q259 1 355 -193q52 -105 52 -263q0 -132 -37 -302q-83 -387 -259 -572t-433 -185q-261 0 -357 192q-52 105 -52 265q0 132 36 300zM213 737q-35 -169 -36 -299q0 -428 384 -428q239 0 408 176.5t248 550.5q37 172 37 303q0 424 -384 424 q-240 0 -408 -176.5t-249 -550.5z" />
<glyph unicode="P" horiz-adv-x="1224" d="M100 4l314 1471h493q178 1 254 -109q49 -71 49 -179q0 -58 -14 -126q-41 -194 -164 -303t-301 -109h-463l-137 -645q-4 -4 -16 -4zM276 680h465q161 0 273.5 100.5t150.5 278.5q14 68 14 125q0 96 -41 160q-66 102 -233 102h-465z" />
<glyph unicode="Q" horiz-adv-x="1382" d="M182 737q164 758 695 758q258 0 355 -193q52 -106 52 -263q0 -133 -37 -302q-102 -479 -356 -657q39 -59 100.5 -98.5t120.5 -55.5q-3 -18 -16 -28q-60 11 -128 57.5t-104 105.5q-135 -81 -309 -81q-261 0 -357 192q-52 106 -52 265q0 132 36 300zM213 737 q-35 -169 -35 -299q0 -428 383 -428q239 0 408 176.5t248 550.5q37 172 37 303q0 424 -384 424q-240 0 -408 -176.5t-249 -550.5z" />
<glyph unicode="R" horiz-adv-x="1257" d="M100 4l314 1471h481q178 1 256 -107q52 -72 52 -176q0 -52 -13 -113q-34 -161 -135.5 -264t-259.5 -127l206 -684q-10 -4 -18 -4l-16 4l-203 680h-488l-145 -680q-4 -4 -16 -4zM283 715h454q157 0 271.5 97.5t150.5 266.5q13 59 13 109q0 95 -46 159q-70 97 -233 97h-455 z" />
<glyph unicode="S" horiz-adv-x="1140" d="M25 53q4 15 18 29q17 -8 47.5 -20t124 -32t186.5 -20q213 0 349.5 92t173.5 263q9 42 9 78t-5.5 64.5t-21 53.5t-31.5 43t-43.5 35t-50 28.5t-58 23.5t-61.5 19.5t-66 18.5q-41 11 -69 19t-64.5 21t-61.5 25.5t-53 30.5t-45 38t-33 47q-16 28 -22 58q-6 28 -6 63v5 q0 38 10 84q37 176 176.5 276.5t353.5 100.5q96 0 183 -12.5t126 -24.5l39 -12q-3 -19 -16 -29q-17 5 -47.5 13t-118.5 21t-170 13q-202 0 -330.5 -95t-164.5 -255q-10 -46 -11 -84q0 -4 -1 -7q-1 -34 9 -61q10 -30 23.5 -54t39.5 -44t50.5 -34.5t63.5 -28.5t70 -23.5 t79 -21.5q37 -10 65.5 -18t63.5 -21t61 -26t54 -32t47 -39.5t35.5 -48.5t23.5 -59.5t7 -71t-9 -84.5q-38 -180 -181 -279t-367 -99q-67 0 -131 7.5t-107.5 18t-77 21.5t-49.5 19z" />
<glyph unicode="T" horiz-adv-x="1069" d="M246 1444q-2 3 -2 7t2 9l6 15h924v-1q1 0 2 -4v-4v-6l-9 -16h-440l-307 -1440q-4 -4 -16 -4l-15 4l307 1440h-452z" />
<glyph unicode="U" horiz-adv-x="1361" d="M182 442l219 1028q7 5 17 5l14 -5l-219 -1030q-14 -68 -14 -125q-1 -115 57 -191q86 -112 291 -114h7q198 0 336 113q140 115 183 317l219 1030q7 5 13 5l18 -5l-219 -1028q-46 -219 -192 -340.5t-369 -121.5q-217 0 -312 122q-64 82 -64 208q0 61 15 132z" />
<glyph unicode="V" horiz-adv-x="1214" d="M238 1473q4 2 16 2l16 -5l215 -1398h2l811 1398q9 5 23 5l14 -5l-860 -1478q-2 -2 -3 -2l-3 2z" />
<glyph unicode="W" horiz-adv-x="1912" d="M246 1470q4 5 16 5l17 -5l118 -1247q4 -47 6.5 -86.5t2.5 -54.5v-16h2q24 51 79 157l652 1247q2 5 6 5l6 -5l119 -1247q4 -46 6 -86.5t2 -58.5v-17h2q23 60 74 162l624 1247q1 5 21 5l14 -5l-745 -1478q-2 -2 -3 -2l-3 2l-117 1263l-12 148h-3q-38 -85 -71 -146 l-664 -1265q-2 -2 -3 -2l-3 2z" />
<glyph unicode="X" horiz-adv-x="1159" d="M-47 4l633 739l-320 727q5 5 19 5l14 -5l309 -702l600 702q12 5 21.5 5t17.5 -5l-626 -731l323 -737q-6 -2 -18 -2l-15 4l-311 709l-608 -709q-6 -4 -25 -4q-6 0 -14 4z" />
<glyph unicode="Y" horiz-adv-x="1230" d="M238 1470q6 5 20 5l14 -5l344 -811l711 811q5 5 21 5l18 -5l-737 -843l-133 -623q-7 -4 -17 -4l-14 4l133 621z" />
<glyph unicode="Z" horiz-adv-x="1150" d="M-45 0q-1 4 -1 8q0 13 7 25l1208 1411h-852q-6 15 7 31h886q1 -4 1 -8q0 -13 -7 -25l-1208 -1411h934q4 -7 3 -14t-5 -12l-4 -5h-969z" />
<glyph unicode="[" horiz-adv-x="612" d="M20 -348l426 2007h308q3 -16 -6 -31h-277l-414 -1945h277q3 -16 -6 -31h-308z" />
<glyph unicode="\" horiz-adv-x="839" d="M250 1530q16 7 33 0l346 -1620q-20 -7 -33 0z" />
<glyph unicode="]" horiz-adv-x="610" d="M-129 -348q-3 16 6 31h277l413 1945h-276q-3 16 6 31h307l-426 -2007h-307z" />
<glyph unicode="^" horiz-adv-x="1046" d="M207 930l481 540q3 5 21 5q6 0 10 -0.5t6.5 -1.5t3.5 -1.5t1 -1.5h1l246 -540q-19 -8 -39 0l-236 516l-456 -516q-20 -10 -39 0z" />
<glyph unicode="_" horiz-adv-x="1005" d="M-35 -72q-3 16 6 31h803q3 -16 -6 -31h-803z" />
<glyph unicode="`" horiz-adv-x="487" d="M147 1630q11 14 27 19l188 -312q-8 -11 -24 -14z" />
<glyph unicode="a" d="M123 539q58 275 188 417t324 142q127 0 208.5 -67t104.5 -197l53 243q5 4 15 4l16 -4l-229 -1073q-5 -4 -17 -4q-5 0 -8.5 1t-4.5 2l-1 1l53 248q-70 -125 -175 -198.5t-238 -73.5q-200 0 -274 142q-41 79 -41 200q0 96 26 217zM154 539q-26 -122 -26 -216 q0 -313 288 -313q85 0 163.5 37t133.5 96.5t93 128.5t52 138l62 288q7 37 7 73q0 51 -14 99q-24 82 -97 139.5t-183 57.5q-180 0 -302 -133.5t-177 -394.5z" />
<glyph unicode="b" d="M66 4l325 1528q5 4 17 4l14 -4l-148 -696q77 124 192 193t234 69q194 0 264 -142q38 -77 38 -194q0 -98 -27 -223q-59 -275 -192 -417t-334 -142q-124 0 -202.5 75.5t-96.5 196.5l-54 -248q-2 -4 -14 -4zM174 300q2 -56 22.5 -108t52.5 -92.5t84 -65t116 -24.5 q188 0 314 134t181 395q27 125 27 221q0 307 -275 307q-101 0 -199 -56t-163.5 -139.5t-87.5 -171.5l-64 -290q-8 -46 -8 -94v-16z" />
<glyph unicode="c" horiz-adv-x="905" d="M125 543q58 274 193.5 414.5t340.5 140.5q64 0 118.5 -11t76.5 -23l23 -11q-3 -20 -21 -27q-8 5 -22.5 11.5t-65 18t-106.5 11.5q-194 0 -322.5 -133.5t-183.5 -394.5q-25 -118 -25 -209q0 -320 305 -320q61 0 121 14t89 28l30 14q12 -6 12 -27q-12 -7 -34 -16.5t-90 -26 t-136 -16.5q-206 0 -284 144q-44 82 -45 206q0 94 26 213z" />
<glyph unicode="d" horiz-adv-x="1134" d="M123 539q58 275 188 417t324 142q120 0 205 -71t108 -200l150 705q4 4 14 4l16 -4l-325 -1528q-5 -4 -17 -4q-5 0 -8.5 1t-4.5 2l-1 1l53 248q-70 -125 -175 -198.5t-238 -73.5q-200 0 -274 142q-41 79 -41 198q0 97 26 219zM154 539q-26 -122 -26 -216q0 -313 286 -313 q85 0 163.5 37t134.5 96.5t94 128.5t52 138l62 288q6 32 6 63q0 34 -7 68q-13 65 -48 118.5t-97.5 86.5t-142.5 33q-180 0 -301 -133.5t-176 -394.5z" />
<glyph unicode="e" horiz-adv-x="1034" d="M125 545q61 279 200.5 416t327.5 137q167 0 241 -97q50 -66 50 -166q0 -48 -12 -104t-28.5 -106t-27.5 -73l-10 -22h-712q-22 -122 -22 -214q0 -113 34 -182q62 -124 252 -124q50 0 99.5 9.5t85 22.5t64 26t42.5 22l14 10q18 -4 14 -22q-5 -4 -14.5 -10.5t-42 -23.5 t-68.5 -30t-92 -23.5t-114 -10.5q-308 0 -308 336q0 99 27 229zM160 559h688l17 43q21 62 36 135q12 53 12 98q-1 88 -45 145q-66 87 -219 87q-175 0 -302.5 -127.5t-186.5 -380.5z" />
<glyph unicode="f" horiz-adv-x="686" d="M100 4l224 1043h-162q-2 8 -1 15t4 11l3 4h162l26 131q38 175 121 251.5t236 76.5q40 0 81.5 -5t63.5 -10l21 -5q0 -17 -13 -27q-65 16 -151 16q-148 0 -220.5 -67.5t-105.5 -227.5l-29 -133h357q1 -5 -0.5 -12.5t-3.5 -12.5l-2 -5h-357l-223 -1043q-8 -4 -15.5 -4 t-11.5 2z" />
<glyph unicode="g" horiz-adv-x="1134" d="M2 -469q0 17 16 27q123 -41 254 -41q122 0 202.5 24.5t141 89t99 163.5t71.5 259l45 205q-73 -130 -192 -204t-240 -74q-193 0 -263 142q-38 77 -38 193q0 98 27 224q117 559 526 559q118 0 199.5 -78.5t95.5 -206.5l55 260q5 4 17 4q5 0 8.5 -1t4.5 -2l1 -1l-217 -1020 q-48 -228 -112.5 -348t-165 -168.5t-271.5 -48.5q-65 0 -131 11t-99 21zM156 539q-27 -126 -27 -223q0 -306 274 -306q76 0 153 33t136 85.5t102.5 118t59.5 130.5l61 291q8 49 8 98v12q-1 55 -22 107t-53 92.5t-84.5 65t-116.5 24.5q-189 0 -311 -129.5t-180 -398.5z" />
<glyph unicode="h" horiz-adv-x="1130" d="M66 4l325 1528q9 6 16 6t13 -6l-150 -707q181 273 461 273q143 0 209 -86q45 -59 45 -142q0 -39 -10 -84l-168 -782q-8 -6 -15 -6t-14 6l166 780q9 43 9 81q0 77 -39 128q-58 76 -189 76q-286 0 -469 -307l-162 -758q-7 -6 -14 -6z" />
<glyph unicode="i" horiz-adv-x="442" d="M76 4l227 1069q4 4 16 4q5 0 8.5 -1t4.5 -2v-1l-228 -1069q-2 -4 -14 -4q-5 0 -8.5 1t-4.5 2zM354 1380l8 41q15 9 31 9q8 0 14.5 -2t9.5 -4l3 -3l-8 -41q-13 -8 -31 -8q-7 0 -14 2t-10 4z" />
<glyph unicode="j" horiz-adv-x="444" d="M-385 -481q3 14 16 24q43 -28 121 -28q114 0 182.5 71t100.5 226l268 1261q18 11 29 0l-266 -1259q-37 -171 -117.5 -249.5t-202.5 -78.5q-78 0 -131 33zM354 1386l8 41q15 9 31 9q8 0 14.5 -2t9.5 -4l3 -3l-8 -41q-13 -8 -31 -8q-7 0 -14 2t-10 4z" />
<glyph unicode="k" horiz-adv-x="1005" d="M66 2l325 1532q9 4 16 4t13 -4l-203 -956h287l461 497q18 6 36 0l-475 -514l297 -555q-4 -6 -18 -6q-6 0 -9.5 1.5t-3.5 2.5l-1 2l-291 543h-289l-117 -547q-7 -4 -14 -4z" />
<glyph unicode="l" horiz-adv-x="448" d="M78 4l325 1528q3 4 15 4q5 0 8.5 -1t4.5 -2l1 -1l-326 -1528q-2 -4 -14 -4q-5 0 -8.5 1t-4.5 2z" />
<glyph unicode="m" horiz-adv-x="1740" d="M68 4l227 1069q18 11 29 0l-52 -246q94 140 199.5 205.5t235.5 65.5q125 0 184 -74q44 -55 44 -141q0 -29 -5 -62q173 277 438 277q132 0 190 -80q39 -53 38 -134q0 -40 -9 -87l-170 -793q-7 -6 -14 -6l-14 6l167 791q10 47 10 86q0 70 -32 116q-50 72 -170 72 q-265 0 -449 -313l-159 -752q-7 -6 -14.5 -6t-14.5 6l168 791q10 47 10 86q0 70 -32 116q-50 72 -171 72q-261 0 -444 -307l-162 -758q-7 -6 -14 -6z" />
<glyph unicode="n" horiz-adv-x="1132" d="M68 4l227 1069q18 11 29 0l-52 -248q188 273 461 273q143 0 209 -81q46 -56 46 -141q0 -37 -9 -79l-170 -793q-8 -6 -15 -6t-14 6l168 791q10 43 10 80q0 75 -40 123q-58 72 -191 71q-279 0 -469 -307l-162 -758q-7 -6 -14 -6z" />
<glyph unicode="o" horiz-adv-x="1097" d="M125 539q62 295 193 427t331 132q201 0 275 -132q41 -72 40 -193q0 -100 -28 -234q-62 -295 -193 -427t-331 -132t-274 132q-41 72 -41 193q0 100 28 234zM126 330v-21q0 -75 16 -129q18 -60 56.5 -99t91.5 -56t124 -17q183 0 307.5 123t185.5 408q25 118 27 208 q0 11 1 22q0 76 -16 129q-18 61 -56 99.5t-91 55t-125 16.5q-89 0 -162.5 -27.5t-138 -87.5t-113 -164.5t-79.5 -250.5q-26 -119 -28 -209z" />
<glyph unicode="p" d="M-43 -510l336 1583q6 4 18 4q5 0 8.5 -1t4.5 -2v-1l-52 -248q68 121 179 197t235 76q203 0 276 -138q40 -76 40 -195q0 -98 -27 -226q-119 -559 -512 -559q-119 0 -204.5 69t-111.5 193l-159 -752q-5 -4 -15 -4zM176 377q-6 -32 -6 -63q0 -55 18 -108q29 -84 101.5 -140 t173.5 -56q368 0 481 529q27 128 27 224q0 108 -34 175q-64 129 -255 129q-79 0 -156.5 -37t-134.5 -96t-97.5 -128.5t-55.5 -137.5z" />
<glyph unicode="q" horiz-adv-x="1134" d="M125 539q117 559 526 559q124 0 203.5 -82.5t91.5 -210.5l55 268q5 4 17 4q5 0 8.5 -1t4.5 -2l1 -1l-336 -1583q-4 -4 -16 -4l-14 4l159 752q-77 -124 -192 -193t-234 -69q-302 0 -302 329q0 100 28 230zM156 539q-28 -129 -28 -226q0 -104 32 -172q61 -131 241 -131 q76 0 153 33t137 85.5t103.5 118t59.5 130.5l61 291q8 49 8 98v12q-1 55 -22 107t-53 92.5t-84.5 65t-116.5 24.5q-190 0 -312.5 -129.5t-178.5 -398.5z" />
<glyph unicode="r" horiz-adv-x="788" d="M66 2l229 1073q15 7 29 0l-54 -246q50 80 102 135t102.5 82.5t93.5 38.5t91 11q103 0 158 -43q-7 -20 -22 -25q-58 39 -152 39q-209 0 -389 -311l-160 -754q-7 -4 -14 -4z" />
<glyph unicode="s" horiz-adv-x="907" d="M12 41q0 5 6.5 14.5t12.5 12.5q111 -60 272 -60q148 0 248.5 63t128.5 193q8 36 8 66q0 25 -6 45q-12 46 -59 77t-77 43.5t-105 34.5q-3 1 -5 2t-5 1.5t-5 1.5q-160 47 -216 113q-40 46 -39 113q0 28 7 60q62 277 406 277q62 0 121.5 -11t88.5 -21l29 -11q1 -2 1 -3 q0 -5 -4 -12q-6 -9 -13 -12q-98 41 -227 41q-158 0 -251 -60.5t-122 -191.5q-6 -28 -6 -53q0 -59 35 -100q50 -58 202 -103q34 -10 53 -16t49.5 -17t48 -20.5t41.5 -24t37 -29t26.5 -35.5t18 -44t4.5 -52.5t-7 -62.5q-28 -134 -132.5 -207t-275.5 -73q-83 0 -155 15t-103 31 z" />
<glyph unicode="t" horiz-adv-x="675" d="M149 146q-1 12 -1 25q0 73 20 171l151 707h-165l-2 14q2 6 4 9.5t3 3.5l1 1h166l45 215q10 13 30 13l-47 -228h348q1 -2 1 -5.5t-1 -8.5l-6 -14h-348l-151 -707q-19 -94 -19 -162v-21q4 -74 50 -112.5t141 -38.5q35 0 68 3t49 6l16 3q3 -10 0 -24q-59 -16 -140 -16 q-105 0 -157 43t-56 123z" />
<glyph unicode="u" horiz-adv-x="1128" d="M119 293l166 780q8 6 15.5 5.5t12.5 -5.5l-163 -778q-10 -44 -9 -82q0 -75 38 -127q58 -78 190 -78q279 0 469 307l159 758q9 6 16 5.5t13 -5.5l-227 -1069q-15 -11 -29 0l53 248q-188 -272 -461 -272q-141 0 -207 86q-45 59 -45 144q0 39 9 83z" />
<glyph unicode="v" horiz-adv-x="1003" d="M166 1073q6 4 18 4l11 -4l155 -827l33 -189l106 183l504 833q11 4 21 4l12 -4l-655 -1081h-2z" />
<glyph unicode="w" horiz-adv-x="1601" d="M172 1073q6 4 18 4l11 -4l110 -862l13 -148l79 148l486 862h10l121 -862l16 -148l76 148l475 862q11 4 19 4q5 0 8.5 -1t4.5 -2l1 -1l-596 -1079h-2l-141 1010l-570 -1010h-2z" />
<glyph unicode="x" horiz-adv-x="970" d="M-53 4l502 539l-271 530q9 4 17 4t12 -2l4 -2l260 -508l473 508q12 5 21.5 5t17.5 -5l-498 -534l275 -535q-8 -5 -16.5 -5t-18.5 5l-262 512l-475 -512q-11 -4 -21.5 -4t-14.5 2z" />
<glyph unicode="y" horiz-adv-x="1128" d="M-4 -469q0 17 16 27q123 -41 254 -41q122 0 202.5 24.5t141 89t99 163.5t71.5 259l43 199q-188 -272 -461 -272q-141 0 -207 86q-45 59 -45 144q0 39 9 83l166 780q9 5 16 5t12 -5l-163 -778q-10 -44 -10 -82q0 -77 40 -129q58 -78 189 -78q126 0 247 73t222 236l159 758 q9 5 16 5t13 -5l-217 -1020q-28 -134 -61 -226.5t-76 -160t-102.5 -105.5t-133.5 -55.5t-176 -17.5q-65 0 -131 11t-99 21z" />
<glyph unicode="z" horiz-adv-x="894" d="M-43 0q-1 4 -1 8q0 12 7 23l875 1018h-607q-2 12 7 28h641q1 -3 1 -7q0 -11 -8 -23l-874 -1018h668q3 -13 -7 -29h-702z" />
<glyph unicode="{" horiz-adv-x="669" d="M102 670q0 15 9 30h75q87 0 115 142l117 544q27 127 112 200t218 73h65q3 -16 -6 -31h-64q-124 0 -197.5 -64.5t-99.5 -181.5l-110 -528q-15 -71 -37 -111.5t-63 -58.5q33 -19 37.5 -62t-9.5 -106l-112 -528q-53 -246 190 -246h64q3 -14 -7 -31h-65q-133 0 -187.5 73.5 t-27.5 199.5l114 540q31 146 -55 146h-76z" />
<glyph unicode="|" horiz-adv-x="483" d="M10 -399l426 2013q19 6 31 0l-426 -2013q-4 -4 -16 -4z" />
<glyph unicode="}" horiz-adv-x="671" d="M-115 -289q-3 16 6 31h64q124 0 197.5 64t99.5 182l113 528q13 69 34.5 109t63.5 59q-33 18 -38 62.5t11 107.5l111 528q26 116 -20.5 181t-170.5 65h-63q-3 16 6 31h66q133 0 187.5 -73.5t27.5 -199.5l-117 -544q-28 -142 57 -142h76q3 -16 -8 -30h-76q-86 0 -117 -146 l-114 -540q-27 -127 -112 -200t-218 -73h-66z" />
<glyph unicode="~" horiz-adv-x="1097" d="M186 618q4 4 11 10.5t29.5 24t46.5 30.5t59.5 23.5t70.5 10.5q37 0 69.5 -13t56.5 -31.5t47.5 -36.5t55 -31t66.5 -13q33 0 65 8.5t54.5 20.5t40.5 24t26 21l9 8q17 0 20 -15l-10.5 -10.5t-29.5 -23.5t-47.5 -30t-61.5 -23.5t-74 -10.5t-69.5 13t-56.5 31.5t-47.5 36.5 t-55 31t-66.5 13q-47 0 -94.5 -21.5t-71.5 -42.5l-24 -22q-19 0 -19 18z" />
<glyph unicode="&#xa1;" horiz-adv-x="442" d="M-12 -406l252 1182q13 6 26 0l-248 -1182q-18 -6 -30 0zM276 1024l9 41q14 8 30 8q8 0 15 -2t10 -4l2 -2l-8 -41q-13 -8 -31 -8q-7 0 -14 2t-10 4z" />
<glyph unicode="&#xa2;" horiz-adv-x="935" d="M133 539q55 264 184.5 406t323.5 153l35 186q16 4 22 4q7 0 17 -4l-43 -186q64 -2 117 -13t75 -21l21 -11q-3 -20 -21 -29q-8 5 -23 11.5t-66 18t-107 11.5q-193 0 -320.5 -133t-183.5 -393q-53 -252 14 -388.5t256 -136.5q61 0 123.5 13.5t94.5 26.5l32 14q12 -5 12 -29 q-12 -6 -34 -15.5t-91 -26t-137 -17.5l-37 -187q-11 -6 -20 -6q-10 0 -19 6l45 187q-183 3 -254 150.5t-16 408.5z" />
<glyph unicode="&#xa3;" horiz-adv-x="1028" d="M29 0l6 33q88 64 149 133t91.5 129t43.5 131.5t12.5 126.5t-9.5 127h-168q-3 16 6 31h157q-14 91 -18.5 130t-5 103t11.5 119q39 178 163 265t312 87q68 0 136.5 -11.5t98 -20.5t44.5 -15q-4 -22 -21 -29q-112 45 -270 45q-365 0 -432 -327q-12 -54 -12 -115t6 -109 t20 -122h430q3 -16 -6 -31h-420q5 -63 8 -125t-12 -131t-43.5 -133t-87.5 -132t-143 -128h698q3 -16 -6 -31h-739z" />
<glyph unicode="&#xa4;" horiz-adv-x="1198" d="M60 143l1 2l187 152q-75 109 -41 258q31 154 151 258l-122 152q2 10 14 18l20 8l123 -149q132 94 275 94q146 0 233 -96l182 151q5 0 17 -8l6 -18l-182 -152q76 -108 45 -258q-36 -155 -154 -258l121 -152q-2 -6 -12 -16q-5 -5 -10.5 -8t-7.5 -3l-3 -1l-121 153 q-130 -96 -276 -96q-149 0 -238 96l-184 -153q-8 -2 -16 12q-4 4 -6 8t-2 6zM240 555q-32 -147 46.5 -247.5t225.5 -100.5q148 0 270 100t154 248q31 148 -47.5 248t-226.5 100q-147 0 -269 -100.5t-153 -247.5z" />
<glyph unicode="&#xa5;" horiz-adv-x="1222" d="M158 342q0 18 8 31h358l37 178h-358q-3 16 6 31h358l-321 817q2 2 12 2q8 0 13 -1t7 -2l1 -1l309 -789l678 789q2 4 14 4q7 0 11.5 -1t5.5 -2l1 -1l-700 -815h360q3 -16 -6 -31h-362l-37 -178h362q3 -17 -8 -31h-362l-72 -338q-14 -6 -29 0l72 338h-358z" />
<glyph unicode="&#xa6;" horiz-adv-x="409" d="M-59 -543l192 912q7 4 19 4q5 0 8.5 -1t4.5 -2l1 -1l-193 -912q-6 -4 -18 -4q-5 0 -8.5 1t-4.5 2zM223 788l193 908q4 4 16 4l17 -4l-193 -908q-6 -4 -18 -4z" />
<glyph unicode="&#xa7;" horiz-adv-x="989" d="M39 29q2 16 18 32q112 -49 271 -49q184 0 276 46t115 157q32 144 -264 238q-69 23 -108 39t-89.5 47.5t-69 75.5t-6.5 102q11 50 41 94t70 75t72.5 49.5t66.5 33.5q-159 72 -129 215q25 118 114.5 173.5t252.5 55.5q30 0 59 -2t53.5 -6t45 -8.5t39.5 -10t30 -8.5t23 -8 l12 -4q-3 -21 -19 -29l-9 3q-128 40 -228 40q-159 0 -238.5 -46.5t-101.5 -147.5q-10 -46 3 -82.5t43.5 -61t72 -44.5t88.5 -36t94 -32.5t88.5 -37t71 -46t42.5 -64t3 -86.5q-12 -54 -41.5 -102t-67 -80.5t-70.5 -53t-63 -32.5q181 -89 152 -213q-27 -127 -126.5 -181 t-293.5 -54q-79 0 -152.5 12t-107.5 24zM215 719q-11 -50 4 -88t60.5 -66.5t83 -44t108.5 -39.5q40 -14 98 -37q48 18 93.5 47t90.5 83t58 118q8 40 -2.5 73t-30.5 54t-61 42t-73 32.5t-88.5 30.5t-86.5 30q-86 -31 -161.5 -91.5t-92.5 -143.5z" />
<glyph unicode="&#xa8;" horiz-adv-x="931" d="M250 1268l8 41q15 8 31 8q8 0 14.5 -2t8.5 -4l3 -2l-8 -41q-13 -8 -31 -8q-7 0 -13.5 2t-9.5 4zM524 1268l8 41q15 8 31 8q8 0 15 -2t10 -4l2 -2l-8 -41q-13 -8 -31 -8q-7 0 -14 2t-10 4z" />
<glyph unicode="&#xa9;" horiz-adv-x="1656" d="M164 696q29 138 110 263.5t191.5 216.5t248 144.5t275.5 53.5t252.5 -53t184.5 -145t99 -215.5t-3 -264.5q-39 -185 -163 -341.5t-299.5 -247.5t-359.5 -91t-321.5 91t-195.5 248t-19 341zM183 491q10 -97 55 -179t111.5 -141t159 -92.5t198.5 -33.5q176 0 343.5 87.5 t285.5 237.5t155 326q20 108 10.5 204.5t-54 178t-110.5 140t-158 91.5t-198 33q-176 0 -344.5 -86.5t-287.5 -235.5t-156 -325q-20 -108 -10 -205zM512 711q87 407 422 407q60 0 108 -11t66 -23l18 -11q-4 -17 -18 -24q-74 41 -170 41q-165 0 -259.5 -91t-135.5 -288 q-81 -379 229 -379q46 0 97 10t79 20l27 11q8 -8 8 -25q-9 -5 -26.5 -13t-75.5 -21t-121 -13q-168 0 -229 105t-19 305z" />
<glyph unicode="&#xaa;" horiz-adv-x="739" d="M106 477q0 9 7 23h442q0 -11 -6 -23h-443zM170 791q19 90 87.5 139t178.5 49q69 0 199 -14l22 108q23 104 -12.5 148.5t-128.5 44.5q-45 0 -93 -8t-73 -16l-26 -9q-11 6 -5 24q105 33 205 33q200 0 158 -203l-98 -464h-9h-10l31 147q-42 -83 -114 -123.5t-156 -40.5 q-95 0 -135 47.5t-21 137.5zM195 791q-36 -162 131 -162q102 0 181 61t107 174l17 80q-86 14 -195 14q-101 0 -162.5 -43t-78.5 -124z" />
<glyph unicode="&#xab;" horiz-adv-x="972" d="M104 553q1 4 3 7t4 4l2 1l526 477q11 -2 14 -18l-516 -471l318 -471q-6 -18 -25 -21l-324 480zM414 553l8 12l461 416q11 -2 14 -18l-451 -410l283 -418q-5 -16 -24 -20l-289 426z" />
<glyph unicode="&#xac;" horiz-adv-x="1226" d="M197 868q-2 5 0 17l6 14h884l-98 -463q-4 -4 -14 -4l-17 4l93 432h-854z" />
<glyph unicode="&#xad;" horiz-adv-x="581" />
<glyph unicode="&#xae;" horiz-adv-x="1120" d="M217 965q40 186 178 299.5t324 113.5t275.5 -113.5t49.5 -299.5t-177.5 -300t-323.5 -114t-276 114t-50 300zM242 965q-37 -175 47.5 -282.5t259.5 -107.5t304.5 107.5t166.5 282.5t-47.5 282t-259.5 107t-304.5 -107t-166.5 -282zM446 741l99 465h174q72 0 98 -32.5 t14 -98.5q-22 -101 -116 -119l73 -213q-2 -4 -12 -4l-14 2l-72 211h-16h-158l-45 -211q-2 -2 -14 -2zM520 975h154q111 0 133 100q11 56 -8.5 81.5t-79.5 25.5h-154z" />
<glyph unicode="&#xaf;" horiz-adv-x="833" d="M106 1309q-3 14 7 30h522q3 -13 -6 -30h-523z" />
<glyph unicode="&#xb0;" horiz-adv-x="747" d="M268 1264q20 95 99.5 167t191.5 72q110 0 156 -69.5t26 -163.5q-20 -96 -96 -166t-186 -70q-116 0 -163.5 68t-27.5 162zM299 1266q-16 -84 24.5 -142.5t139.5 -58.5q97 0 163 59.5t85 143.5q16 85 -23.5 145t-136.5 60t-165 -62t-87 -145z" />
<glyph unicode="&#xb1;" horiz-adv-x="1048" d="M127 322q-2 2 0 14q1 6 3 10t4 5l1 1h660q2 -2 0 -16q-1 -5 -3 -8.5t-4 -4.5l-2 -1h-659zM240 814q-1 3 0 9l8 17h303l53 252q5 4 19 4q5 0 8 -1t3 -2l1 -1l-53 -252h309q4 -3 0 -17l-6 -14h-310l-53 -254q-4 -4 -16 -4q-6 0 -9.5 1t-4.5 2v1l53 254h-303v1q-1 1 -2 4z " />
<glyph unicode="&#xb2;" horiz-adv-x="616" d="M115 709q-4 37 6 84q12 57 44 100t74 69.5t90.5 48.5t97 42t89.5 43t72 59t41 84q8 28 2.5 56t-20 50.5t-53 37t-97.5 14.5q-93 -2 -162 -23q-7 11 0 25l47 11q59 11 121 11q63 0 105.5 -15.5t60 -41t23 -59t-4.5 -68.5q-15 -70 -67 -117.5t-118.5 -75t-133 -55.5 t-119.5 -76.5t-68 -119.5q-8 -36 -8 -60h408q2 -2 2 -12l-6 -12h-426z" />
<glyph unicode="&#xb3;" horiz-adv-x="624" d="M117 721q0 15 10 22q68 -20 158 -20q116 0 186.5 44.5t85.5 123.5q19 89 -27.5 131.5t-134.5 42.5h-86q-5 14 6 25h86q83 0 137.5 40.5t69.5 112.5q15 75 -24 114.5t-131 39.5q-45 0 -88.5 -4.5t-64.5 -9.5l-21 -5q-4 12 0 23q76 20 176 20q106 0 151.5 -45t26.5 -133 q-12 -62 -54.5 -107.5t-105.5 -58.5q63 -11 95 -59t14 -127q-19 -91 -98.5 -142t-204.5 -51q-42 0 -82.5 6t-60.5 12z" />
<glyph unicode="&#xb4;" horiz-adv-x="458" d="M49 1337l320 312q15 -3 22 -19l-321 -311q-17 3 -21 18z" />
<glyph unicode="&#xb5;" horiz-adv-x="1183" d="M21 -456q-1 36 2.5 85t17 140t37.5 202l233 1102q3 4 19 4l10 -4l-166 -786q-60 -279 227 -279q138 0 255.5 72.5t197.5 189.5l170 803q2 4 14 4q6 0 10 -1t4 -2l1 -1l-228 -1069q-2 -4 -16 -4q-5 0 -8 1t-3 2l-1 1l45 211q-197 -235 -447 -235q-99 0 -162.5 31 t-89.5 110l-32 -150q-37 -176 -51 -294.5t-10 -148.5l5 -30q-12 -12 -28 -10l-3 12t-3 44z" />
<glyph unicode="&#xb6;" horiz-adv-x="825" d="M31 -461l346 1630q-60 3 -84.5 41.5t-13.5 92.5q13 52 56 90.5t103 38.5h27l-404 -1893q-4 -4 -16 -4q-5 0 -8.5 1t-4.5 2zM326 -461l401 1888q10 5 18 5l13 -5l-402 -1888q-6 -4 -16 -4q-5 0 -8.5 1t-4.5 2z" />
<glyph unicode="&#xb7;" horiz-adv-x="417" d="M166 561l8 41q15 8 31 8q8 0 14.5 -2t8.5 -4l3 -2l-8 -41q-12 -8 -30 -8q-7 0 -14 2t-10 4z" />
<glyph unicode="&#xb8;" horiz-adv-x="606" d="M-283 -373q5 14 21 23q58 -49 158 -49q87 0 145 41t76 127q12 59 -35 95t-137 36h-41l-8 12l61 162h29l-58 -148q113 3 172.5 -42t44.5 -120q-43 -192 -258 -192q-99 0 -170 55z" />
<glyph unicode="&#xb9;" horiz-adv-x="495" d="M204.5 1242.5q-0.5 8.5 2.5 12.5q163 33 285 158q13 3 26 0l-149 -698q-6 -2 -13 -2q-6 0 -12 2l141 663q-107 -104 -276 -145q-4 1 -4.5 9.5z" />
<glyph unicode="&#xba;" horiz-adv-x="780" d="M127 477q-3 11 6 23h455q3 -11 -6 -23h-455zM205 948q37 175 113 257.5t206 82.5q256 0 183 -340q-37 -177 -114 -260.5t-206 -83.5q-132 0 -175.5 83t-6.5 261zM227 948q-34 -168 2 -244.5t158 -76.5t192.5 77.5t104.5 243.5q36 163 -2 240.5t-160 77.5t-190.5 -76.5 t-104.5 -241.5z" />
<glyph unicode="&#xbb;" horiz-adv-x="970" d="M35 135l459 418l-275 410q9 15 23 18l284 -416q2 -4 0 -12l-6 -12l-469 -426q-16 3 -16 20zM285 82l518 471l-316 471q9 15 23 18l326 -477q2 -4 0 -12l-7 -12l-528 -480q-16 4 -16 21z" />
<glyph unicode="&#xbc;" horiz-adv-x="1269" d="M90 -18l1104 1452q4 4 16 4q4 0 7 -1t3 -2l1 -1l-1104 -1452q-3 -2 -13 -2zM218.5 1242.5q-0.5 8.5 2.5 12.5q163 33 285 158q13 3 26 0l-149 -698q-6 -2 -12 -2q-7 0 -13 2l142 663q-106 -103 -277 -145q-4 1 -4.5 9.5zM590 213q-1 3 0 6.5t2 5.5l2 2l477 473q5 2 11 2 t9 -1l3 -1l-99 -462h76q2 -11 -6 -25h-76l-45 -211q-12 -6 -24 0l45 211h-375zM633 238h338l88 419z" />
<glyph unicode="&#xbd;" horiz-adv-x="1402" d="M92 -18l1104 1452q4 4 16 4q4 0 7 -1t3 -2l1 -1l-1104 -1452q-3 -2 -13 -2zM218.5 1242.5q-0.5 8.5 2.5 12.5q163 33 285 158q13 3 26 0l-149 -698q-6 -2 -12 -2q-7 0 -13 2l142 663q-106 -103 -277 -145q-4 1 -4.5 9.5zM729 0q-2 37 8 84q16 77 70 129.5t120.5 81 t132.5 55.5t118 71t65 109q9 28 3.5 56t-20 50.5t-53.5 37t-98 14.5q-86 -2 -162 -22q-4 12 2 24l45 12q60 11 123 11t106 -15.5t60 -41.5t23 -59.5t-4 -68.5q-11 -51 -42.5 -90.5t-73 -64t-90 -45t-96.5 -41.5t-89.5 -46t-72.5 -65t-42 -92q-8 -36 -8 -59h407v-13 q0 -6 -6 -12h-426z" />
<glyph unicode="&#xbe;" horiz-adv-x="1392" d="M139 721q0 15 11 22q67 -20 157 -20q116 0 187 44.5t86 123.5q19 89 -27.5 131.5t-134.5 42.5h-86q-5 14 6 25h86q83 0 137.5 40.5t69.5 112.5q15 75 -24.5 114.5t-131.5 39.5q-45 0 -88.5 -4.5t-64.5 -9.5l-21 -5q-4 12 0 23q76 20 176 20q106 0 151.5 -45t26.5 -133 q-12 -62 -54 -107.5t-105 -58.5q63 -11 94.5 -59t13.5 -127q-19 -91 -98.5 -142t-204.5 -51q-42 0 -82.5 6t-60.5 12zM211 -18l1104 1452q8 4 16 4l10 -4l-1103 -1452q-3 -2 -13 -2zM715 213q-1 3 0 6.5t3 5.5l1 2l477 473q5 2 11 2t9 -1l3 -1l-99 -462h76q2 -11 -6 -25h-76 l-45 -211q-13 -6 -25 0l46 211h-375zM758 238h338l88 419z" />
<glyph unicode="&#xbf;" horiz-adv-x="841" d="M-41 -118.5q0 35.5 8 73.5q18 83 54 149.5t81 111.5t96.5 85.5t103.5 83t97.5 92.5t83.5 125t58 170q8 4 18 4l12 -4q-21 -98 -59.5 -176.5t-84.5 -129.5t-97.5 -94.5t-103 -83t-96 -83t-80 -106.5t-52.5 -142q-7 -42 -7.5 -82t17 -75.5t46.5 -62.5t82 -43t124 -16 q81 0 157.5 14t112.5 28l37 14q6 -3 6.5 -14t-2.5 -15q-15 -6 -42.5 -15.5t-110.5 -25.5t-164 -16q-65 0 -116.5 12.5t-84.5 35t-54.5 51.5t-30.5 64t-9 70.5zM580 1018l8 41q12 8 30 8q7 0 14 -2t10 -4l3 -2l-8 -41q-15 -8 -31 -8q-8 0 -14.5 2t-9.5 4z" />
<glyph unicode="&#xc0;" horiz-adv-x="1292" d="M-88 2l911 1479q4 4 8 0l283 -1479q-6 -4 -16 -4l-15 4l-90 465h-760l-284 -465q-22 -9 -37 0zM254 498h733l-172 913zM713 1870q10 13 26 18l189 -311q-8 -11 -25 -14z" />
<glyph unicode="&#xc1;" horiz-adv-x="1292" d="M-88 2l911 1479q4 4 8 0l283 -1479q-6 -4 -16 -4l-15 4l-90 465h-760l-284 -465q-22 -9 -37 0zM254 498h733l-172 913zM776 1575l320 311q16 -3 22 -18l-321 -312q-17 3 -21 19z" />
<glyph unicode="&#xc2;" horiz-adv-x="1292" d="M-88 2l911 1479q4 4 8 0l283 -1479q-6 -4 -16 -4l-15 4l-90 465h-760l-284 -465q-22 -9 -37 0zM254 498h733l-172 913zM588 1595l303 207h27l212 -207q-5 -13 -20 -18l-207 199l-299 -201q-16 3 -16 20z" />
<glyph unicode="&#xc3;" horiz-adv-x="1292" d="M-88 2l911 1479q4 4 8 0l283 -1479q-6 -4 -16 -4l-15 4l-90 465h-760l-284 -465q-22 -9 -37 0zM254 498h733l-172 913zM639 1640q2 3 5 9t15 20.5t26.5 25.5t39 20t51.5 9q26 0 52 -12.5t44.5 -27t47 -27t59.5 -12.5q68 0 108 67q20 -4 25 -14q-2 -3 -5.5 -9t-16 -20.5 t-27.5 -25.5t-40 -20t-52 -9q-47 0 -107 41t-98 41q-30 0 -55.5 -17.5t-36.5 -34.5l-10 -18q-20 3 -25 14z" />
<glyph unicode="&#xc4;" horiz-adv-x="1292" d="M-88 2l911 1479q4 4 8 0l283 -1479q-6 -4 -16 -4l-15 4l-90 465h-760l-284 -465q-22 -9 -37 0zM254 498h733l-172 913zM686 1620l8 41q15 8 31 8q8 0 15 -2t10 -4l2 -2l-9 -41q-12 -8 -30 -8q-7 0 -14 2t-10 4zM961 1620l8 41q14 8 30 8q8 0 15 -2t10 -4l2 -2l-8 -41 q-13 -8 -31 -8q-7 0 -13.5 2t-9.5 4z" />
<glyph unicode="&#xc5;" horiz-adv-x="1294" d="M-86 2l874 1421q-74 8 -112 61t-21 130q19 89 90 138.5t154 49.5q82 0 133.5 -51.5t30.5 -136.5q-20 -83 -79.5 -133t-139.5 -58l272 -1421q-6 -4 -16 -4l-19 4l-88 465h-757l-285 -465q-9 -4 -21 -4zM256 498h731l-172 913zM684 1614q-14 -76 19.5 -122t117.5 -46 t142 50.5t71 117.5q15 69 -19.5 115.5t-123.5 46.5q-83 0 -138.5 -48t-68.5 -114z" />
<glyph unicode="&#xc6;" horiz-adv-x="1716" d="M-94 2l1200 1473h663q4 -15 -6 -31h-618l-146 -684h517q3 -15 -7 -31h-516l-149 -698h639q4 -15 -6 -31h-670l92 434h-602l-350 -432q-6 -4 -23 -4q-14 0 -18 4zM322 465h583l209 975z" />
<glyph unicode="&#xc7;" horiz-adv-x="1130" d="M182.5 170.5q-80.5 183.5 1.5 564.5q85 394 249.5 577t432.5 183q99 0 180.5 -16.5t113.5 -32.5l32 -16q-3 -16 -18 -25q-12 7 -35.5 16.5t-104 26t-168.5 16.5q-255 0 -413.5 -177t-237.5 -552q-81 -373 -3 -549t331 -176q147 0 220 15.5t144 50.5q17 -7 13 -29 q-53 -25 -83 -35.5t-105 -21t-185 -10.5l-47 -123q113 3 172.5 -42t44.5 -120q-43 -193 -258 -193q-98 0 -170 56q5 13 20 22q58 -49 158 -49q87 0 145 41t76 127q12 59 -35 95t-137 36h-41l-8 12l51 138q-255 7 -335.5 190.5z" />
<glyph unicode="&#xc8;" d="M100 0l314 1475h776q3 -16 -6 -31h-746l-145 -680h643q3 -16 -6 -31h-643l-150 -702h766q3 -16 -6 -31h-797zM705 1872q10 13 26 18l189 -311q-8 -11 -25 -14z" />
<glyph unicode="&#xc9;" d="M100 0l314 1475h776q3 -16 -6 -31h-746l-145 -680h643q3 -16 -6 -31h-643l-150 -702h766q3 -16 -6 -31h-797zM711 1589l319 312q16 -3 23 -19l-322 -311q-16 3 -20 18z" />
<glyph unicode="&#xca;" d="M100 0l314 1475h776q3 -16 -6 -31h-746l-145 -680h643q3 -16 -6 -31h-643l-150 -702h766q3 -16 -6 -31h-797zM555 1612l303 207h27l213 -207q-6 -14 -21 -19l-207 199l-299 -201q-16 3 -16 21z" />
<glyph unicode="&#xcb;" d="M100 0l314 1475h776q3 -16 -6 -31h-746l-145 -680h643q3 -16 -6 -31h-643l-150 -702h766q3 -16 -6 -31h-797zM694 1653l11 41q14 8 30 8q8 0 15 -2t10 -4l2 -2l-10 -41q-11 -8 -29 -8q-7 0 -14.5 2t-10.5 4zM969 1653l10 41q15 8 31 8q8 0 14.5 -2t9.5 -4l2 -2l-10 -41 q-11 -8 -29 -8q-7 0 -14 2t-11 4z" />
<glyph unicode="&#xcc;" horiz-adv-x="497" d="M100 4l314 1466q4 5 16 5l14 -5l-313 -1466q-1 0 -2 -1t-4 -2t-8 -1zM332 1864q12 16 28 20l187 -311q-11 -15 -23 -17z" />
<glyph unicode="&#xcd;" horiz-adv-x="497" d="M100 4l314 1466q4 5 16 5l14 -5l-313 -1466q-1 0 -2 -1t-4 -2t-8 -1zM334 1575l321 311q12 -2 19 -20l-322 -307q-11 2 -18 16z" />
<glyph unicode="&#xce;" horiz-adv-x="497" d="M100 4l314 1466q4 5 16 5l14 -5l-313 -1466q-4 -4 -14 -4zM182 1608l303 207h27l213 -207q-3 -16 -18 -19l-209 199l-303 -201q-13 5 -13 21z" />
<glyph unicode="&#xcf;" horiz-adv-x="497" d="M100 4l314 1466q4 5 16 5l14 -5l-313 -1466q-4 -4 -14 -4zM297 1630l8 41q15 8 31 8q8 0 14.5 -2t9.5 -4l2 -2l-8 -41q-12 -8 -30 -8q-7 0 -14 2t-10 4zM571 1630l9 41q14 8 30 8q8 0 15 -2t9 -4l3 -2l-8 -41q-13 -8 -31 -8q-7 0 -14 2t-10 4z" />
<glyph unicode="&#xd0;" horiz-adv-x="1353" d="M78 721q-3 16 6 31h182l154 723h368q121 0 205.5 -21t147 -71.5t89.5 -135t24 -211t-40 -299.5q-36 -172 -88.5 -299t-116.5 -211t-148 -134.5t-176.5 -71.5t-209.5 -21h-369l154 721h-182zM143 31h332q145 0 252 32.5t197 112t153.5 217.5t106.5 344q36 167 39.5 287.5 t-21.5 201.5t-84 129.5t-141 68.5t-201 20h-332l-147 -692h375q3 -16 -6 -31h-375z" />
<glyph unicode="&#xd1;" horiz-adv-x="1417" d="M100 4l314 1466q6 5 16 5q4 0 7.5 -1.5t4.5 -2.5l2 -1l525 -1261l63 -166q14 90 43 225l256 1202q5 5 19 5l14 -5l-313 -1466q-7 -4 -15 -4l-16 4l-588 1419l-49 -237l-250 -1182q-10 -4 -18 -4zM682 1640q2 3 5 9t15 20.5t26.5 25.5t39 20t51.5 9q26 0 52 -12.5 t44.5 -27t47 -27t59.5 -12.5q68 0 108 67q20 -4 25 -14q-2 -3 -5.5 -9t-16 -20.5t-27.5 -25.5t-40 -20t-52 -9q-46 0 -106.5 41t-98.5 41q-30 0 -55.5 -17.5t-35.5 -34.5l-11 -18q-20 3 -25 14z" />
<glyph unicode="&#xd2;" horiz-adv-x="1382" d="M182 737q164 758 695 758q258 0 354.5 -193.5t15.5 -564.5q-83 -387 -259 -572t-433 -185q-261 0 -356.5 192.5t-16.5 564.5zM213 737q-152 -727 348 -727q239 0 408 176.5t248 550.5q155 727 -347 727q-240 0 -408 -176.5t-249 -550.5zM793 1868q9 15 24 20l199 -303 q-3 -12 -21 -16z" />
<glyph unicode="&#xd3;" horiz-adv-x="1382" d="M182 737q164 758 695 758q258 0 354.5 -193.5t15.5 -564.5q-83 -387 -259 -572t-433 -185q-261 0 -356.5 192.5t-16.5 564.5zM213 737q-152 -727 348 -727q239 0 408 176.5t248 550.5q155 727 -347 727q-240 0 -408 -176.5t-249 -550.5zM803 1583l330 303q12 -2 16 -20 l-330 -299q-16 3 -16 16z" />
<glyph unicode="&#xd4;" horiz-adv-x="1382" d="M182 737q164 758 695 758q258 0 354.5 -193.5t15.5 -564.5q-83 -387 -259 -572t-433 -185q-261 0 -356.5 192.5t-16.5 564.5zM213 737q-152 -727 348 -727q239 0 408 176.5t248 550.5q155 727 -347 727q-240 0 -408 -176.5t-249 -550.5zM633 1612l305 207h27l211 -207 q-4 -17 -21 -21l-209 201l-301 -201q-12 6 -12 21z" />
<glyph unicode="&#xd5;" horiz-adv-x="1382" d="M182 737q164 758 695 758q258 0 354.5 -193.5t15.5 -564.5q-83 -387 -259 -572t-433 -185q-261 0 -356.5 192.5t-16.5 564.5zM213 737q-152 -727 348 -727q239 0 408 176.5t248 550.5q155 727 -347 727q-240 0 -408 -176.5t-249 -550.5zM680 1638q2 3 5 9t15 20.5 t26.5 25.5t39 20t51.5 9q32 0 63.5 -20t66 -40t73.5 -20q67 0 108 68q20 -4 25 -14q-2 -3 -5.5 -9t-16 -20.5t-27.5 -25.5t-40 -20t-52 -9q-38 0 -73 20.5t-67.5 41t-64.5 20.5q-30 0 -55.5 -17.5t-35.5 -34.5l-11 -18q-20 3 -25 14z" />
<glyph unicode="&#xd6;" horiz-adv-x="1382" d="M182 737q164 758 695 758q258 0 354.5 -193.5t15.5 -564.5q-83 -387 -259 -572t-433 -185q-261 0 -356.5 192.5t-16.5 564.5zM213 737q-152 -727 348 -727q239 0 408 176.5t248 550.5q155 727 -347 727q-240 0 -408 -176.5t-249 -550.5zM743 1665l9 41q14 8 30 8 q8 0 15 -2t9 -4l3 -2l-8 -41q-13 -8 -31 -8q-7 0 -14 2t-10 4zM1018 1665l8 41q15 8 31 8q8 0 14.5 -2t8.5 -4l3 -2l-8 -41q-13 -8 -31 -8q-7 0 -13.5 2t-9.5 4z" />
<glyph unicode="&#xd7;" horiz-adv-x="897" d="M127 350l291 240l-189 239q11 15 27 21l188 -238l289 238q15 -6 19 -21l-291 -239l188 -240q-8 -13 -26 -20l-189 239l-289 -239q-16 11 -18 20z" />
<glyph unicode="&#xd8;" horiz-adv-x="1382" d="M84 -72l147 191q-140 191 -49 618q164 758 695 758q207 0 313 -127l137 180q16 -4 21 -12l-144 -188q134 -191 43 -611q-83 -387 -259 -572t-433 -185q-204 0 -309 120l-142 -184q-14 0 -20 12zM213 737q-87 -415 37 -592l919 1198q-93 121 -299 121q-240 0 -408 -176.5 t-249 -550.5zM266 125q93 -115 295 -115q239 0 408 176.5t248 550.5q88 410 -33 586z" />
<glyph unicode="&#xd9;" horiz-adv-x="1361" d="M182 442l219 1028q7 5 17 5l14 -5l-219 -1030q-43 -203 46.5 -316.5t291.5 -113.5q203 0 341 114t181 316l219 1030q7 5 13 5l18 -5l-219 -1028q-46 -218 -194.5 -340t-366.5 -122q-217 0 -312 122t-49 340zM768 1884q14 17 27 21l186 -312q-10 -13 -23 -16z" />
<glyph unicode="&#xda;" horiz-adv-x="1361" d="M182 442l219 1028q7 5 17 5l14 -5l-219 -1030q-43 -203 46.5 -316.5t291.5 -113.5q203 0 341 114t181 316l219 1030q7 5 13 5l18 -5l-219 -1028q-46 -218 -194.5 -340t-366.5 -122q-217 0 -312 122t-49 340zM780 1573l322 311q9 -2 16 -20l-319 -308q-16 3 -19 17z" />
<glyph unicode="&#xdb;" horiz-adv-x="1361" d="M182 442l219 1028q7 5 17 5l14 -5l-219 -1030q-43 -203 46.5 -316.5t291.5 -113.5q203 0 341 114t181 316l219 1030q7 5 13 5l18 -5l-219 -1028q-46 -218 -194.5 -340t-366.5 -122q-217 0 -312 122t-49 340zM614 1610l304 207h26l213 -207q-4 -18 -20 -21l-209 201 l-301 -201q-13 5 -13 21z" />
<glyph unicode="&#xdc;" horiz-adv-x="1361" d="M182 442l219 1028q7 5 17 5l14 -5l-219 -1030q-43 -203 46.5 -316.5t291.5 -113.5q203 0 341 114t181 316l219 1030q7 5 13 5l18 -5l-219 -1028q-46 -218 -194.5 -340t-366.5 -122q-217 0 -312 122t-49 340zM737 1677l8 41q15 8 31 8q8 0 15 -2t9 -4l3 -2l-8 -41 q-13 -8 -31 -8q-7 0 -14 2t-10 4zM1012 1677l8 41q15 8 31 8q8 0 14.5 -2t8.5 -4l3 -2l-8 -41q-13 -8 -31 -8q-7 0 -13.5 2t-9.5 4z" />
<glyph unicode="&#xdd;" horiz-adv-x="1230" d="M238 1470q6 5 20 5l14 -5l344 -811l711 811q7 5 21 5l18 -5l-737 -843l-133 -623q-7 -4 -17 -4l-14 4l133 621zM733 1579l320 311q11 -2 18 -20l-321 -307q-14 3 -17 16z" />
<glyph unicode="&#xde;" horiz-adv-x="1226" d="M100 4l314 1466q2 5 16 5l14 -5l-67 -309h461q179 0 257 -106t38 -295q-40 -186 -162.5 -290.5t-300.5 -104.5h-461l-78 -361q0 -4 -14 -4zM215 395h465q162 0 273.5 96t148.5 267q37 175 -33.5 273.5t-232.5 98.5h-465z" />
<glyph unicode="&#xdf;" horiz-adv-x="1167" d="M66 4l241 1135q85 397 469 397q74 0 131.5 -20t90.5 -53.5t53.5 -78t20.5 -94t-9 -100.5q-18 -92 -80 -197q-6 1 -16 1.5t-40 -1.5t-58 -7t-64 -19.5t-64 -36t-52 -59t-34 -85.5q-11 -53 4.5 -94.5t48.5 -67.5t74.5 -53.5t82.5 -52t72.5 -63.5t44 -87.5t-2.5 -123.5 q-26 -120 -121 -192t-250 -72q-63 0 -110.5 8t-63.5 16l-16 8q4 19 18 25q66 -29 174 -29q150 0 233.5 69t106.5 171q11 52 5 95t-25.5 72t-47 55t-59.5 44t-64 39.5t-60 41.5t-48 49.5t-27 63t3 83.5q11 51 35 91t53.5 63.5t64 41t66.5 23t59.5 10.5t44 2.5t20.5 -0.5h1 q43 74 65 170q9 49 9 94.5t-18 85.5t-48 70t-83 47.5t-122 17.5q-360 0 -438 -368l-242 -1135q-2 -4 -14 -4q-5 0 -8.5 1t-4.5 2z" />
<glyph unicode="&#xe0;" d="M123 539q58 275 188 417t324 142q127 0 208.5 -67t104.5 -197l53 243q5 4 15 4l16 -4l-229 -1073q-5 -4 -17 -4q-5 0 -8.5 1t-4.5 2l-1 1l53 248q-70 -125 -175 -198.5t-238 -73.5q-201 0 -274.5 142t-14.5 417zM154 539q-56 -261 11.5 -395t254.5 -134q69 0 133 24.5 t113.5 65t89.5 93t65.5 107.5t36.5 110l62 288q12 66 -1 131t-48 118.5t-97.5 86.5t-142.5 33q-180 0 -301 -133.5t-176 -394.5zM594 1559q13 16 27 20l188 -311q-11 -14 -25 -17z" />
<glyph unicode="&#xe1;" d="M123 539q58 275 188 417t324 142q127 0 208.5 -67t104.5 -197l53 243q5 4 15 4l16 -4l-229 -1073q-5 -4 -17 -4q-5 0 -8.5 1t-4.5 2l-1 1l53 248q-70 -125 -175 -198.5t-238 -73.5q-201 0 -274.5 142t-14.5 417zM154 539q-56 -261 11.5 -395t254.5 -134q69 0 133 24.5 t113.5 65t89.5 93t65.5 107.5t36.5 110l62 288q12 66 -1 131t-48 118.5t-97.5 86.5t-142.5 33q-180 0 -301 -133.5t-176 -394.5zM606 1272l320 311q11 -2 18 -20l-321 -308q-13 3 -17 17z" />
<glyph unicode="&#xe2;" d="M123 539q58 275 188 417t324 142q127 0 208.5 -67t104.5 -197l53 243q5 4 15 4l16 -4l-229 -1073q-5 -4 -17 -4q-5 0 -8.5 1t-4.5 2l-1 1l53 248q-70 -125 -175 -198.5t-238 -73.5q-201 0 -274.5 142t-14.5 417zM154 539q-56 -261 11.5 -395t254.5 -134q69 0 133 24.5 t113.5 65t89.5 93t65.5 107.5t36.5 110l62 288q12 66 -1 131t-48 118.5t-97.5 86.5t-142.5 33q-180 0 -301 -133.5t-176 -394.5zM430 1268l303 207h27l213 -207q-7 -18 -23 -21l-209 201l-301 -201q-10 5 -10 21z" />
<glyph unicode="&#xe3;" d="M123 539q58 275 188 417t324 142q127 0 208.5 -67t104.5 -197l53 243q5 4 15 4l16 -4l-229 -1073q-5 -4 -17 -4q-5 0 -8.5 1t-4.5 2l-1 1l53 248q-70 -125 -175 -198.5t-238 -73.5q-201 0 -274.5 142t-14.5 417zM154 539q-56 -261 11.5 -395t254.5 -134q69 0 133 24.5 t113.5 65t89.5 93t65.5 107.5t36.5 110l62 288q12 66 -1 131t-48 118.5t-97.5 86.5t-142.5 33q-180 0 -301 -133.5t-176 -394.5zM485 1352q2 4 5 9.5t15.5 21t27.5 27t41 21t55 9.5q32 0 62 -20.5t62.5 -41t71.5 -20.5q69 0 109 67q14 -3 20 -14q-2 -3 -5 -9t-15.5 -20.5 t-27 -25.5t-39.5 -20t-52 -9q-31 0 -59 13t-46 28t-43 28t-51 13q-21 0 -40 -7t-31 -17.5t-20.5 -21t-12.5 -17.5l-4 -7q-18 3 -23 13z" />
<glyph unicode="&#xe4;" d="M123 539q58 275 188 417t324 142q127 0 208.5 -67t104.5 -197l53 243q5 4 15 4l16 -4l-229 -1073q-5 -4 -17 -4q-5 0 -8.5 1t-4.5 2l-1 1l53 248q-70 -125 -175 -198.5t-238 -73.5q-201 0 -274.5 142t-14.5 417zM154 539q-56 -261 11.5 -395t254.5 -134q69 0 133 24.5 t113.5 65t89.5 93t65.5 107.5t36.5 110l62 288q12 66 -1 131t-48 118.5t-97.5 86.5t-142.5 33q-180 0 -301 -133.5t-176 -394.5zM569 1399l9 37q12 6 26 6q7 0 13 -1.5t8 -2.5l2 -2l-9 -37q-10 -6 -26 -6q-6 0 -12 1.5t-8 3.5zM844 1399l8 37q13 6 27 6q7 0 12.5 -1.5 t7.5 -2.5l2 -2l-8 -37q-11 -6 -27 -6q-6 0 -11.5 1.5t-8.5 3.5z" />
<glyph unicode="&#xe5;" d="M123 539q58 275 188 417t324 142q127 0 208.5 -67t104.5 -197l53 243q5 4 15 4l16 -4l-229 -1073q-5 -4 -17 -4q-5 0 -8.5 1t-4.5 2l-1 1l53 248q-70 -125 -175 -198.5t-238 -73.5q-201 0 -274.5 142t-14.5 417zM154 539q-56 -261 11.5 -395t254.5 -134q69 0 133 24.5 t113.5 65t89.5 93t65.5 107.5t36.5 110l62 288q12 66 -1 131t-48 118.5t-97.5 86.5t-142.5 33q-180 0 -301 -133.5t-176 -394.5zM514 1440q21 93 94.5 145.5t161.5 52.5q87 0 139.5 -52t32.5 -146q-20 -95 -93.5 -149t-166.5 -54t-140.5 53.5t-27.5 149.5zM545 1440 q-15 -72 20.5 -124t122.5 -52q88 0 148 52.5t75 123.5q16 71 -22 120.5t-127 49.5q-87 0 -144.5 -50t-72.5 -120z" />
<glyph unicode="&#xe6;" horiz-adv-x="1640" d="M123 539q59 275 179.5 417t297.5 142q124 0 189.5 -60.5t80.5 -189.5l50 229q4 4 14 4l16 -4l-229 -1073q-4 -4 -16 -4l-15 4l49 227q-59 -119 -145 -185t-217 -66q-184 0 -248.5 141.5t-5.5 417.5zM154 539q-55 -261 3.5 -395t227.5 -134q69 0 128.5 25t101.5 64.5 t75.5 93t53.5 107t32 110.5l62 288q8 53 9 105t-16 100t-45 84.5t-77 58t-113 21.5q-163 0 -275 -133.5t-167 -394.5zM780 279q0 29 6 65l99 447q2 5 10 22.5t10 22.5q71 130 171 196t216 66q82 0 139 -29.5t83 -79.5t33 -116.5t-11 -141.5q-10 -47 -25.5 -92t-25.5 -67 l-10 -21h-637q-100 -541 221 -541q46 0 90.5 9t75 22t54 26t35.5 22l11 9q15 -5 18 -22q-4 -4 -12.5 -10.5t-37.5 -23t-60.5 -29t-81 -23t-100.5 -10.5q-120 0 -192 73.5t-79 225.5zM844 582h614q29 63 47 155q17 65 11 124.5t-27.5 105t-74 73t-128.5 27.5 q-147 0 -266 -119.5t-176 -365.5z" />
<glyph unicode="&#xe7;" horiz-adv-x="905" d="M125 543q58 274 193.5 414.5t340.5 140.5q64 0 118.5 -11t76.5 -23l23 -11q-3 -20 -21 -27q-8 5 -22.5 11.5t-65 18t-106.5 11.5q-194 0 -322.5 -133.5t-183.5 -394.5q-112 -529 280 -529q61 0 121 14t89 28l30 14q12 -6 12 -27q-12 -7 -34 -16.5t-90 -26t-136 -16.5h-31 l-51 -111q106 1 156.5 -40.5t36.5 -113.5q-42 -184 -248 -184q-94 0 -160 53q5 13 19 21q56 -47 149 -47q82 0 137.5 39t73.5 120q12 58 -26.5 91.5t-123.5 33.5h-38l-9 13l60 127q-177 20 -239.5 162.5t-8.5 398.5z" />
<glyph unicode="&#xe8;" horiz-adv-x="1034" d="M125 545q61 279 200.5 416t327.5 137q117 0 188 -51t91.5 -132t-0.5 -184q-12 -56 -28.5 -106t-27.5 -73l-10 -22h-712q-50 -272 11.5 -396t252.5 -124q50 0 99.5 9.5t85 22.5t64 26t42.5 22l14 10q18 -4 14 -22q-5 -4 -14.5 -10.5t-42 -23.5t-68.5 -30t-92 -23.5 t-114 -10.5q-400 0 -281 565zM160 561h690l17 45q19 60 34 131q17 65 8 124.5t-36 105t-85.5 73t-140.5 27.5q-175 0 -301.5 -126.5t-185.5 -379.5zM580 1554q13 17 26 21l189 -311q-11 -15 -25 -17z" />
<glyph unicode="&#xe9;" horiz-adv-x="1034" d="M125 545q61 279 200.5 416t327.5 137q117 0 188 -51t91.5 -132t-0.5 -184q-12 -56 -28.5 -106t-27.5 -73l-10 -22h-712q-50 -272 11.5 -396t252.5 -124q50 0 99.5 9.5t85 22.5t64 26t42.5 22l14 10q18 -4 14 -22q-5 -4 -14.5 -10.5t-42 -23.5t-68.5 -30t-92 -23.5 t-114 -10.5q-400 0 -281 565zM160 561h690l17 45q19 60 34 131q17 65 8 124.5t-36 105t-85.5 73t-140.5 27.5q-175 0 -301.5 -126.5t-185.5 -379.5zM557 1264l320 311q11 -2 17 -18l1 -3l-322 -307q-13 3 -16 17z" />
<glyph unicode="&#xea;" horiz-adv-x="1034" d="M125 545q61 279 200.5 416t327.5 137q117 0 188 -51t91.5 -132t-0.5 -184q-12 -56 -28.5 -106t-27.5 -73l-10 -22h-712q-50 -272 11.5 -396t252.5 -124q50 0 99.5 9.5t85 22.5t64 26t42.5 22l14 10q18 -4 14 -22q-5 -4 -14.5 -10.5t-42 -23.5t-68.5 -30t-92 -23.5 t-114 -10.5q-400 0 -281 565zM160 561h690l17 45q19 60 34 131q17 65 8 124.5t-36 105t-85.5 73t-140.5 27.5q-175 0 -301.5 -126.5t-185.5 -379.5zM416 1251l303 207h26l213 -207q-3 -17 -20 -20l-209 201l-297 -201q-16 6 -16 20z" />
<glyph unicode="&#xeb;" horiz-adv-x="1034" d="M125 545q61 279 200.5 416t327.5 137q117 0 188 -51t91.5 -132t-0.5 -184q-12 -56 -28.5 -106t-27.5 -73l-10 -22h-712q-50 -272 11.5 -396t252.5 -124q50 0 99.5 9.5t85 22.5t64 26t42.5 22l14 10q18 -4 14 -22q-5 -4 -14.5 -10.5t-42 -23.5t-68.5 -30t-92 -23.5 t-114 -10.5q-400 0 -281 565zM160 561h690l17 45q19 60 34 131q17 65 8 124.5t-36 105t-85.5 73t-140.5 27.5q-175 0 -301.5 -126.5t-185.5 -379.5zM547 1356l8 41q15 8 31 8q8 0 14.5 -2t9.5 -4l2 -2l-8 -41q-13 -8 -31 -8q-7 0 -13.5 2t-9.5 4zM821 1356l8 41q15 8 31 8 q8 0 15 -2t9 -4l3 -2l-8 -41q-13 -8 -31 -8q-7 0 -14 2t-10 4z" />
<glyph unicode="&#xec;" horiz-adv-x="442" d="M76 4l227 1069q4 4 16 4q5 0 8.5 -1t4.5 -2v-1l-228 -1069q-2 -4 -14 -4q-5 0 -8.5 1t-4.5 2zM238 1561q12 15 26 20l189 -311q-11 -14 -25 -17z" />
<glyph unicode="&#xed;" horiz-adv-x="442" d="M76 4l227 1069q4 4 16 4q5 0 8.5 -1t4.5 -2v-1l-228 -1069q-2 -4 -14 -4q-5 0 -8.5 1t-4.5 2zM252 1272l319 311q12 -2 19 -20l-322 -308q-12 2 -16 17z" />
<glyph unicode="&#xee;" horiz-adv-x="442" d="M76 4l227 1069q4 4 16 4q5 0 8.5 -1t4.5 -2v-1l-228 -1069q-2 -4 -14 -4q-5 0 -8.5 1t-4.5 2zM86 1251l303 207h27l213 -207q-3 -16 -21 -20l-207 201l-303 -201q-12 5 -12 20z" />
<glyph unicode="&#xef;" horiz-adv-x="442" d="M76 4l227 1069q4 4 16 4q5 0 8.5 -1t4.5 -2v-1l-228 -1069q-2 -4 -14 -4q-5 0 -8.5 1t-4.5 2zM213 1376l8 41q15 8 31 8q8 0 15 -2t9 -4l3 -2l-9 -41q-12 -8 -30 -8q-7 0 -14 2t-10 4zM487 1376l9 41q14 8 30 8q8 0 15 -2t9 -4l3 -2l-8 -41q-13 -8 -31 -8q-7 0 -14 2 t-10 4z" />
<glyph unicode="&#xf0;" horiz-adv-x="1128" d="M121 516q55 263 186.5 400t325.5 137q148 0 235 -75t93 -224q21 384 -144 573l-227 -137q-12 9 -12 27l221 131q-114 114 -312 153q-3 19 13 35q210 -44 331 -168l191 113q12 -6 12 -25l-184 -110q221 -257 98 -836q-59 -276 -191 -403t-337 -127q-202 0 -279 136.5 t-20 399.5zM152 516q-54 -249 14.5 -377.5t255.5 -128.5q197 0 317.5 122.5t175.5 381.5q26 114 22.5 199.5t-24.5 144.5t-65 95.5t-98.5 52.5t-124.5 16q-180 0 -300 -129t-173 -377z" />
<glyph unicode="&#xf1;" horiz-adv-x="1132" d="M68 4l227 1069q18 11 29 0l-52 -248q188 273 461 273q143 0 209 -81t37 -220l-170 -793q-15 -11 -29 0l168 791q29 131 -31.5 202.5t-193.5 71.5q-275 0 -465 -307l-162 -758q-14 -11 -28 0zM522 1378q2 3 5 9t15 20.5t26.5 25.5t39 20t51.5 9q32 0 63.5 -20t66 -40 t73.5 -20q68 0 109 68q19 -4 24 -14q-2 -3 -5.5 -9t-16 -20.5t-27.5 -25.5t-40 -20t-52 -9q-38 0 -73 20.5t-67.5 41t-64.5 20.5q-30 0 -55.5 -17.5t-35.5 -34.5l-11 -18q-20 3 -25 14z" />
<glyph unicode="&#xf2;" horiz-adv-x="1097" d="M125 539q62 295 193 427t331 132t274.5 -132t12.5 -427t-193 -427t-331 -132t-274.5 132t-12.5 427zM126.5 330.5q-2.5 -90.5 15.5 -151t56.5 -99t91.5 -55.5t124 -17q183 0 307.5 123t185.5 408q25 118 27.5 208t-15.5 151t-56 99.5t-91 55t-125 16.5 q-89 0 -162.5 -27.5t-138 -87.5t-113 -164.5t-79.5 -250.5q-25 -118 -27.5 -208.5zM559 1559q13 16 27 20l188 -311q-11 -14 -24 -17z" />
<glyph unicode="&#xf3;" horiz-adv-x="1097" d="M125 539q62 295 193 427t331 132t274.5 -132t12.5 -427t-193 -427t-331 -132t-274.5 132t-12.5 427zM126.5 330.5q-2.5 -90.5 15.5 -151t56.5 -99t91.5 -55.5t124 -17q183 0 307.5 123t185.5 408q25 118 27.5 208t-15.5 151t-56 99.5t-91 55t-125 16.5 q-89 0 -162.5 -27.5t-138 -87.5t-113 -164.5t-79.5 -250.5q-25 -118 -27.5 -208.5zM539 1266l321 311q12 -2 19 -21l-322 -307q-14 3 -18 17z" />
<glyph unicode="&#xf4;" horiz-adv-x="1097" d="M125 539q62 295 193 427t331 132t274.5 -132t12.5 -427t-193 -427t-331 -132t-274.5 132t-12.5 427zM126.5 330.5q-2.5 -90.5 15.5 -151t56.5 -99t91.5 -55.5t124 -17q183 0 307.5 123t185.5 408q25 118 27.5 208t-15.5 151t-56 99.5t-91 55t-125 16.5 q-89 0 -162.5 -27.5t-138 -87.5t-113 -164.5t-79.5 -250.5q-25 -118 -27.5 -208.5zM410 1251l303 207h26l213 -207q-3 -17 -20 -20l-207 201l-303 -201q-12 5 -12 20z" />
<glyph unicode="&#xf5;" horiz-adv-x="1097" d="M125 539q62 295 193 427t331 132t274.5 -132t12.5 -427t-193 -427t-331 -132t-274.5 132t-12.5 427zM126.5 330.5q-2.5 -90.5 15.5 -151t56.5 -99t91.5 -55.5t124 -17q183 0 307.5 123t185.5 408q25 118 27.5 208t-15.5 151t-56 99.5t-91 55t-125 16.5 q-89 0 -162.5 -27.5t-138 -87.5t-113 -164.5t-79.5 -250.5q-25 -118 -27.5 -208.5zM481 1360q2 3 5 9t15 20.5t26.5 25.5t39 20t51.5 9q32 0 63.5 -20t66 -40t73.5 -20q68 0 109 68q18 -4 24 -15q-2 -3 -5.5 -9t-16 -20.5t-27.5 -25.5t-40 -20t-52 -9q-47 0 -107 41t-98 41 q-30 0 -55.5 -17.5t-36.5 -34.5l-10 -17q-20 3 -25 14z" />
<glyph unicode="&#xf6;" horiz-adv-x="1097" d="M125 539q62 295 193 427t331 132t274.5 -132t12.5 -427t-193 -427t-331 -132t-274.5 132t-12.5 427zM126.5 330.5q-2.5 -90.5 15.5 -151t56.5 -99t91.5 -55.5t124 -17q183 0 307.5 123t185.5 408q25 118 27.5 208t-15.5 151t-56 99.5t-91 55t-125 16.5 q-89 0 -162.5 -27.5t-138 -87.5t-113 -164.5t-79.5 -250.5q-25 -118 -27.5 -208.5zM547 1389l8 41q15 8 31 8q8 0 14.5 -2t9.5 -4l2 -2l-8 -41q-13 -9 -31 -9q-7 0 -13.5 2t-9.5 4zM821 1389l8 41q15 8 31 8q8 0 15 -2t9 -4l3 -2l-8 -41q-13 -9 -31 -9q-7 0 -14 2t-10 4z " />
<glyph unicode="&#xf7;" horiz-adv-x="1150" d="M184 580q-3 15 6 30h764q3 -15 -6 -30h-764zM469 248l8 41q15 8 31 8q8 0 15 -2t9 -4l3 -2l-9 -41q-12 -8 -30 -8q-7 0 -14 2t-10 4zM606 899l10 41q13 8 29 8q8 0 15.5 -2t10.5 -4l3 -2l-10 -41q-13 -8 -31 -8q-7 0 -14 2t-10 4z" />
<glyph unicode="&#xf8;" horiz-adv-x="1097" d="M68 -68l100 134q-116 134 -43 473q62 295 193 427t331 132q162 0 238 -82l102 135q17 0 23 -12l-109 -144q101 -132 33 -456q-62 -295 -193 -427t-331 -132q-151 0 -226 69l-96 -129q-16 0 -22 12zM154 539q-69 -322 34 -447l680 897q-72 80 -225 80q-184 0 -306.5 -122 t-182.5 -408zM207 74q69 -66 211 -66q90 0 162.5 27.5t135.5 88t111 164.5t80 251q65 306 -24 430z" />
<glyph unicode="&#xf9;" horiz-adv-x="1128" d="M119 293l166 780q17 11 28 0l-163 -778q-29 -132 31 -209.5t192 -77.5q275 0 465 307l159 758q18 11 29 0l-227 -1069q-15 -11 -29 0l53 248q-188 -272 -461 -272q-141 0 -207 86t-36 227zM573 1559q13 16 27 20l188 -311q-11 -14 -24 -17z" />
<glyph unicode="&#xfa;" horiz-adv-x="1128" d="M119 293l166 780q17 11 28 0l-163 -778q-29 -132 31 -209.5t192 -77.5q275 0 465 307l159 758q18 11 29 0l-227 -1069q-15 -11 -29 0l53 248q-188 -272 -461 -272q-141 0 -207 86t-36 227zM590 1282l301 293q11 -2 17 -18l1 -3l-303 -288q-13 3 -16 16z" />
<glyph unicode="&#xfb;" horiz-adv-x="1128" d="M119 293l166 780q17 11 28 0l-163 -778q-29 -132 31 -209.5t192 -77.5q275 0 465 307l159 758q18 11 29 0l-227 -1069q-15 -11 -29 0l53 248q-188 -272 -461 -272q-141 0 -207 86t-36 227zM449 1270l274 188h27l200 -194q-4 -18 -20 -21l-197 189l-272 -183q-12 5 -12 21 z" />
<glyph unicode="&#xfc;" horiz-adv-x="1128" d="M119 293l166 780q17 11 28 0l-163 -778q-29 -132 31 -209.5t192 -77.5q275 0 465 307l159 758q18 11 29 0l-227 -1069q-15 -11 -29 0l53 248q-188 -272 -461 -272q-141 0 -207 86t-36 227zM547 1395l8 41q15 8 31 8q8 0 14.5 -2t9.5 -4l2 -2l-8 -41q-13 -9 -31 -9 q-7 0 -13.5 2t-9.5 4zM821 1395l8 41q15 8 31 8q8 0 15 -2t9 -4l3 -2l-8 -41q-13 -9 -31 -9q-7 0 -14 2t-10 4z" />
<glyph unicode="&#xfd;" horiz-adv-x="1128" d="M-4 -469q0 17 16 27q123 -41 254 -41q122 0 202.5 24.5t141 89t99 163.5t71.5 259l43 199q-188 -272 -461 -272q-141 0 -207 86t-36 227l166 780q17 11 28 0l-163 -778q-29 -132 31 -209.5t192 -77.5q275 0 465 307l159 758q18 11 29 0l-217 -1020q-28 -134 -61 -226.5 t-76 -160t-102.5 -105.5t-133.5 -55.5t-176 -17.5q-65 0 -131 11t-99 21zM623 1270l319 311q12 -2 19 -20l-322 -308q-12 2 -16 17z" />
<glyph unicode="&#xfe;" d="M-43 -510l434 2038q5 4 17 4q5 0 8.5 -1t4.5 -2l1 -1l-150 -703q68 121 179 197t235 76q203 0 276 -138t13 -421q-119 -559 -512 -559q-119 0 -204.5 69t-111.5 193l-159 -752q-5 -4 -15 -4zM176 377q-16 -88 13.5 -171.5t103 -139.5t174.5 -56q364 0 477 529 q57 269 -10 398.5t-256 129.5q-79 0 -155.5 -37t-133 -96t-96.5 -128.5t-55 -137.5z" />
<glyph unicode="&#xff;" horiz-adv-x="1128" d="M-4 -469q0 17 16 27q123 -41 254 -41q122 0 202.5 24.5t141 89t99 163.5t71.5 259l43 199q-188 -272 -461 -272q-141 0 -207 86t-36 227l166 780q17 11 28 0l-163 -778q-29 -132 31 -209.5t192 -77.5q275 0 465 307l159 758q18 11 29 0l-217 -1020q-28 -134 -61 -226.5 t-76 -160t-102.5 -105.5t-133.5 -55.5t-176 -17.5q-65 0 -131 11t-99 21zM549 1399l8 41q15 8 31 8q8 0 14.5 -2t9.5 -4l2 -2l-8 -41q-13 -8 -31 -8q-7 0 -13.5 2t-9.5 4zM844 1399l8 41q15 8 31 8q8 0 14.5 -2t8.5 -4l3 -2l-8 -41q-13 -8 -31 -8q-7 0 -13.5 2t-9.5 4z" />
<glyph unicode="&#x152;" horiz-adv-x="1656" d="M149.5 394.5q-7.5 143.5 32.5 342.5q84 385 272.5 571.5t456.5 186.5q58 0 168 -20h627q4 -17 -6 -31h-617l-145 -680h535q4 -16 -7 -31h-534l-150 -702h637q2 -17 -6 -31h-649q-74 -20 -174 -20q-131 0 -224.5 43.5t-151 135.5t-65 235.5zM182.5 406q7.5 -138 62.5 -226 t142 -129t209 -41q82 0 156 19l301 1419q-58 16 -148 16q-122 0 -227 -41.5t-195.5 -127.5t-159.5 -227.5t-110 -330.5q-38 -193 -30.5 -331z" />
<glyph unicode="&#x153;" horiz-adv-x="1710" d="M125 539q63 296 188.5 427.5t319.5 131.5q155 0 225 -85t60 -272q71 180 183.5 268.5t244.5 88.5q83 0 142.5 -29.5t87.5 -79.5t37 -116.5t-9 -141.5q-12 -56 -28.5 -106t-27.5 -73l-10 -22h-647q-52 -260 1.5 -390t223.5 -130q93 0 171.5 33t105.5 57q21 -6 18 -24 q-4 -4 -12.5 -10.5t-37.5 -23t-61.5 -29t-84 -23t-105.5 -10.5q-139 0 -212 91t-64 269q-70 -189 -180.5 -274.5t-262.5 -85.5q-193 0 -261 131t-5 428zM126 330.5q-4 -89.5 11.5 -150.5t51.5 -99t86.5 -54.5t121.5 -16.5q173 0 286 125.5t173 407.5q32 148 32.5 250 t-30.5 162.5t-87 87t-142 26.5q-87 0 -157 -27t-131 -87.5t-107.5 -164.5t-77.5 -251q-26 -119 -30 -208.5zM897 561h623l17 41q20 58 36 131q17 65 10 125.5t-30.5 107t-77.5 75t-132 28.5q-155 0 -271 -127.5t-175 -380.5z" />
<glyph unicode="&#x178;" horiz-adv-x="1230" d="M238 1470q6 5 20 5q4 0 7.5 -1.5t4.5 -2.5l2 -1l344 -811l711 811q5 5 21 5l18 -5l-737 -843l-133 -623q-7 -4 -17 -4l-14 4l133 621zM670 1673l8 41q15 8 31 8q8 0 14.5 -2t8.5 -4l3 -2l-8 -41q-13 -8 -31 -8q-7 0 -13.5 2t-9.5 4zM944 1673l8 41q15 8 31 8q8 0 15 -2 t10 -4l2 -2l-9 -41q-12 -8 -30 -8q-7 0 -14 2t-10 4z" />
<glyph unicode="&#x2c6;" horiz-adv-x="811" d="M68 1171l303 207h26l213 -207q-5 -13 -20 -18l-207 199l-299 -201q-16 3 -16 20z" />
<glyph unicode="&#x2dc;" horiz-adv-x="669" d="M98 1290q2 3 5 9t15.5 20.5t27 25.5t39 20t51.5 9q32 0 63.5 -20t65.5 -40t73 -20q68 0 109 68q19 -4 24 -14q-2 -3 -5.5 -9t-16 -20.5t-27.5 -25.5t-40 -20t-52 -9q-38 0 -73 20.5t-67.5 41t-64.5 20.5q-30 0 -55.5 -17.5t-35.5 -34.5l-11 -18q-20 3 -25 14z" />
<glyph unicode="&#x2000;" horiz-adv-x="952" />
<glyph unicode="&#x2001;" horiz-adv-x="1905" />
<glyph unicode="&#x2002;" horiz-adv-x="952" />
<glyph unicode="&#x2003;" horiz-adv-x="1905" />
<glyph unicode="&#x2004;" horiz-adv-x="635" />
<glyph unicode="&#x2005;" horiz-adv-x="476" />
<glyph unicode="&#x2006;" horiz-adv-x="317" />
<glyph unicode="&#x2007;" horiz-adv-x="317" />
<glyph unicode="&#x2008;" horiz-adv-x="238" />
<glyph unicode="&#x2009;" horiz-adv-x="381" />
<glyph unicode="&#x200a;" horiz-adv-x="105" />
<glyph unicode="&#x2010;" horiz-adv-x="710" d="M168 575q-3 16 6 31h352q3 -16 -6 -31h-352z" />
<glyph unicode="&#x2011;" horiz-adv-x="710" d="M168 575q-3 16 6 31h352q3 -16 -6 -31h-352z" />
<glyph unicode="&#x2012;" horiz-adv-x="710" d="M168 575q-3 16 6 31h352q3 -16 -6 -31h-352z" />
<glyph unicode="&#x2013;" horiz-adv-x="1124" d="M170 575q-3 16 6 31h762q3 -16 -6 -31h-762z" />
<glyph unicode="&#x2014;" horiz-adv-x="1636" d="M170 575q-3 16 6 31h1274q3 -16 -6 -31h-1274z" />
<glyph unicode="&#x2018;" horiz-adv-x="380" d="M293 1288l6 35q9 40 32.5 77.5t42.5 55.5l19 17l15 -13q-7 -7 -18 -19t-32.5 -45.5t-27.5 -62.5l20 -4l-8 -41q-9 -4 -27 -4z" />
<glyph unicode="&#x2019;" horiz-adv-x="372" d="M287 1300q61 61 75 127l-18 5l8 41q7 4 25 4l24 -4l-8 -35q-8 -40 -31 -77.5t-42 -54.5l-19 -18z" />
<glyph unicode="&#x201a;" horiz-adv-x="317" d="M-43 -131q7 7 18 19t32.5 45.5t27.5 62.5l-21 4l9 41q8 4 26 4l23 -4l-6 -35q-6 -25 -17.5 -49.5t-24.5 -42t-25 -31t-20 -19.5l-8 -7z" />
<glyph unicode="&#x201c;" horiz-adv-x="528" d="M293 1290l6 35q9 40 32.5 77.5t42.5 55.5l19 17l15 -13q-7 -7 -18 -19t-32 -45.5t-26 -62.5l18 -4l-8 -41q-9 -4 -27 -4zM438 1290l6 35q9 40 32.5 77.5t43.5 55.5l19 17l14 -13q-7 -7 -18 -19t-32 -45.5t-26 -62.5l19 -4l-9 -41q-8 -4 -26 -4z" />
<glyph unicode="&#x201d;" horiz-adv-x="516" d="M285 1296q61 61 75 127l-20 4l8 41q9 5 27 5q7 0 12.5 -1.5t7.5 -2.5l2 -1l-6 -34q-9 -40 -32.5 -77.5t-42.5 -54.5l-19 -18zM430 1296q7 7 17.5 19t31.5 45.5t27 62.5l-21 4l9 41q8 5 26 5q7 0 13 -1.5t8 -2.5l2 -1l-6 -34q-9 -40 -32.5 -77.5t-42.5 -54.5l-20 -18z" />
<glyph unicode="&#x201e;" horiz-adv-x="462" d="M-43 -131q7 7 18 19t32.5 45.5t27.5 62.5l-21 4l9 41q8 4 26 4l23 -4l-6 -35q-6 -25 -17.5 -49.5t-24.5 -42t-25 -31t-20 -19.5l-8 -7zM102 -131q7 7 18 19t32.5 45.5t27.5 62.5l-20 4l8 41q9 4 27 4l22 -4l-6 -35q-9 -40 -32.5 -77t-42.5 -55l-19 -17z" />
<glyph unicode="&#x2022;" horiz-adv-x="557" d="M219 578q4 21 20 33t37 12q46 0 37 -45q-10 -43 -57 -43q-21 0 -31 11.5t-6 31.5z" />
<glyph unicode="&#x2026;" horiz-adv-x="894" d="M29 2l8 41q15 8 31 8q8 0 14.5 -2t9.5 -4l2 -2l-8 -41q-13 -8 -31 -8q-7 0 -13.5 2t-9.5 4zM295 2l8 41q15 8 31 8q8 0 14.5 -2t9.5 -4l2 -2l-8 -41q-12 -8 -30 -8q-7 0 -14 2t-10 4zM557 2l8 41q15 8 31 8q8 0 15 -2t9 -4l3 -2l-9 -41q-12 -8 -30 -8q-7 0 -14 2t-10 4z " />
<glyph unicode="&#x202f;" horiz-adv-x="381" />
<glyph unicode="&#x2039;" horiz-adv-x="696" d="M104 553q1 4 3 7t4 4l2 1l526 477q11 -2 14 -18l-516 -471l318 -471q-6 -18 -25 -21l-324 480z" />
<glyph unicode="&#x203a;" horiz-adv-x="696" d="M10 82l518 471l-315 471q9 15 23 18l325 -477q2 -4 0 -12l-6 -12l-528 -480q-17 4 -17 21z" />
<glyph unicode="&#x205f;" horiz-adv-x="476" />
<glyph unicode="&#x20ac;" horiz-adv-x="1179" d="M98 508l13 31h155q5 43 27 145q17 84 39 156h-164l12 30h160q27 88 59 159.5t81.5 141.5t108.5 117t141 76t179 29q58 0 108 -6t80.5 -15t52.5 -18t31 -15l9 -6q-4 -18 -16 -24q-10 6 -30 15t-89 23.5t-146 14.5q-92 0 -169.5 -26.5t-133.5 -70.5t-102 -109t-76 -133.5 t-55 -152.5h592q0 -10 -13 -30h-590q-19 -69 -36 -156q-23 -111 -27 -145h512q0 -13 -12 -31h-504q-9 -70 -10 -129t7.5 -117t32 -102.5t61.5 -79t98 -52.5t139 -18q84 0 160.5 14t111.5 28l35 14q6 -9 6 -23q-12 -7 -36.5 -17.5t-109 -28t-180.5 -17.5q-85 0 -149 20 t-104 58t-64.5 85.5t-33 109.5t-7.5 123t10 132h-164z" />
<glyph unicode="&#x2122;" horiz-adv-x="1296" d="M258 1458q1 1 2 5t2.5 7t3.5 5h416q4 -4 0 -17q0 -5 -6 -14h-191l-118 -553q-5 -6 -17 -6q-4 0 -7.5 1.5t-4.5 3.5l-2 1l119 553h-195q-2 4 -2 14zM674 891l123 577q23 6 39 0l112 -399l293 399q22 7 37 0l-123 -577q-6 -4 -14 -4l-17 4l60 278l55 254l-276 -374 q-7 -7 -21 -7q-6 0 -10 2t-5 4l-1 1l-109 374l-53 -252l-62 -280q-6 -4 -14 -4z" />
<glyph unicode="&#x25fc;" horiz-adv-x="1075" d="M0 0v1075h1075v-1075h-1075z" />
</font>
</defs>
</svg>
