<?xml version="1.0" standalone="no"?>
<!DOCTYPE svg PUBLIC "-//W3C//DTD SVG 1.1//EN" "http://www.w3.org/Graphics/SVG/1.1/DTD/svg11.dtd" >
<svg xmlns="http://www.w3.org/2000/svg">
<metadata></metadata>
<defs>
<font id="globerthin" horiz-adv-x="1126" >
<font-face units-per-em="2048" ascent="1536" descent="-512" />
<missing-glyph horiz-adv-x="538" />
<glyph unicode="&#xfb01;" horiz-adv-x="1114" d="M92 1049q-9 12 0 28h131v131q0 168 79 248t278 80q73 0 152.5 -13t123.5 -27l43 -13q1 -7 -2 -15.5t-8 -11.5q-16 6 -44.5 14.5t-109 22.5t-151.5 14q-99 0 -164.5 -18t-102 -57.5t-51 -91.5t-14.5 -130v-133h657v-1073q-2 -4 -16 -4l-12 4v1045h-629v-1045q-2 -4 -14 -4 l-15 4v1045h-131z" />
<glyph unicode="&#xfb02;" horiz-adv-x="1118" d="M92 1049q-6 14 0 28h131v123q0 78 15 136t50.5 105t101 71t159.5 24q87 0 177 -17.5t136 -34.5l47 -18v-1462q-14 -8 -28 0v1442q-162 61 -322 61q-91 0 -152.5 -20t-94.5 -60.5t-46.5 -92t-13.5 -124.5v-133h295q6 -14 0 -28h-295v-1045q-2 -4 -14 -4l-15 4v1045h-131z " />
<glyph horiz-adv-x="0" />
<glyph horiz-adv-x="682" />
<glyph unicode=" "  horiz-adv-x="538" />
<glyph unicode="&#x09;" horiz-adv-x="538" />
<glyph unicode="&#xa0;" horiz-adv-x="538" />
<glyph unicode="!" horiz-adv-x="462" d="M203 2v41q12 8 28 8q8 0 15.5 -2t10.5 -4l3 -2v-41q-11 -8 -29 -8q-7 0 -14 2t-11 4zM217 291v1179q15 6 31 0l-4 -1179q-14 -7 -27 0z" />
<glyph unicode="&#x22;" horiz-adv-x="569" d="M174 1470q8 5 16 5q5 0 9.5 -1.5t6.5 -2.5l1 -1l-4 -385q-2 0 -6 -1t-7 -1l-12 2zM362 1470q5 5 17 5q5 0 9 -1.5t6 -2.5l1 -1l-4 -385q-2 -2 -12 -2l-12 2z" />
<glyph unicode="#" horiz-adv-x="1325" d="M109 317q-6 15 0 31h247l160 563h-235q-5 10 -5 15q0 6 5 16h243l94 330q16 5 31 0l-94 -330h395l94 330q16 5 31 0l-94 -330h231q5 -10 5 -16l-5 -15h-239l-160 -563h227q6 -15 0 -31h-235l-88 -311q-15 -5 -31 0l88 311h-395l-88 -311q-15 -5 -31 0l88 311h-239z M387 348h395l160 563h-395z" />
<glyph unicode="$" horiz-adv-x="1136" d="M139 70q3 18 13 28q20 -7 54.5 -17t133 -27t186.5 -17q210 0 328.5 82t118.5 235q0 73 -28.5 127.5t-76.5 86.5t-110.5 55t-131.5 39.5l-138 33t-131.5 41.5t-110.5 59.5t-76.5 93t-28.5 136.5q0 151 106 240.5t300 99.5l-4 242q8 4 20 4l23 -4l-8 -240q103 1 191.5 -9 t125.5 -20l37 -10q0 -21 -10 -31q-140 39 -326 39q-210 0 -317 -84t-107 -227q0 -73 28.5 -127t76.5 -86.5t110.5 -55.5t131.5 -39t138 -32.5t131.5 -41.5t110.5 -60t76.5 -94t28.5 -138q0 -152 -114 -245.5t-310 -102.5l4 -252q-7 -4 -19 -4l-20 4l4 252 q-111 -1 -213.5 15.5t-149.5 33.5z" />
<glyph unicode="%" horiz-adv-x="1509" d="M123 1061q0 354 254 354q256 0 256 -354t-256 -354q-124 0 -189 84t-65 270zM152 1061q0 -177 58 -251.5t167 -74.5t167 74.5t58 251.5q0 325 -225 325q-108 0 -166.5 -75t-58.5 -250zM352 -16l797 1450q17 6 35 0l-797 -1450q-17 -6 -35 0zM879 334q0 354 254 354 q256 0 256 -354t-256 -354q-124 0 -189 84t-65 270zM907 334q0 -177 58.5 -251.5t167.5 -74.5t167 74.5t58 251.5q0 325 -225 325q-109 0 -167.5 -75t-58.5 -250z" />
<glyph unicode="&#x26;" horiz-adv-x="1290" d="M119 324q0 76 23.5 139t69.5 111.5t95.5 83.5t118.5 71q-70 170 -70 318q0 173 82 269.5t230 96.5q123 0 192.5 -72.5t69.5 -169.5q0 -48 -12 -90.5t-29 -74.5t-49.5 -64.5t-59 -54t-73.5 -48.5t-76 -42t-83 -41.5t-81 -40.5q136 -296 446 -516q145 154 181 358 q18 -3 30 -20q-47 -205 -184 -357q161 -105 279 -151q3 -18 -13 -31q-137 55 -288 158q-179 -176 -426 -176q-75 0 -140.5 20t-118 60.5t-83.5 108t-31 155.5zM152 322q0 -145 95 -228.5t247 -83.5q226 0 397 164q-312 230 -451 526q-52 -27 -90.5 -52t-77.5 -59.5t-64 -72 t-40.5 -87.5t-15.5 -107zM389 1051q0 -152 64 -308q25 13 70 35.5t71.5 36t66.5 35t64.5 39.5t55 42t49 48t35.5 53.5t24.5 63t7.5 71.5q0 97 -64 155t-174 58q-127 0 -198.5 -87t-71.5 -242z" />
<glyph unicode="'" horiz-adv-x="380" d="M174 1470q4 5 16 5q5 0 9.5 -1.5t6.5 -2.5l1 -1l-4 -385q-13 -6 -25 0z" />
<glyph unicode="(" horiz-adv-x="569" d="M145 655q0 132 18 258.5t46 223.5t62.5 184t69 147.5t62.5 105t46 66.5l18 21q17 -4 25 -16q-7 -7 -18 -21t-43.5 -63t-62.5 -104t-66 -143.5t-62 -182t-44 -219.5t-18 -257t17.5 -256t45 -221t61 -181t67 -144t61 -102.5t44.5 -64.5l18 -20q-5 -12 -21 -16 q-3 -1 -35.5 40.5t-81 128.5t-95.5 201t-80.5 284t-33.5 351z" />
<glyph unicode=")" horiz-adv-x="569" d="M78 -334q7 7 18 21t43.5 63t62 103.5t65.5 143t62 182t44 219.5t18 257t-17.5 256t-45 221t-60.5 181.5t-66.5 144.5t-61 102.5t-44.5 63.5l-18 21q8 13 24 16q7 -8 18.5 -22t45 -64.5t64 -106.5t67.5 -146t63.5 -185.5t45 -222.5t18.5 -259q0 -181 -33.5 -351 t-80.5 -284t-95.5 -201t-81 -128.5t-35.5 -40.5q-15 4 -20 16z" />
<glyph unicode="*" horiz-adv-x="761" d="M168 1274q0 15 8 26l189 -57v187q14 5 30 0v-187l189 57q10 -10 10 -26l-193 -60l123 -167q-14 -15 -22 -17l-123 166l-121 -168q-19 7 -25 16l123 170z" />
<glyph unicode="+" horiz-adv-x="954" d="M143 594q0 6 1 10t2 5l1 1h316v314q2 4 14 4l17 -4v-314h313q4 -2 4 -16q0 -5 -1 -8.5t-2 -4.5l-1 -1h-313v-316q-3 -4 -17 -4q-5 0 -8.5 1t-4.5 2l-1 1v316h-316q-4 2 -4 14z" />
<glyph unicode="," horiz-adv-x="364" d="M129 -131q5 7 13.5 19t22 45.5t13.5 62.5l-20 4v41q6 4 24 4l25 -4v-35q0 -40 -15.5 -77.5t-31.5 -54.5l-15 -17z" />
<glyph unicode="-" horiz-adv-x="716" d="M182 575q-6 15 0 31h353q6 -16 0 -31h-353z" />
<glyph unicode="." horiz-adv-x="331" d="M137 2v41q13 8 29 8q8 0 15 -2t11 -4l3 -2v-41q-11 -8 -29 -8q-7 0 -14.5 2t-11.5 4z" />
<glyph unicode="/" horiz-adv-x="831" d="M55 -90l690 1620q17 7 33 0l-690 -1620q-16 -7 -33 0z" />
<glyph unicode="0" horiz-adv-x="1273" d="M164 696q0 371 118 544t353 173q236 0 355.5 -171.5t119.5 -545.5t-119.5 -545t-355.5 -171t-353.5 171t-117.5 545zM195 696q0 -347 107.5 -516.5t332.5 -169.5q228 0 336 169t108 517q0 349 -108 517.5t-336 168.5q-225 0 -332.5 -169t-107.5 -517z" />
<glyph unicode="1" horiz-adv-x="782" d="M92 1049q129 34 243 123.5t187 216.5q3 4 15 4l12 -4v-1385q-15 -9 -31 0v1325q-70 -114 -180.5 -194t-235.5 -115q-14 10 -10 29z" />
<glyph unicode="2" horiz-adv-x="1075" d="M131 137q0 60 10 111.5t25 89t41 72.5t50 57.5t62 48.5t65.5 42t71 40.5t70.5 40.5q18 11 58.5 35t58 35t52.5 33.5t51 36t43 37t40.5 41.5t31 44.5t25 51.5t13.5 56.5t6 65.5t-5 64.5t-17 67.5t-38 66.5t-63.5 55t-97 39.5t-135.5 14q-196 0 -354 -69q-11 8 -11 26 q16 8 45 20.5t124.5 33t197.5 20.5q65 0 120.5 -11t105 -36t84.5 -63.5t55 -96.5t20 -131q0 -41 -6 -77t-21.5 -69t-31 -58.5t-46.5 -55t-54.5 -49.5t-68.5 -50t-75.5 -48.5t-87.5 -53.5q-25 -15 -69 -38t-74.5 -40.5t-70 -44t-66.5 -57.5t-51.5 -73t-37 -98.5t-12.5 -125.5 q0 -81 6 -106h741q9 -15 0 -31h-768q-12 65 -12 137z" />
<glyph unicode="3" horiz-adv-x="1042" d="M119 43q0 18 12 27q149 -60 309 -60q204 0 309 85t105 249q0 90 -28 159t-70 108.5t-101.5 64.5t-113 33t-113.5 8h-76q-3 14 0 31h76q56 0 102 5.5t102 25.5t94.5 54.5t64.5 98t26 149.5q0 140 -88.5 220.5t-267.5 80.5q-77 0 -154 -13t-115 -27l-38 -13q-5 2 -9 10 t-4 15q15 7 43 16.5t112.5 26t166.5 16.5q97 0 172.5 -26t121 -71.5t68.5 -103t23 -125.5q0 -302 -287 -356q164 -27 244 -129t80 -254q0 -180 -112.5 -274t-330.5 -94q-86 0 -166.5 15.5t-118.5 31.5z" />
<glyph unicode="4" horiz-adv-x="1167" d="M88 403l4 17l713 969q4 4 18 4l13 -4v-969h231q4 -3 4 -17q0 -5 -1 -8.5t-2 -4.5l-1 -1h-231v-385q-5 -4 -17 -4q-6 0 -9.5 1t-3.5 2l-1 1v385h-713q-4 2 -4 14zM131 420h674v915z" />
<glyph unicode="5" horiz-adv-x="1052" d="M129 27q-3 15 8 26q127 -45 281 -45q237 0 351 87.5t114 269.5q0 80 -18.5 141.5t-64 115.5t-134.5 83.5t-217 29.5q-52 0 -110.5 -6t-90.5 -11.5t-43 -8.5v684h649q5 -15 0 -31h-618v-617q108 21 213 21q242 0 353 -102.5t111 -298.5q0 -190 -117.5 -287.5t-369.5 -97.5 q-90 0 -164.5 12t-103.5 24z" />
<glyph unicode="6" horiz-adv-x="1130" d="M158 526q0 210 52.5 372.5t148 266t220.5 160.5t279 68q6 -16 0 -29q-574 -55 -659 -657q178 145 397 145q200 0 302.5 -110.5t102.5 -325.5q0 -204 -117 -320t-304 -116q-92 0 -167.5 32t-133 96.5t-89.5 171t-32 246.5zM190 518q0 -251 107 -379.5t283 -128.5 q173 0 282 106.5t109 299.5q0 200 -94 302.5t-277 102.5q-223 0 -405 -151q-5 -39 -5 -152z" />
<glyph unicode="7" horiz-adv-x="1009" d="M82 1376l4 17h821q4 -16 4 -21q1 -108 -28 -204.5t-76 -173t-104 -152t-114.5 -159t-105 -177t-77 -223t-29.5 -279.5q-6 -5 -14 -5t-13 3l-4 2q0 150 29.5 281t76.5 225.5t104 179.5t114.5 160.5t104.5 150.5t76.5 167t29.5 194h-795q-4 4 -4 14z" />
<glyph unicode="8" horiz-adv-x="1189" d="M152 315q0 73 25 142t58.5 116.5t80.5 92t78.5 66.5t64.5 42q-59 28 -102 57t-81 68t-57.5 90.5t-19.5 112.5q0 148 103 229.5t288 81.5q186 0 289.5 -84t103.5 -233q0 -64 -19.5 -123t-47.5 -100.5t-66 -78.5t-67.5 -58t-59.5 -38q71 -29 122.5 -59.5t98.5 -74.5 t71.5 -105t24.5 -137q0 -161 -117.5 -251.5t-326.5 -90.5t-326.5 88.5t-117.5 246.5zM182 317q0 -145 109.5 -226t304.5 -81t304.5 82t109.5 230q0 49 -13 92t-32 75t-54 62.5t-65.5 50.5t-80.5 44t-85.5 38.5t-94.5 37.5t-93 38q-24 -11 -57.5 -33.5t-79.5 -64t-83 -90 t-63.5 -116.5t-26.5 -139zM229 1104q0 -35 7.5 -67t19 -57.5t32.5 -50t40 -42t50.5 -37t54.5 -32t61.5 -29t63 -26t66 -25.5t64.5 -25q43 21 84 52t84 78t69.5 113t26.5 140q0 135 -96 210.5t-266 75.5t-265.5 -73.5t-95.5 -204.5z" />
<glyph unicode="9" horiz-adv-x="1130" d="M129 977q0 204 117.5 320t304.5 116q92 0 167.5 -32t133 -97t89.5 -171.5t32 -246.5q0 -168 -36.5 -307t-101.5 -237.5t-156 -168.5t-197.5 -107t-229.5 -46q-6 16 0 29q283 27 460 190t220 467q-178 -145 -397 -145q-191 0 -298.5 115.5t-107.5 320.5zM160 977 q0 -191 98 -298.5t272 -107.5q223 0 406 152q4 31 4 151q0 251 -106.5 379.5t-282.5 128.5q-174 0 -282.5 -106t-108.5 -299z" />
<glyph unicode=":" horiz-adv-x="417" d="M180 2v41q13 8 29 8q8 0 15.5 -2t10.5 -4l3 -2v-41q-11 -8 -29 -8q-7 0 -14.5 2t-10.5 4zM180 815v41q13 8 29 8q8 0 15 -2t10 -4l4 -2v-41q-11 -8 -29 -8q-7 0 -14.5 2t-10.5 4z" />
<glyph unicode=";" horiz-adv-x="446" d="M176 -131q5 7 13.5 19t22 45.5t13.5 62.5l-20 4v41q6 4 24 4l25 -4v-35q0 -40 -15 -77t-31 -55l-15 -17zM201 815v41q12 8 28 8q8 0 15 -2t10 -4l4 -2v-41q-11 -8 -29 -8q-7 0 -14 2t-11 4z" />
<glyph unicode="&#x3c;" horiz-adv-x="983" d="M133 594l4 22l656 316q4 -5 4 -17l-4 -18l-631 -303l631 -303q4 -9 4 -19l-4 -16l-656 315q-4 11 -4 23z" />
<glyph unicode="=" horiz-adv-x="1032" d="M188 410q-6 15 0 30h656q6 -15 0 -30h-656zM188 741q-6 15 0 31h656q6 -16 0 -31h-656z" />
<glyph unicode="&#x3e;" horiz-adv-x="983" d="M186 272l4 19l631 303l-631 303q-4 6 -4 18l4 17l656 -316q4 -12 4 -22l-4 -23l-656 -315q-4 4 -4 16z" />
<glyph unicode="?" horiz-adv-x="876" d="M96 1356q14 6 39.5 15.5t105 25.5t160.5 16q96 0 167.5 -27t110.5 -73t57 -97.5t18 -109.5q0 -83 -22 -149.5t-57.5 -111.5t-78 -85.5t-85 -83t-78 -92.5t-57.5 -125t-22 -170q-6 -4 -16 -4l-14 4q0 98 22 176.5t57 129.5t77.5 94.5t85.5 83t78 83t57 106.5t22 142 q0 55 -16.5 102t-51.5 88t-99.5 64.5t-152.5 23.5q-81 0 -155 -14t-108 -28l-34 -13q-6 3 -9 13.5t-1 15.5zM311 2v41q13 8 29 8q8 0 15 -2t11 -4l3 -2v-41q-11 -8 -29 -8q-7 0 -14.5 2t-11.5 4z" />
<glyph unicode="@" horiz-adv-x="1878" d="M152 571q0 184 58.5 338t162 260t248 165t313.5 59q187 0 337 -58t247 -161t148.5 -244t51.5 -309q0 -220 -79 -333.5t-234 -113.5q-73 0 -131.5 50t-69.5 155q-26 -91 -95 -148t-169 -57q-163 0 -246.5 100t-83.5 295t84 296.5t246 101.5q94 0 160.5 -51t95.5 -125v170 q7 4 15 4t12 -2l4 -2v-510q0 -127 49.5 -186.5t132.5 -59.5q137 0 208 106t71 310q0 338 -201.5 539.5t-552.5 201.5q-158 0 -296 -56t-239 -157t-159 -250.5t-58 -327.5q0 -366 192.5 -571t536.5 -205q349 0 588 187q16 -6 19 -23q-255 -195 -607 -195q-358 0 -558.5 213 t-200.5 594zM641 569q0 -180 74.5 -272t220.5 -92q116 0 186.5 79.5t73.5 182.5v197q1 69 -27.5 129.5t-90 101.5t-142.5 41q-146 0 -220.5 -92.5t-74.5 -274.5z" />
<glyph unicode="A" horiz-adv-x="1304" d="M51 2l596 1479q2 2 4 2l4 -2l598 -1479q-6 -4 -16 -4l-18 4l-187 465h-760l-186 -465q-6 -4 -18 -4zM285 498h735l-369 913z" />
<glyph unicode="B" horiz-adv-x="1280" d="M229 0v1475h455q92 0 163 -21.5t114.5 -56.5t71 -85t38 -101t10.5 -111q0 -75 -18.5 -136t-46.5 -98.5t-65.5 -64.5t-70 -39t-65.5 -17q36 -2 73 -12t81.5 -35.5t78.5 -64t57 -104.5t23 -150q0 -182 -101.5 -280.5t-334.5 -98.5h-463zM260 31h440q110 0 188 24 t123.5 70.5t66 108.5t20.5 145q0 175 -98 262.5t-302 87.5h-438v-698zM260 758h424q99 0 171 25t114 72t62 107.5t20 137.5q0 80 -18.5 140t-60.5 107.5t-116.5 72t-179.5 24.5h-416v-686z" />
<glyph unicode="C" horiz-adv-x="1138" d="M162 735q0 382 128 571t392 189q62 0 120 -6.5t96 -15.5t67 -18.5t42 -16.5l13 -6q0 -18 -12 -27q-14 7 -39.5 16.5t-109 26t-171.5 16.5q-116 0 -203.5 -36t-154.5 -118t-102 -226t-35 -349q0 -165 23 -290t64 -207t104 -133.5t136.5 -73t167.5 -21.5q96 0 181 15.5 t122 30.5l37 16q14 -6 14 -25q-5 -3 -14.5 -7.5t-42.5 -16t-71.5 -20.5t-101 -16t-130.5 -7q-265 0 -392.5 184t-127.5 571z" />
<glyph unicode="D" horiz-adv-x="1345" d="M229 0v1475h369q151 0 255.5 -34t180.5 -117t112 -227.5t36 -359.5q0 -172 -25.5 -299t-71.5 -211t-120 -134.5t-162 -71.5t-205 -21h-369zM260 31h332q145 0 245 32.5t173 112t107 217.5t34 344q0 167 -22 287.5t-64.5 201.5t-112 129.5t-155.5 68.5t-205 20h-332v-1413 z" />
<glyph unicode="E" horiz-adv-x="1138" d="M229 0v1475h777q6 -16 0 -31h-746v-680h643q6 -16 0 -31h-643v-702h766q3 -8 3 -15.5t-3 -15.5h-797z" />
<glyph unicode="F" horiz-adv-x="1091" d="M229 4v1471h781q3 -8 3 -15.5t-3 -15.5h-750v-696h647q6 -16 0 -31h-647v-713q-2 -4 -14 -4z" />
<glyph unicode="G" horiz-adv-x="1259" d="M160 737q0 376 139 567t401 191q101 0 192.5 -15.5t133.5 -31.5l41 -16q0 -18 -12 -27q-17 7 -48.5 16.5t-122.5 26t-177 16.5q-517 0 -517 -727q0 -164 26 -290t71 -208t111.5 -134t141.5 -73.5t167 -21.5q188 0 354 56v655h-428v31h457v-709q-17 -7 -49 -17.5 t-133.5 -28t-207.5 -17.5q-540 0 -540 757z" />
<glyph unicode="H" horiz-adv-x="1376" d="M229 4v1466q7 5 17 5l14 -5v-698h856v698q6 5 14 5l17 -5v-1466q-5 -4 -17 -4q-5 0 -8.5 1t-4.5 2l-1 1v737h-856v-737q-4 -4 -14 -4z" />
<glyph unicode="I" horiz-adv-x="489" d="M229 4v1466q5 5 17 5l14 -5v-1466q-4 -4 -16 -4z" />
<glyph unicode="J" horiz-adv-x="845" d="M68 41v6q0 17 14 23q12 -7 34.5 -17t92 -26.5t137.5 -16.5q131 0 189.5 63t58.5 222v1175q6 5 14 5l17 -5v-1175q0 -168 -63.5 -241.5t-221.5 -73.5q-65 0 -133 15t-103 31z" />
<glyph unicode="K" horiz-adv-x="1241" d="M229 4v1466q7 5 15 5l16 -5v-690h336l485 690q9 5 18 5t14 -3l5 -2l-495 -702l553 -764l-6 -2q-7 -2 -13 -2l-20 4l-539 746h-338v-746q-6 -4 -14 -4z" />
<glyph unicode="L" horiz-adv-x="1019" d="M229 0v1470q7 5 17 5l14 -5v-1439h696q4 -8 4 -15.5t-2 -11.5l-2 -4h-727z" />
<glyph unicode="M" horiz-adv-x="1761" d="M229 4v1466q11 5 22 5t23 -5l607 -1003l606 1003q11 5 22 5t23 -5v-1466q-4 -4 -16 -4l-15 4v1325l2 115l-600 -1000q-23 -10 -45 0l-600 1000l2 -115v-1325q-2 -4 -14 -4z" />
<glyph unicode="N" horiz-adv-x="1409" d="M229 4v1466q7 5 17 5q4 0 7.5 -1.5t4.5 -2.5l2 -1l797 -1261l98 -160q-6 84 -6 219v1202q4 5 16 5l15 -5v-1466q-7 -4 -15 -4l-16 4l-893 1419l4 -237v-1182q-8 -4 -16 -4z" />
<glyph unicode="O" horiz-adv-x="1388" d="M162 737q0 758 532 758q258 0 395.5 -185.5t137.5 -572.5t-138 -572t-395 -185t-394.5 185t-137.5 572zM193 737q0 -374 130.5 -550.5t370.5 -176.5q239 0 370.5 176.5t131.5 550.5t-131.5 550.5t-370.5 176.5q-240 0 -370.5 -176.5t-130.5 -550.5z" />
<glyph unicode="P" horiz-adv-x="1220" d="M229 4v1471h494q178 0 277.5 -109.5t99.5 -304.5q0 -194 -99.5 -303t-277.5 -109h-463v-645q-4 -4 -16 -4zM260 680h465q163 0 253.5 100t90.5 279q0 182 -90.5 283.5t-253.5 101.5h-465v-764z" />
<glyph unicode="Q" horiz-adv-x="1384" d="M160 737q0 374 135 566t397 192q263 0 398 -192.5t135 -565.5q0 -477 -217 -657q53 -59 122.5 -99t131.5 -55q0 -17 -11 -28q-62 11 -138 56.5t-126 104.5q-122 -79 -295 -79q-262 0 -397 191.5t-135 565.5zM190 737q0 -358 127.5 -542.5t374.5 -184.5q239 0 370.5 176.5 t131.5 550.5q0 358 -127.5 542.5t-374.5 184.5t-374.5 -184.5t-127.5 -542.5z" />
<glyph unicode="R" horiz-adv-x="1253" d="M229 4v1471h482q178 0 278.5 -107.5t100.5 -288.5q0 -159 -82 -262.5t-230 -128.5l352 -684q-10 -4 -18 -4l-16 4l-348 680h-488v-680q-4 -4 -16 -4zM260 715h455q157 0 250.5 97.5t93.5 266.5t-93.5 267t-250.5 98h-455v-729z" />
<glyph unicode="S" horiz-adv-x="1138" d="M147 53q0 16 13 29q18 -8 51 -20t130.5 -32t190.5 -20q208 0 327.5 92.5t119.5 262.5q0 42 -7.5 78t-19 64t-32.5 53t-40.5 43t-50.5 35t-55.5 28t-63.5 23.5t-65.5 19.5t-69.5 18q-57 14 -94 24.5t-86.5 29t-81.5 37.5t-66.5 48t-54 63.5t-32.5 82t-13 104.5 q0 176 119 277.5t332 101.5q96 0 185.5 -11.5t130.5 -23.5l42 -12q0 -19 -10 -29q-162 47 -346 47q-207 0 -314.5 -94.5t-107.5 -255.5q0 -52 11 -94.5t27.5 -74t47.5 -58t60 -44t75.5 -34.5t83.5 -28t95 -25q54 -13 90 -23.5t85.5 -28.5t82 -37t68.5 -49t57 -65t35 -83.5 t14 -106.5q0 -180 -125 -282.5t-342 -102.5q-67 0 -132.5 7.5t-111 18t-81.5 21.5t-54 19z" />
<glyph unicode="T" horiz-adv-x="1075" d="M72 1460l4 15h923q5 -1 5 -15q0 -5 -1 -9t-3 -5l-1 -2h-440v-1440q-4 -4 -16 -4l-15 4v1440h-452q-4 6 -4 16z" />
<glyph unicode="U" horiz-adv-x="1355" d="M217 442v1028q4 5 14 5q5 0 9.5 -1.5t5.5 -2.5l2 -1v-1030q0 -202 114 -316t316 -114t316 114t114 316v1030q8 5 14 5l17 -5v-1028q0 -218 -122.5 -340t-340.5 -122q-217 0 -338 122t-121 340z" />
<glyph unicode="V" horiz-adv-x="1222" d="M61 1473q5 2 17 2l16 -5l516 -1398h2l514 1398q5 5 19 5l14 -5l-545 -1478q-2 -2 -3 -2l-3 2z" />
<glyph unicode="W" horiz-adv-x="1921" d="M70 1470q4 5 16 5l16 -5l385 -1247l45 -157h3q10 51 43 157l385 1247q2 5 6 5l6 -5l385 -1247q15 -46 25.5 -86.5t14.5 -58.5l3 -17h2q10 60 39 162l360 1247q1 5 19 5l14 -5l-430 -1478q-2 -2 -3 -2l-3 2l-393 1265q-15 45 -24 81.5t-11 50.5l-2 14h-2q-6 -44 -39 -146 l-395 -1265q-2 -2 -3.5 -2t-3.5 2z" />
<glyph unicode="X" horiz-adv-x="1165" d="M90 4l469 746l-469 720q5 5 19 5l18 -5l451 -694l454 694q12 5 21.5 5t17.5 -5l-477 -720l487 -748q-6 -2 -18 -2l-19 4l-469 717l-448 -717q-6 -4 -23 -4q-6 0 -14 4z" />
<glyph unicode="Y" horiz-adv-x="1247" d="M66 1470q6 5 20 5q5 0 9 -1.5t5 -2.5l2 -1l521 -815l534 815q5 5 19 5l18 -5l-557 -843v-623q-6 -4 -16 -4l-15 4v621z" />
<glyph unicode="Z" horiz-adv-x="1163" d="M92 0q-4 8 -4 16t4 17l907 1411h-852l-1 -4q-3 5 -3 16q0 21 4 21q1 0 0 -2h887q7 -16 0 -33l-907 -1411h934v2q4 -4 4 -19q0 -16 -4 -18v4h-969z" />
<glyph unicode="[" horiz-adv-x="618" d="M225 -348v2007h307q6 -16 0 -31h-276v-1945h276q6 -15 0 -31h-307z" />
<glyph unicode="\" horiz-adv-x="831" d="M53 1530q17 7 33 0l690 -1620q-16 -7 -33 0z" />
<glyph unicode="]" horiz-adv-x="618" d="M86 -317h276v1945h-276q-6 16 0 31h307v-2007h-307q-6 16 0 31z" />
<glyph unicode="^" horiz-adv-x="1060" d="M145 930l365 540q2 5 20 5q9 0 14.5 -1.5t7.5 -2.5l1 -1l362 -540q-19 -8 -38 0l-347 516l-346 -516q-20 -10 -39 0z" />
<glyph unicode="_" horiz-adv-x="1021" d="M109 -41h802q6 -15 0 -31h-802q-6 16 0 31z" />
<glyph unicode="`" horiz-adv-x="487" d="M115 1630q10 17 22 21l254 -312q-7 -13 -20 -16z" />
<glyph unicode="a" horiz-adv-x="1046" d="M119 281q0 141 96.5 225t276.5 84q153 0 337 -23v185q0 167 -68.5 242t-236.5 75q-76 0 -153.5 -13.5t-117.5 -27.5l-40 -14q-12 6 -12 28q18 6 49 15.5t117 25t161 15.5q171 0 250.5 -81t79.5 -265v-750q-14 -7 -27 0v274q-30 -132 -142.5 -214t-252.5 -82 q-155 0 -236 78.5t-81 222.5zM147 281q0 -129 72 -201t207 -72q174 0 288.5 112.5t114.5 307.5v115q-143 22 -329 22q-168 0 -260.5 -75t-92.5 -209z" />
<glyph unicode="b" horiz-adv-x="1136" d="M197 4v1528q4 4 16 4l14 -4v-696q52 124 152 193t219 69q194 0 293.5 -142t99.5 -417t-103 -417t-304 -142q-124 0 -219 75.5t-138 196.5v-248q-2 -4 -14 -4zM227 410q0 -92 41.5 -182.5t125 -154t188.5 -63.5q187 0 283 134t96 395t-92.5 394.5t-272.5 133.5 q-101 0 -186.5 -56t-132.5 -139.5t-50 -171.5v-290z" />
<glyph unicode="c" horiz-adv-x="913" d="M143 539q0 275 106 417t310 142q64 0 121 -11t82 -23l24 -11q0 -20 -14 -27q-9 5 -25.5 11.5t-70 18t-109.5 11.5q-194 0 -293.5 -133.5t-99.5 -394.5t99.5 -395t293.5 -134q61 0 118 14t83 28l27 14q14 -5 18 -27q-11 -7 -30.5 -16.5t-84.5 -26t-133 -16.5 q-207 0 -314.5 142t-107.5 417z" />
<glyph unicode="d" horiz-adv-x="1136" d="M145 539q0 275 100 417t294 142q126 0 222 -67t148 -197v698q5 4 15 4l16 -4v-1528q-4 -4 -16 -4l-15 4v248q-44 -124 -133.5 -198t-222.5 -74q-201 0 -304.5 142t-103.5 417zM176 539q0 -261 96 -395t283 -134q69 0 128 24.5t100 65t70 93t42.5 107.5t13.5 110v288 q-3 89 -47.5 172.5t-130 140t-190.5 56.5q-180 0 -272.5 -133.5t-92.5 -394.5z" />
<glyph unicode="e" horiz-adv-x="1040" d="M145 545q0 279 111 416t299 137q173 0 264.5 -104t91.5 -263q0 -56 -5.5 -106t-11.5 -73l-5 -22h-713q8 -272 96 -396t279 -124q50 0 98 9.5t80.5 22.5t58 26t38.5 22l12 10q18 -4 18 -22q-4 -4 -12.5 -10.5t-37.5 -23.5t-62 -30t-87 -23.5t-112 -10.5q-400 0 -400 565z M176 561h690l9 60q6 55 6 116q0 66 -19.5 124.5t-58 105t-102.5 73.5t-146 27q-175 0 -275 -126.5t-104 -379.5z" />
<glyph unicode="f" horiz-adv-x="700" d="M76 1061.5q0 7.5 2 11.5l2 4h162v131q0 175 66.5 251.5t219.5 76.5q40 0 82.5 -5t65.5 -10l22 -5q1 -5 1 -10q0 -11 -7 -17q-69 16 -155 16q-147 0 -206 -67.5t-59 -227.5v-133h357q3 -5 3 -12.5t-2 -12.5l-1 -5h-357v-1043q-7 -4 -14.5 -4t-11.5 2l-4 2v1043h-162 q-4 7 -4 14.5z" />
<glyph unicode="g" horiz-adv-x="1050" d="M106 -209q0 63 17.5 117t50 94.5t57 64t58.5 48.5q-64 42 -64 116q0 115 109 218q-87 39 -133.5 117t-46.5 190q0 161 93.5 251.5t260.5 90.5q126 0 211 -51l256 47q5 -9 5 -20q0 -5 -1 -11l-225 -41q108 -91 108 -266q0 -160 -93.5 -250t-260.5 -90q-78 0 -146 22 q-106 -98 -106 -202q0 -48 31 -79.5t81 -44.5t114.5 -23t132 -15t132 -21.5t114.5 -42t81 -76.5t31 -124q0 -64 -29 -120.5t-85.5 -102.5t-150.5 -72.5t-214 -26.5q-192 0 -290 85.5t-98 217.5zM137 -207q0 -127 94.5 -200.5t260.5 -73.5q204 0 327 80t123 208 q0 70 -33.5 118t-85 69.5t-121.5 36t-135.5 19.5t-136 17t-113.5 31q-87 -58 -133.5 -137.5t-46.5 -167.5zM184 756q0 -146 86 -228t238 -82t237.5 82t85.5 228q0 147 -85 229t-238 82t-238.5 -82t-85.5 -229z" />
<glyph unicode="h" d="M197 4v1528q7 5 14 5l14 -5v-707q123 273 404 273q143 0 226 -81t83 -220v-793q-7 -6 -14.5 -6t-14.5 6v791q0 131 -75.5 202.5t-208.5 71.5q-281 0 -400 -307v-758q-7 -5 -14 -5z" />
<glyph unicode="i" horiz-adv-x="438" d="M190 1380v41q13 9 29 9q8 0 15 -2t10 -4l4 -3v-41q-11 -8 -29 -8q-7 0 -14.5 2t-10.5 4zM205 4v1069q2 4 14 4q5 0 8.5 -1t4.5 -2l1 -1v-1069q-2 -4 -14 -4q-5 0 -8.5 1t-4.5 2z" />
<glyph unicode="j" horiz-adv-x="438" d="M-154 -479q0 13 11 24q52 -28 127 -28q114 0 167.5 70t53.5 225v1261q14 11 28 0v-1259q0 -171 -63.5 -248.5t-185.5 -77.5q-79 0 -138 33zM188 1386v41q13 9 29 9q8 0 15 -2t10 -4l4 -3v-41q-11 -8 -29 -8q-7 0 -14.5 2t-10.5 4z" />
<glyph unicode="k" horiz-adv-x="1007" d="M197 2v1532q7 4 14 4l14 -4v-956h287l356 497q17 6 35 0l-366 -510l415 -559q-2 -6 -16 -6q-7 0 -11.5 1.5t-5.5 2.5l-1 2l-404 543h-289v-547q-7 -4 -14 -4z" />
<glyph unicode="l" horiz-adv-x="446" d="M209 4v1528q2 4 14 4l15 -4v-1528q-3 -4 -15 -4q-5 0 -8.5 1t-4.5 2z" />
<glyph unicode="m" horiz-adv-x="1734" d="M197 4v1069q14 11 28 0v-246q65 140 156 205.5t221 65.5q125 0 200.5 -73.5t82.5 -203.5q120 277 379 277q131 0 206.5 -80t75.5 -221v-793q-7 -6 -14 -6l-14 6v791q0 129 -67.5 201.5t-188.5 72.5q-125 0 -219 -71.5t-158 -241.5v-752q-8 -6 -15 -6t-14 6v791 q0 129 -67.5 201.5t-188.5 72.5q-124 0 -217.5 -70.5t-157.5 -236.5v-758q-7 -5 -14 -5z" />
<glyph unicode="n" d="M197 4v1069q14 11 28 0v-248q131 273 404 273q143 0 226 -81t83 -220v-793q-7 -6 -14.5 -6t-14.5 6v791q0 131 -75.5 202.5t-208.5 71.5q-275 0 -400 -307v-758q-7 -5 -14 -5z" />
<glyph unicode="o" horiz-adv-x="1101" d="M145 539q0 295 103 427t303 132q199 0 302 -132t103 -427t-103 -427t-302 -132q-200 0 -303 132t-103 427zM174 539q0 -147 26 -251t76.5 -164.5t117.5 -88t157 -27.5t157 27.5t117.5 88t76.5 164.5t26 251t-26 251t-76.5 164.5t-117.5 87.5t-157 27t-157 -27 t-117.5 -87.5t-76.5 -164.5t-26 -251z" />
<glyph unicode="p" horiz-adv-x="1136" d="M197 -508v1581q4 4 16 4q5 0 8.5 -1t4.5 -2l1 -1v-248q43 121 138 197t219 76q407 0 407 -559t-393 -559q-119 0 -219 69t-152 193v-750q-4 -4 -14 -4zM227 377q3 -88 50 -171.5t132.5 -139.5t186.5 -56q365 0 365 529q0 269 -95 398.5t-284 129.5q-105 0 -188.5 -63.5 t-125 -153.5t-41.5 -182v-291z" />
<glyph unicode="q" horiz-adv-x="1136" d="M145 539q0 559 408 559q124 0 218.5 -76t137.5 -197v248q3 4 15 4l16 -4v-1581q-4 -4 -16 -4l-15 4v750q-52 -124 -151.5 -193t-218.5 -69q-394 0 -394 559zM176 539q0 -529 365 -529q101 0 186.5 56t132 139.5t49.5 171.5v291q0 68 -25 137.5t-68.5 128.5t-112.5 96 t-148 37q-189 0 -284 -129.5t-95 -398.5z" />
<glyph unicode="r" horiz-adv-x="788" d="M197 2v1073q14 7 28 0v-254q110 277 332 277q99 0 166 -41q-4 -20 -18 -27q-64 39 -158 39q-109 0 -187.5 -80t-134.5 -233v-754q-7 -4 -14 -4z" />
<glyph unicode="s" horiz-adv-x="907" d="M137 41q-1 2 -1 4q0 5 4 11q4 10 10 12q123 -60 284 -60q148 0 236 63t88 193q0 65 -21.5 111t-75.5 77t-86.5 43.5t-112.5 34.5q-11 3 -16 5q-54 15 -90.5 27.5t-82 35.5t-72 50t-45.5 69t-19 94q0 139 87 213t259 74q62 0 124.5 -11t94.5 -21l31 -11q2 -6 -2 -16 t-10 -13q-107 43 -236 43q-319 0 -319 -258q0 -33 10 -62.5t22.5 -50t37.5 -40t42 -31t49.5 -24t46 -17t45.5 -13.5t36 -10q46 -13 68.5 -20t64.5 -23t64 -29.5t52 -37t45 -49t26 -61.5t11 -79q0 -134 -89 -209t-259 -75q-83 0 -158 15t-109 31z" />
<glyph unicode="t" horiz-adv-x="696" d="M72 1063q0 6 1 9.5t2 3.5l1 1h166v215q8 13 28 13v-228h348q5 -4 5 -14q0 -4 -1.5 -7.5t-2.5 -5.5l-1 -1h-348v-707q0 -174 51.5 -254t190.5 -80q35 0 67.5 3t48.5 6l15 3q5 -8 5 -16q0 -4 -1 -8q-53 -16 -135 -16q-154 0 -212 88.5t-58 273.5v707h-166q-4 6 -4 14z" />
<glyph unicode="u" d="M188 293v780q7 6 14.5 5.5t14.5 -5.5v-778q0 -132 76.5 -209.5t208.5 -77.5q274 0 399 307v758q8 6 15 5.5t14 -5.5v-1069q-14 -11 -29 0v248q-130 -272 -403 -272q-141 0 -225.5 86t-84.5 227z" />
<glyph unicode="v" horiz-adv-x="1013" d="M76 1073q4 4 16 4l14 -4l332 -827l72 -189l68 183l327 833q7 4 17 4l14 -4l-426 -1081h-2z" />
<glyph unicode="w" horiz-adv-x="1613" d="M84 1073q4 4 16 4l15 -4l293 -862l45 -148l47 148l303 862h10l303 -862l47 -148l45 148l293 862q7 4 15 4l16 -4l-367 -1079h-2l-280 792l-74 228l-76 -228l-280 -792h-2z" />
<glyph unicode="x" horiz-adv-x="972" d="M80 4l389 545l-385 524q8 4 17.5 4t14.5 -2l5 -2l366 -498l365 498q10 5 19 5t18 -5l-385 -524l389 -545q-7 -5 -16 -5t-21 5l-369 518l-370 -518q-10 -4 -19.5 -4t-13.5 2z" />
<glyph unicode="y" horiz-adv-x="1058" d="M74 1073q4 4 16 4l16 -4l451 -1038h2l389 1038q5 4 17 4l16 -4l-514 -1362q-46 -125 -89.5 -174t-117.5 -49q-23 0 -45 2.5t-33 5.5l-10 2q-6 15 2 29q29 -10 84 -10q66 0 102 45.5t82 169.5l101 266h-2z" />
<glyph unicode="z" horiz-adv-x="903" d="M92 0q-3 8 -3 16t3 15l660 1018h-609q-6 14 0 28h641q6 -15 0 -30l-659 -1018h670q3 -7 3 -14t-3 -15h-703z" />
<glyph unicode="{" horiz-adv-x="675" d="M88 670q-6 15 0 30h76q86 0 86 142v544q0 127 69.5 200t202.5 73h66q6 -16 0 -31h-64q-124 0 -183.5 -64.5t-59.5 -181.5v-528q0 -71 -13.5 -111.5t-50.5 -58.5q37 -19 50.5 -58.5t13.5 -109.5v-528q0 -118 59.5 -182t183.5 -64h64q6 -16 0 -31h-66q-133 0 -202.5 73 t-69.5 200v540q0 146 -86 146h-76z" />
<glyph unicode="|" horiz-adv-x="481" d="M225 -399v2013q15 6 31 0v-2013q-2 -4 -14 -4z" />
<glyph unicode="}" horiz-adv-x="675" d="M88 -258h64q124 0 183.5 64t59.5 182v528q0 70 13.5 109.5t50.5 58.5q-37 18 -50.5 58.5t-13.5 111.5v528q0 117 -59.5 181.5t-183.5 64.5h-64q-6 16 0 31h66q133 0 202.5 -73t69.5 -200v-544q0 -142 86 -142h76q6 -15 0 -30h-76q-86 0 -86 -146v-540q0 -127 -69.5 -200 t-202.5 -73h-66q-6 15 0 31z" />
<glyph unicode="~" horiz-adv-x="1093" d="M188 618q3 4 8.5 10.5t24.5 24t40.5 30.5t55 23.5t68.5 10.5q45 0 89 -19.5t74 -43t73 -43t86 -19.5q33 0 63 8.5t49.5 20.5t34.5 24t22 21l7 8q18 0 24 -15q-3 -4 -8.5 -10.5t-24.5 -23.5t-40.5 -30t-56.5 -23.5t-72 -10.5q-45 0 -89 19.5t-74 43t-73 43t-86 19.5 q-47 0 -90 -21.5t-63 -42.5l-19 -22q-20 0 -23 18z" />
<glyph unicode="&#xa1;" horiz-adv-x="438" d="M190 1024v41q13 8 29 8q8 0 15.5 -2t10.5 -4l3 -2v-41q-11 -8 -29 -8q-7 0 -14.5 2t-10.5 4zM205 -406v1182q13 6 26 0l5 -1182q-16 -6 -31 0z" />
<glyph unicode="&#xa2;" horiz-adv-x="952" d="M154 539q0 264 99 406t290 153l-4 186q14 4 20 4q7 0 19 -4l-5 -186q64 -2 120 -13t80 -21l24 -11q0 -20 -15 -29q-9 5 -25 11.5t-69.5 18t-109.5 11.5q-194 0 -294 -133.5t-100 -392.5q0 -251 97 -388t286 -137q61 0 120.5 13.5t88.5 26.5l29 14q13 -5 18 -29 q-11 -6 -31 -15.5t-85.5 -26t-133.5 -17.5l5 -187q-11 -6 -21 -6q-9 0 -18 6l4 187q-183 3 -286 150.5t-103 408.5z" />
<glyph unicode="&#xa3;" horiz-adv-x="1032" d="M137 680q-6 16 0 31h158q-31 84 -45.5 128t-27.5 106.5t-13 117.5q0 178 105.5 265t293.5 87q68 0 139 -11.5t101.5 -20t48.5 -15.5q0 -23 -14 -29q-112 45 -281 45q-362 0 -362 -327q0 -54 14.5 -118t28 -103.5t45.5 -124.5h430q6 -15 0 -31h-418q23 -69 35 -126 t14 -129.5t-14.5 -134t-60.5 -130.5t-115 -129h698q6 -16 0 -31h-739v33q75 64 121 133t64 129t15.5 131.5t-15 126.5t-36.5 127h-170z" />
<glyph unicode="&#xa4;" horiz-adv-x="1200" d="M164 143v2l153 152q-96 107 -96 258q0 152 98 258l-155 152q0 10 10 18l19 8l155 -149q112 94 254 94q147 0 254 -96l150 151q4 0 18 -8q4 -4 6.5 -8.5t3.5 -6.5v-3l-149 -152q98 -109 98 -258q0 -152 -98 -258l153 -152q0 -6 -8 -16q-4 -5 -8.5 -8t-7.5 -3l-2 -1 l-154 153q-111 -96 -256 -96q-147 0 -258 96l-151 -153q-9 -2 -19 12q-5 4 -7.5 8t-2.5 6zM254 555q0 -147 100.5 -247.5t247.5 -100.5q148 0 248 100t100 248t-100 248t-248 100q-147 0 -247.5 -100.5t-100.5 -247.5z" />
<glyph unicode="&#xa5;" horiz-adv-x="1230" d="M92 1399q2 2 12 2q8 0 13 -1t7 -2l1 -1l477 -789l510 789q2 4 14 4l19 -4l-527 -815h361q6 -16 0 -31h-363v-178h363q6 -15 0 -31h-363v-338q-14 -6 -28 0v338h-359q-6 16 0 31h359v178h-359q-6 15 0 31h357z" />
<glyph unicode="&#xa6;" horiz-adv-x="409" d="M188 369q5 4 17 4l16 -4v-912q-4 -4 -16 -4l-17 4v912zM188 788v908q5 4 17 4l16 -4v-908q-4 -4 -16 -4z" />
<glyph unicode="&#xa7;" horiz-adv-x="987" d="M160 717q0 50 20.5 94t54.5 75t61 49.5t58 33.5q-174 73 -174 215q0 118 77.5 173.5t240.5 55.5q131 0 272 -47q3 -21 -12 -29l-7 2q-138 41 -239 41q-159 0 -229 -46.5t-70 -147.5q0 -58 33.5 -101.5t87.5 -69.5t119 -47.5t130 -43.5t119 -49t87.5 -72.5t33.5 -106.5 q0 -54 -19.5 -102t-50.5 -80.5t-59 -53t-55 -32.5q197 -89 197 -213q0 -127 -88.5 -181t-282.5 -54q-79 0 -155 12t-112 24l-36 13q0 16 12 32q123 -49 281 -49q183 0 265.5 46t82.5 157q0 143 -316 238q-58 18 -92 29.5t-85 36t-79 49t-49.5 63.5t-21.5 86zM190 719 q0 -34 11 -62t35.5 -51t48 -39.5t65.5 -33.5t70 -26.5t78 -25.5q29 -9 106 -37q32 13 62 33.5t60 50.5t48.5 72.5t18.5 91.5q0 40 -18 73t-42 54t-70 42t-80 32.5t-94.5 30t-93.5 30.5q-35 -14 -68 -34t-65.5 -49t-52 -68.5t-19.5 -83.5z" />
<glyph unicode="&#xa8;" horiz-adv-x="931" d="M293 1268v41q13 8 29 8q8 0 15 -2t10 -4l3 -2v-41q-10 -8 -28 -8q-7 0 -14.5 2t-11.5 4zM567 1268v41q13 8 29 8q8 0 15.5 -2t10.5 -4l3 -2v-41q-11 -8 -29 -8q-7 0 -14.5 2t-11.5 4z" />
<glyph unicode="&#xa9;" horiz-adv-x="1660" d="M152 696q0 184 91 340.5t247.5 247t340.5 90.5q138 0 263.5 -53.5t216.5 -144.5t144.5 -216.5t53.5 -263.5t-53.5 -264t-144.5 -217t-216.5 -145t-263.5 -54q-184 0 -340.5 91t-247.5 248t-91 341zM180 696q0 -176 87.5 -326t237.5 -237.5t326 -87.5q132 0 252 52 t206.5 139t138 207.5t51.5 252.5t-51.5 252t-138 206.5t-206.5 137.5t-252 51q-176 0 -326 -86.5t-237.5 -235.5t-87.5 -325zM496 711q0 407 335 407q60 0 111 -11t72 -23l20 -11q0 -17 -14 -24q-82 41 -178 41q-165 0 -240.5 -91t-75.5 -288q0 -379 312 -379q46 0 94 10 t73 20l25 11q11 -7 14 -25q-8 -5 -24 -13t-71 -21t-118 -13q-168 0 -251.5 105.5t-83.5 304.5z" />
<glyph unicode="&#xaa;" horiz-adv-x="743" d="M139 791q0 90 58 139t168 49q73 0 202 -14v108q0 104 -45 148.5t-137 44.5q-45 0 -91.5 -8t-70.5 -16l-24 -9q-6 3 -8.5 11t-0.5 13q97 33 197 33q201 0 201 -203v-464h-8h-11v151q-25 -84 -88.5 -126t-146.5 -42q-95 0 -145 47.5t-50 137.5zM143 477q-3 11 0 23h443 q3 -12 0 -23h-443zM164 791q0 -79 43 -120.5t127 -41.5q102 0 165.5 60.5t67.5 174.5v78q-86 14 -196 14q-102 0 -154.5 -42.5t-52.5 -122.5z" />
<glyph unicode="&#xab;" horiz-adv-x="970" d="M113 553l4 12l426 477q12 -2 18 -18l-416 -471l418 -471q-3 -18 -20 -21l-426 480q-4 4 -4 12zM422 553l4 12l373 416q12 -2 18 -18l-362 -410l370 -418q-3 -17 -20 -20l-379 426q-4 4 -4 12z" />
<glyph unicode="&#xac;" horiz-adv-x="1236" d="M154 885l4 14h884v-463q-4 -4 -14 -4q-6 0 -10 1t-5 2l-1 1v432h-854q-4 5 -4 17z" />
<glyph unicode="&#xad;" horiz-adv-x="589" />
<glyph unicode="&#xae;" horiz-adv-x="1122" d="M147 965q0 186 114 299.5t300 113.5t300 -113.5t114 -299.5t-114 -300t-300 -114t-300 114t-114 300zM172 965q0 -175 107 -282.5t282 -107.5t282 107.5t107 282.5t-107 282t-282 107t-282 -107t-107 -282zM424 741v465h174q72 0 105.5 -32.5t33.5 -98.5q0 -101 -90 -119 l119 -213q-2 -4 -12 -4l-15 2l-116 211h-17h-157v-211q-3 -2 -15 -2zM449 975h153q59 0 85 25.5t26 74.5q0 55 -25.5 81t-85.5 26h-153v-207z" />
<glyph unicode="&#xaf;" horiz-adv-x="833" d="M141 1309q-6 15 0 30h523q5 -14 0 -30h-523z" />
<glyph unicode="&#xb0;" horiz-adv-x="751" d="M139 1264q0 95 64 167t176 72q110 0 170.5 -69.5t60.5 -163.5q0 -96 -60.5 -166t-170.5 -70q-116 0 -178 68t-62 162zM170 1266q0 -83 53.5 -142t153.5 -59q97 0 150 59.5t53 143.5t-53 144.5t-150 60.5t-152 -62t-55 -145z" />
<glyph unicode="&#xb1;" horiz-adv-x="1046" d="M188 336q0 6 1 10t3 5l1 1h659q4 -2 4 -16q0 -5 -1 -8.5t-2 -4.5l-1 -1h-659q-5 2 -5 14zM199 823l4 17h303v252q2 4 16 4l15 -4v-252h309q4 -3 4 -17q0 -5 -1 -8.5t-2 -4.5l-1 -1h-309v-254q-3 -4 -15 -4q-6 0 -10 1t-5 2l-1 1v254h-303q-4 2 -4 14z" />
<glyph unicode="&#xb2;" horiz-adv-x="620" d="M84 793q0 57 22.5 100t59 69.5t80.5 48.5t88 42t80.5 43t59 59t22.5 84q0 31 -9 56.5t-29.5 49.5t-62 38t-100.5 14q-89 -2 -158 -23q-7 11 -4 25l43 11q58 11 121 11q122 0 172.5 -51.5t50.5 -132.5q0 -51 -22.5 -90.5t-59 -64t-80.5 -45t-87.5 -41.5t-80 -46t-59 -65 t-22.5 -92q0 -40 4 -60h407q4 -4 4 -12t-4 -12h-426q-10 37 -10 84z" />
<glyph unicode="&#xb3;" horiz-adv-x="622" d="M96 721q-4 15 6 22q72 -20 162 -20q115 0 176.5 44.5t61.5 123.5q0 89 -55.5 131.5t-143.5 42.5h-86q-8 13 0 25h86q83 0 128.5 40.5t45.5 112.5q0 75 -48 114.5t-140 39.5q-45 0 -87.5 -4.5t-62.5 -9.5l-20 -5q-8 12 -4 23q72 20 172 20q106 0 160.5 -45t54.5 -133 q0 -62 -32.5 -107.5t-92.5 -58.5q66 -11 107.5 -59t41.5 -127q0 -91 -68.5 -142t-193.5 -51q-42 0 -84 6t-63 12z" />
<glyph unicode="&#xb4;" horiz-adv-x="458" d="M78 1337l254 312q11 -2 20 -18l1.5 -1.5t0.5 -1.5l-256 -307q-13 3 -20 16z" />
<glyph unicode="&#xb5;" horiz-adv-x="1175" d="M213 -29v1102q0 4 16 4l13 -4v-786q0 -279 286 -279q138 0 240 72t158 190v803q0 4 12 4q6 0 10 -1t5 -2l1 -1v-1069q-2 -4 -16 -4q-5 0 -8 1t-4 2v1v211q-147 -235 -398 -235q-99 0 -169 31t-113 110v-150q0 -111 4.5 -200.5t11 -138t13.5 -81.5t11 -43l5 -10 q-9 -12 -27 -10q-2 4 -5.5 12t-12.5 44t-15.5 85t-12 140t-5.5 202z" />
<glyph unicode="&#xb6;" horiz-adv-x="815" d="M129 1303q2 52 36 90.5t95 38.5h27v-1893q-5 -4 -17 -4q-5 0 -8.5 1t-4.5 2l-1 1v1630q-61 3 -94 41t-33 93zM551 -461v1888q8 5 16 5l15 -5v-1888q-7 -4 -17 -4q-5 0 -8.5 1t-4.5 2z" />
<glyph unicode="&#xb7;" horiz-adv-x="417" d="M180 561v41q13 8 29 8q8 0 15 -2t10 -4l4 -2v-41q-11 -8 -29 -8q-7 0 -14.5 2t-10.5 4z" />
<glyph unicode="&#xb8;" horiz-adv-x="606" d="M111 -373q3 13 16 23q76 -49 166 -49q87 0 136.5 41t49.5 127q0 131 -200 131h-41l-11 12l27 162h29l-25 -148q126 3 188 -38.5t62 -118.5q0 -94 -54 -145.5t-163 -51.5q-100 0 -180 55z" />
<glyph unicode="&#xb9;" horiz-adv-x="493" d="M75 1242.5q-2 7.5 1 12.5q73 15 139 56t111 102q13 3 26 0v-698q-6 -2 -12 -2t-12 2v663q-84 -103 -246 -145q-5 2 -7 9.5z" />
<glyph unicode="&#xba;" horiz-adv-x="784" d="M141 948q0 175 59.5 258.5t190.5 83.5q129 0 190.5 -82.5t61.5 -259.5t-61.5 -260.5t-190.5 -83.5q-131 0 -190.5 83t-59.5 261zM164 477q-6 11 0 23h454q6 -12 0 -23h-454zM164 948q0 -167 52.5 -244t174.5 -77t176 77.5t54 243.5q0 164 -54.5 241t-175.5 77 q-122 0 -174.5 -76.5t-52.5 -241.5z" />
<glyph unicode="&#xbb;" horiz-adv-x="970" d="M145 135l371 418l-362 410q6 16 18 18l373 -416q4 -4 4 -12l-4 -12l-379 -426q-18 4 -21 20zM408 82l417 471l-415 471q6 16 18 18l426 -477q4 -4 4 -12l-4 -12l-426 -480q-17 3 -20 21z" />
<glyph unicode="&#xbc;" horiz-adv-x="1280" d="M93 1242.5q-2 7.5 1 12.5q73 15 139 56t111 102q14 3 27 0v-698q-6 -2 -13 -2q-6 0 -12 2v663q-84 -103 -246 -145q-5 2 -7 9.5zM233 -18l795 1452q4 4 16 4q4 0 7 -1t3 -2l1 -1l-795 -1452q-2 -2 -12 -2zM682 219.5q0 3.5 1 5.5l1 2l377 473q5 2 10.5 2t8.5 -1l3 -1 v-462h76q5 -12 0 -25h-76v-211q-12 -6 -24 0v211h-375q-2 3 -2 6.5zM721 238h338v419z" />
<glyph unicode="&#xbd;" horiz-adv-x="1421" d="M93 1242.5q-2 7.5 1 12.5q73 15 139 56t111 102q14 3 27 0v-698q-6 -2 -13 -2q-6 0 -12 2v663q-84 -103 -246 -145q-5 2 -7 9.5zM236 -18l794 1452q5 4 17 4l10 -4l-795 -1452q-2 -2 -12 -2zM858 84q0 57 22.5 100t59 69.5t80.5 48.5t88 42t80.5 43t59 59t22.5 84 q0 31 -9 56.5t-29.5 49.5t-62 38t-100.5 14q-92 -2 -158 -22q-7 11 -4 24l42 11q58 12 122 12q121 0 172 -52t51 -133q0 -51 -22.5 -90.5t-59 -64t-80 -45t-87.5 -41.5t-80.5 -46t-59 -65t-22.5 -92q0 -39 4 -59h407q4 -4 4 -13q0 -8 -4 -12h-426q-10 37 -10 84z" />
<glyph unicode="&#xbe;" horiz-adv-x="1404" d="M129 721q-4 15 6 22q72 -20 162 -20q115 0 176.5 44.5t61.5 123.5q0 89 -55.5 131.5t-143.5 42.5h-86q-8 13 0 25h86q83 0 128.5 40.5t45.5 112.5q0 75 -48 114.5t-140 39.5q-45 0 -87.5 -4.5t-62.5 -9.5l-20 -5q-8 13 -5 23q72 20 172 20q106 0 161 -45t55 -133 q0 -62 -32.5 -107.5t-92.5 -58.5q66 -11 107.5 -59t41.5 -127q0 -91 -68.5 -142t-193.5 -51q-42 0 -84 6t-63 12zM358 -18l795 1452q8 4 16 4q4 0 7 -1t4 -2v-1l-795 -1452q-2 -2 -12 -2zM811 219.5q0 3.5 1 5.5l1 2l377 473q5 2 10.5 2t8.5 -1l3 -1v-462h76q5 -12 0 -25 h-76v-211q-12 -6 -24 0v211h-375q-2 3 -2 6.5zM850 238h338v419z" />
<glyph unicode="&#xbf;" horiz-adv-x="856" d="M117 -45q0 83 22 149.5t57 111.5t77.5 85.5t85.5 83t78 92.5t57 125t22 170q6 4 16 4l15 -4q0 -98 -22 -176.5t-57.5 -129.5t-78 -94.5t-85 -83t-78 -83t-57.5 -106.5t-22 -142q0 -55 16.5 -102t51.5 -88t99.5 -65t152.5 -24q81 0 155 14t108 28l34 14q6 -3 9 -13.5 t1 -15.5q-14 -6 -39.5 -15.5t-105 -25.5t-160.5 -16q-96 0 -167.5 27t-110 73t-56.5 97.5t-18 109.5zM502 1018v41q10 8 28 8q7 0 14.5 -2t11.5 -4l3 -2v-41q-13 -8 -29 -8q-8 0 -15 2t-10 4z" />
<glyph unicode="&#xc0;" horiz-adv-x="1304" d="M51 2l596 1479q4 4 8 0l598 -1479q-6 -4 -16 -4l-18 4l-187 465h-760l-186 -465q-6 -4 -18 -4zM285 498h735l-369 913zM461 1862q10 16 22 20l254 -311q-7 -14 -20 -17z" />
<glyph unicode="&#xc1;" horiz-adv-x="1304" d="M51 2l596 1479q4 4 8 0l598 -1479q-6 -4 -16 -4l-18 4l-187 465h-760l-186 -465q-6 -4 -18 -4zM285 498h735l-369 913zM580 1575l254 311q11 -2 22 -20l-256 -307q-13 3 -20 16z" />
<glyph unicode="&#xc2;" horiz-adv-x="1304" d="M51 2l596 1479q4 4 8 0l598 -1479q-6 -4 -16 -4l-18 4l-187 465h-760l-186 -465q-6 -4 -18 -4zM285 498h735l-369 913zM385 1593l260 207h27l256 -207q0 -17 -17 -20l-252 201l-258 -201q-12 5 -16 20z" />
<glyph unicode="&#xc3;" horiz-adv-x="1304" d="M51 2l596 1479q4 4 8 0l598 -1479q-6 -4 -16 -4l-18 4l-187 465h-760l-186 -465q-6 -4 -18 -4zM285 498h735l-369 913zM426 1634q1 4 3 9.5t11 21t21.5 27t36.5 21t53 9.5q32 0 66 -20.5t71 -41t76 -20.5q67 0 94 68q17 -3 25 -14q-1 -3 -3.5 -9t-12 -20.5t-22 -25.5 t-35.5 -20t-50 -9q-39 0 -76.5 20.5t-72 41t-66.5 20.5q-34 0 -57.5 -17.5t-29.5 -34.5l-7 -18q-18 3 -25 12z" />
<glyph unicode="&#xc4;" horiz-adv-x="1304" d="M51 2l596 1479q4 4 8 0l598 -1479q-6 -4 -16 -4l-18 4l-187 465h-760l-186 -465q-6 -4 -18 -4zM285 498h735l-369 913zM485 1599v41q13 9 29 9q8 0 15 -2.5t11 -4.5l3 -2v-41q-11 -8 -29 -8q-7 0 -14.5 2t-11.5 4zM760 1599v41q12 9 28 9q8 0 15 -2.5t11 -4.5l3 -2v-41 q-11 -8 -29 -8q-7 0 -14 2t-10 4z" />
<glyph unicode="&#xc5;" horiz-adv-x="1304" d="M51 2l572 1421q-78 8 -125 57.5t-47 133.5q0 89 59.5 138.5t142.5 49.5t144 -49t61 -139q0 -83 -50.5 -133t-129.5 -58l575 -1421q-6 -4 -16 -4l-18 4l-187 465h-760l-186 -465q-6 -4 -18 -4zM285 498h735l-369 913zM479 1614q0 -69 44.5 -118.5t127.5 -49.5 q84 0 131 50.5t47 117.5q0 68 -46.5 115t-131.5 47q-83 0 -127.5 -47.5t-44.5 -114.5z" />
<glyph unicode="&#xc6;" horiz-adv-x="1720" d="M37 2l887 1473h663q7 -14 0 -31h-618v-684h516q6 -16 0 -31h-516v-698h639q7 -14 0 -31h-670v434h-604l-260 -432q-6 -4 -19 -4q-14 0 -18 4zM352 465h586v975z" />
<glyph unicode="&#xc7;" horiz-adv-x="1138" d="M162 735q0 382 128 571t392 189q62 0 120 -6.5t96 -15.5t67 -18.5t42 -16.5l13 -6q0 -18 -12 -27q-14 7 -39.5 16.5t-109 26t-171.5 16.5q-116 0 -203.5 -36t-154.5 -118t-102 -226t-35 -349q0 -165 23 -290t64 -207t104 -133.5t136.5 -73t167.5 -21.5q96 0 181 15.5 t122 30.5l37 16q14 -6 14 -25q-5 -3 -14.5 -7.5t-42.5 -16t-71.5 -20.5t-101 -16t-130.5 -7h-23l-16 -123q117 3 174 -38.5t57 -119.5q0 -93 -54.5 -145t-164.5 -52q-98 0 -180 56q2 11 17 22q76 -49 165 -49q88 0 138.5 41t50.5 127q0 131 -182 131h-41l-11 12l19 140 q-239 17 -354 200.5t-115 552.5z" />
<glyph unicode="&#xc8;" horiz-adv-x="1138" d="M229 0v1475h777q6 -16 0 -31h-746v-680h643q6 -16 0 -31h-643v-702h766q6 -15 0 -31h-797zM432 1878q9 15 23 20l254 -311q-7 -13 -21 -16z" />
<glyph unicode="&#xc9;" horiz-adv-x="1138" d="M229 0v1475h777q6 -16 0 -31h-746v-680h643q6 -16 0 -31h-643v-702h766q6 -15 0 -31h-797zM506 1591l264 303q14 -2 21 -20l-267 -299q-15 3 -18 16z" />
<glyph unicode="&#xca;" horiz-adv-x="1138" d="M229 0v1475h777q6 -16 0 -31h-746v-680h643q6 -16 0 -31h-643v-702h766q6 -15 0 -31h-797zM340 1612l260 207h27l256 -207q0 -18 -17 -21l-252 201l-258 -201q-12 5 -16 21z" />
<glyph unicode="&#xcb;" horiz-adv-x="1138" d="M229 0v1475h777q6 -16 0 -31h-746v-680h643q6 -16 0 -31h-643v-702h766q6 -15 0 -31h-797zM473 1653v41q13 8 29 8q8 0 15 -2t10 -4l3 -2v-41q-10 -8 -28 -8q-7 0 -14.5 2t-11.5 4zM748 1653v41q12 8 28 8q8 0 15.5 -2t10.5 -4l3 -2v-41q-11 -8 -29 -8q-7 0 -14 2t-10 4z " />
<glyph unicode="&#xcc;" horiz-adv-x="489" d="M66 1864q10 16 22 20l254 -311q-7 -14 -20 -17zM229 4v1466q5 5 17 5l14 -5v-1466q-1 0 -2 -1t-4 -2t-8 -1z" />
<glyph unicode="&#xcd;" horiz-adv-x="489" d="M129 1575l254 311q12 -2 23 -20l-256 -307q-14 3 -21 16zM229 4v1466q5 5 17 5l14 -5v-1466q-1 0 -2 -1t-4 -2t-8 -1z" />
<glyph unicode="&#xce;" horiz-adv-x="489" d="M-31 1608l260 207h27l256 -207q0 -18 -16 -21l-252 201l-258 -201q-13 5 -17 21zM229 4v1466q5 5 17 5l14 -5v-1466q-4 -4 -14 -4z" />
<glyph unicode="&#xcf;" horiz-adv-x="489" d="M80 1630v41q13 8 29 8q8 0 15 -2t10 -4l3 -2v-41q-10 -8 -28 -8q-7 0 -14.5 2t-10.5 4zM229 4v1466q5 5 17 5l14 -5v-1466q-4 -4 -14 -4zM354 1630v41q13 8 29 8q8 0 15.5 -2t10.5 -4l3 -2v-41q-11 -8 -29 -8q-7 0 -14.5 2t-10.5 4z" />
<glyph unicode="&#xd0;" horiz-adv-x="1357" d="M59 721q-6 15 0 31h183v723h368q151 0 255.5 -34t180.5 -117t112 -227.5t36 -359.5q0 -172 -25.5 -299t-71.5 -211t-120 -134.5t-162 -71.5t-205 -21h-368v721h-183zM272 31h332q145 0 245 32.5t173 112t107 217.5t34 344q0 167 -22 287.5t-64.5 201.5t-112 129.5 t-155.5 68.5t-205 20h-332v-692h375q6 -16 0 -31h-375v-690z" />
<glyph unicode="&#xd1;" horiz-adv-x="1409" d="M229 4v1466q7 5 17 5q4 0 7.5 -1.5t4.5 -2.5l2 -1l797 -1261l98 -160q-6 84 -6 219v1202q4 5 16 5l15 -5v-1466q-7 -4 -15 -4l-16 4l-893 1419l4 -237v-1182q-8 -4 -16 -4zM483 1636q1 4 3 9.5t11 21t21.5 27t36.5 21t53 9.5q32 0 66 -20.5t71 -41t76 -20.5q67 0 94 68 q17 -3 25 -14q-1 -3 -3.5 -9t-12 -20.5t-22 -25.5t-35.5 -20t-50 -9q-39 0 -76.5 20.5t-72 41t-66.5 20.5q-34 0 -57.5 -17.5t-30.5 -34.5l-6 -18q-18 3 -25 12z" />
<glyph unicode="&#xd2;" horiz-adv-x="1388" d="M162 737q0 758 532 758q258 0 395.5 -185.5t137.5 -572.5t-138 -572t-395 -185t-394.5 185t-137.5 572zM193 737q0 -374 130.5 -550.5t370.5 -176.5q239 0 370.5 176.5t131.5 550.5t-131.5 550.5t-370.5 176.5q-240 0 -370.5 -176.5t-130.5 -550.5zM530 1868q6 15 21 20 l264 -303q-3 -13 -18 -16z" />
<glyph unicode="&#xd3;" horiz-adv-x="1388" d="M162 737q0 758 532 758q258 0 395.5 -185.5t137.5 -572.5t-138 -572t-395 -185t-394.5 185t-137.5 572zM193 737q0 -374 130.5 -550.5t370.5 -176.5q239 0 370.5 176.5t131.5 550.5t-131.5 550.5t-370.5 176.5q-240 0 -370.5 -176.5t-130.5 -550.5zM602 1583l264 303 q14 -2 21 -20l-266 -299q-16 3 -19 16z" />
<glyph unicode="&#xd4;" horiz-adv-x="1388" d="M162 737q0 758 532 758q258 0 395.5 -185.5t137.5 -572.5t-138 -572t-395 -185t-394.5 185t-137.5 572zM193 737q0 -374 130.5 -550.5t370.5 -176.5q239 0 370.5 176.5t131.5 550.5t-131.5 550.5t-370.5 176.5q-240 0 -370.5 -176.5t-130.5 -550.5zM426 1612l260 207h27 l256 -207q0 -18 -17 -21l-252 201l-258 -201q-12 5 -16 21z" />
<glyph unicode="&#xd5;" horiz-adv-x="1384" d="M160 737q0 758 532 758q258 0 395.5 -185.5t137.5 -572.5t-138 -572t-395 -185t-394.5 185t-137.5 572zM190 737q0 -374 131 -550.5t371 -176.5q239 0 370.5 176.5t131.5 550.5t-131.5 550.5t-370.5 176.5q-240 0 -371 -176.5t-131 -550.5zM467 1636q1 4 3 9.5t11 21 t21.5 27t36.5 21t53 9.5q32 0 66 -20.5t71 -41t76 -20.5q67 0 94 68q17 -3 25 -14q-1 -3 -3.5 -9t-12 -20.5t-22 -25.5t-35.5 -20t-50 -9q-39 0 -76.5 20.5t-72 41t-66.5 20.5q-34 0 -57.5 -17.5t-30.5 -34.5l-6 -18q-18 3 -25 12z" />
<glyph unicode="&#xd6;" horiz-adv-x="1388" d="M162 737q0 758 532 758q258 0 395.5 -185.5t137.5 -572.5t-138 -572t-395 -185t-394.5 185t-137.5 572zM193 737q0 -374 130.5 -550.5t370.5 -176.5q239 0 370.5 176.5t131.5 550.5t-131.5 550.5t-370.5 176.5q-240 0 -370.5 -176.5t-130.5 -550.5zM524 1665v41 q13 8 29 8q8 0 15.5 -2t10.5 -4l3 -2v-41q-11 -8 -29 -8q-7 0 -14.5 2t-10.5 4zM799 1665v41q12 8 28 8q8 0 15.5 -2t10.5 -4l3 -2v-41q-11 -8 -29 -8q-7 0 -14 2t-11 4z" />
<glyph unicode="&#xd7;" horiz-adv-x="894" d="M186 350l240 240l-240 239q7 15 23 21l240 -238l237 238q16 -6 23 -21l-240 -239l240 -240q-4 -11 -23 -20l-237 239l-240 -239q-19 9 -23 20z" />
<glyph unicode="&#xd8;" horiz-adv-x="1388" d="M162 737q0 758 532 758q214 0 340 -123l99 176q15 -3 24 -12l-102 -184q172 -187 172 -615q0 -387 -138 -572t-395 -185q-209 0 -336 118l-100 -182q-15 0 -25 14l105 189q-176 188 -176 618zM193 737q0 -408 161 -590l664 1194q-123 123 -324 123q-240 0 -370.5 -176.5 t-130.5 -550.5zM375 127q123 -117 319 -117q239 0 370.5 176.5t131.5 550.5q0 402 -158 584z" />
<glyph unicode="&#xd9;" horiz-adv-x="1355" d="M217 442v1028q6 5 16 5l15 -5v-1030q0 -202 114 -316t316 -114t316 114t114 316v1030q6 5 12 5l19 -5v-1028q0 -218 -122.5 -340t-340.5 -122q-217 0 -338 122t-121 340zM496 1884q10 17 22 21l254 -312q-7 -13 -20 -16z" />
<glyph unicode="&#xda;" horiz-adv-x="1355" d="M217 442v1028q6 5 16 5l15 -5v-1030q0 -202 114 -316t316 -114t316 114t114 316v1030q6 5 12 5l19 -5v-1028q0 -218 -122.5 -340t-340.5 -122q-217 0 -338 122t-121 340zM575 1573l254 311q12 -2 23 -20l-256 -308q-14 3 -21 17z" />
<glyph unicode="&#xdb;" horiz-adv-x="1355" d="M217 442v1028q6 5 16 5l15 -5v-1030q0 -202 114 -316t316 -114t316 114t114 316v1030q6 5 12 5l19 -5v-1028q0 -218 -122.5 -340t-340.5 -122q-217 0 -338 122t-121 340zM401 1610l261 207h26l256 -207q0 -18 -16 -21l-252 201l-258 -201q-13 5 -17 21z" />
<glyph unicode="&#xdc;" horiz-adv-x="1355" d="M217 442v1028q6 5 16 5l15 -5v-1030q0 -202 114 -316t316 -114t316 114t114 316v1030q6 5 12 5l19 -5v-1028q0 -218 -122.5 -340t-340.5 -122q-217 0 -338 122t-121 340zM510 1677v41q13 8 29 8q8 0 15 -2t10 -4l3 -2v-41q-10 -8 -28 -8q-7 0 -14.5 2t-10.5 4zM784 1677 v41q13 8 29 8q8 0 15.5 -2t10.5 -4l3 -2v-41q-11 -8 -29 -8q-7 0 -14.5 2t-10.5 4z" />
<glyph unicode="&#xdd;" horiz-adv-x="1247" d="M66 1470q6 5 20 5q5 0 9 -1.5t5 -2.5l2 -1l519 -811l536 811q5 5 19 5l18 -5l-557 -843v-623q-6 -4 -16 -4l-15 4v621zM539 1579l254 311q11 -2 22 -20l-256 -307q-13 3 -20 16z" />
<glyph unicode="&#xde;" horiz-adv-x="1224" d="M229 4v1466q3 5 17 5l14 -5v-309h461q179 0 279 -106t100 -295q0 -186 -100.5 -290.5t-278.5 -104.5h-461v-361q0 -4 -14 -4zM260 395h465q162 0 253 96t91 267q0 175 -91 273.5t-253 98.5h-465v-735z" />
<glyph unicode="&#xdf;" horiz-adv-x="1165" d="M197 4v1135q0 397 391 397q92 0 162.5 -30t111 -80.5t60.5 -110t20 -125.5q0 -94 -39 -197q-6 1 -16 1.5t-40 -1.5t-57 -7t-59.5 -19.5t-56.5 -36t-40 -59t-16 -85.5q0 -52 24 -92t63 -66.5t86 -51t93.5 -52t85.5 -61.5t63 -88t24 -123q0 -121 -80 -196.5t-234 -75.5 q-63 0 -112 8t-67 16l-17 8q0 19 12 25q73 -29 180 -29q78 0 136 20.5t90.5 55.5t47.5 76t15 88q0 67 -24 119t-63 84.5t-85.5 59t-93 51t-85.5 53t-63 72.5t-24 101q0 51 15.5 91.5t40.5 64t56 41.5t61.5 23.5t57 11t43.5 3t21 -0.5q28 82 28 170q1 62 -17 117t-55.5 100 t-103 71.5t-151.5 26.5q-361 0 -361 -368v-1135q-2 -4 -14 -4q-5 0 -8.5 1t-4.5 2z" />
<glyph unicode="&#xe0;" horiz-adv-x="1046" d="M119 281q0 309 373 309q153 0 337 -23v185q0 167 -68.5 242t-236.5 75q-76 0 -153.5 -13.5t-117.5 -27.5l-40 -14q-12 6 -12 28q18 6 49 15.5t117 25t161 15.5q171 0 250.5 -81t79.5 -265v-750q-14 -7 -29 0l2 272q-35 -131 -146 -212.5t-249 -81.5q-157 0 -237 76 t-80 225zM147 281q0 -134 71.5 -203.5t207.5 -69.5q174 0 288.5 112.5t114.5 307.5v115q-130 20 -329 20q-181 0 -267 -68.5t-86 -213.5zM301 1563q9 15 23 20l254 -311q-7 -14 -21 -17z" />
<glyph unicode="&#xe1;" horiz-adv-x="1046" d="M119 281q0 309 373 309q153 0 337 -23v185q0 167 -68.5 242t-236.5 75q-76 0 -153.5 -13.5t-117.5 -27.5l-40 -14q-12 6 -12 28q18 6 49 15.5t117 25t161 15.5q171 0 250.5 -81t79.5 -265v-750q-14 -7 -29 0l2 272q-35 -131 -146 -212.5t-249 -81.5q-157 0 -237 76 t-80 225zM147 281q0 -134 71.5 -203.5t207.5 -69.5q174 0 288.5 112.5t114.5 307.5v115q-130 20 -329 20q-181 0 -267 -68.5t-86 -213.5zM412 1272l254 311q11 -2 22 -20l-256 -308q-13 3 -20 17z" />
<glyph unicode="&#xe2;" horiz-adv-x="1046" d="M119 281q0 309 373 309q153 0 337 -23v185q0 167 -68.5 242t-236.5 75q-76 0 -153.5 -13.5t-117.5 -27.5l-40 -14q-12 6 -12 28q18 6 49 15.5t117 25t161 15.5q171 0 250.5 -81t79.5 -265v-750q-14 -7 -29 0l2 272q-35 -131 -146 -212.5t-249 -81.5q-157 0 -237 76 t-80 225zM147 281q0 -134 71.5 -203.5t207.5 -69.5q174 0 288.5 112.5t114.5 307.5v115q-130 20 -329 20q-181 0 -267 -68.5t-86 -213.5zM240 1268l260 207h26l256 -207q0 -18 -16 -21l-252 201l-258 -201q-12 5 -16 21z" />
<glyph unicode="&#xe3;" horiz-adv-x="1046" d="M119 281q0 309 373 309q153 0 337 -23v185q0 167 -68.5 242t-236.5 75q-76 0 -153.5 -13.5t-117.5 -27.5l-40 -14q-12 6 -12 28q18 6 49 15.5t117 25t161 15.5q171 0 250.5 -81t79.5 -265v-750q-14 -7 -29 0l2 272q-35 -131 -146 -212.5t-249 -81.5q-157 0 -237 76 t-80 225zM147 281q0 -134 71.5 -203.5t207.5 -69.5q174 0 288.5 112.5t114.5 307.5v115q-130 20 -329 20q-181 0 -267 -68.5t-86 -213.5zM299 1352q1 4 3 9.5t11 21t21.5 27t36.5 21t53 9.5q32 0 66 -20.5t71 -41t76 -20.5q67 0 94 67q17 -3 25 -14q-1 -3 -3.5 -9t-12 -20.5 t-22 -25.5t-35.5 -20t-50 -9q-39 0 -76.5 20.5t-72 41t-66.5 20.5q-34 0 -57.5 -17.5t-30.5 -35.5l-6 -17q-17 3 -25 13z" />
<glyph unicode="&#xe4;" horiz-adv-x="1046" d="M119 281q0 309 373 309q153 0 337 -23v185q0 167 -68.5 242t-236.5 75q-76 0 -153.5 -13.5t-117.5 -27.5l-40 -14q-12 6 -12 28q18 6 49 15.5t117 25t161 15.5q171 0 250.5 -81t79.5 -265v-750q-14 -7 -29 0l2 272q-35 -131 -146 -212.5t-249 -81.5q-157 0 -237 76 t-80 225zM147 281q0 -134 71.5 -203.5t207.5 -69.5q174 0 288.5 112.5t114.5 307.5v115q-130 20 -329 20q-181 0 -267 -68.5t-86 -213.5zM352 1399v37q11 6 25 6q7 0 13 -1.5t8 -2.5l3 -2v-37q-8 -6 -24 -6zM627 1399v37q10 6 24 6q7 0 13.5 -1.5t9.5 -2.5l2 -2v-37 q-9 -6 -25 -6q-6 0 -12 1.5t-9 3.5z" />
<glyph unicode="&#xe5;" horiz-adv-x="1046" d="M119 281q0 309 373 309q153 0 337 -23v185q0 167 -68.5 242t-236.5 75q-76 0 -153.5 -13.5t-117.5 -27.5l-40 -14q-12 6 -12 28q18 6 49 15.5t117 25t161 15.5q171 0 250.5 -81t79.5 -265v-750q-14 -7 -29 0l2 272q-35 -131 -146 -212.5t-249 -81.5q-157 0 -237 76 t-80 225zM147 281q0 -134 71.5 -203.5t207.5 -69.5q174 0 288.5 112.5t114.5 307.5v115q-130 20 -329 20q-181 0 -267 -68.5t-86 -213.5zM309 1440q0 93 62.5 145.5t150.5 52.5q87 0 151 -52t64 -146q0 -95 -62 -149t-155 -54q-94 0 -152.5 53.5t-58.5 149.5zM340 1440 q0 -72 46.5 -124t133.5 -52q88 0 137.5 53t49.5 123q0 71 -49 120.5t-138 49.5q-87 0 -133.5 -50t-46.5 -120z" />
<glyph unicode="&#xe6;" horiz-adv-x="1605" d="M119 281q0 301 348 301h319v163q0 174 -70 248t-214 74q-71 0 -143.5 -13.5t-108.5 -26.5l-37 -13q-19 10 -12 28q15 6 42.5 15.5t107.5 25t155 15.5q138 0 213 -63.5t94 -198.5v-45q1 5 5 22.5t5 22.5q43 130 129.5 196t202.5 66q160 0 241 -103.5t81 -263.5 q0 -47 -5.5 -92t-11.5 -67l-6 -21h-637q15 -541 336 -541q46 0 89 9t70.5 22t48.5 26t31 22l9 9q17 -6 22 -22q-4 -4 -11 -10.5t-32.5 -23t-54.5 -29t-76 -23t-98 -10.5q-120 0 -207 73.5t-127 225.5q-1 6 -4 32.5t-4 32.5q-1 -5 -4 -31.5t-4 -31.5q-43 -151 -145.5 -226 t-249.5 -75q-128 0 -207.5 81t-79.5 220zM150 281q0 -132 68.5 -201.5t187.5 -69.5q167 0 273.5 108.5t106.5 311.5v121h-311q-169 0 -247 -66t-78 -204zM817 582h615q14 63 14 155q0 67 -16.5 124.5t-49.5 104.5t-91 74t-134 27q-70 0 -129 -28t-105.5 -84.5t-74 -151.5 t-29.5 -221z" />
<glyph unicode="&#xe7;" horiz-adv-x="913" d="M143 539q0 275 106 417t310 142q64 0 121 -11t82 -23l24 -11q0 -20 -14 -27q-9 5 -25.5 11.5t-70 18t-109.5 11.5q-194 0 -293.5 -133.5t-99.5 -394.5t99.5 -395t293.5 -134q61 0 118 14t83 28l27 14q14 -5 18 -27q-11 -7 -30.5 -16.5t-84.5 -26t-133 -16.5h-30l-23 -113 q92 3 146.5 -39.5t54.5 -114.5q0 -182 -207 -182q-98 0 -172 53q3 11 16 21q75 -47 158 -47q178 0 178 155q0 64 -45.5 95.5t-108.5 31.5h-40l-9 13l25 129q-180 20 -272.5 161t-92.5 396z" />
<glyph unicode="&#xe8;" horiz-adv-x="1040" d="M145 545q0 279 111 416t299 137q173 0 264.5 -104t91.5 -263q0 -56 -5.5 -106t-11.5 -73l-5 -22h-713q8 -272 96 -396t279 -124q50 0 98 9.5t80.5 22.5t58 26t38.5 22l12 10q18 -4 18 -22q-4 -4 -12.5 -10.5t-37.5 -23.5t-62 -30t-87 -23.5t-112 -10.5q-400 0 -400 565z M176 561h690l9 60q6 55 6 116q0 66 -19.5 124.5t-58 105t-102.5 73.5t-146 27q-175 0 -275 -126.5t-104 -379.5zM385 1554q10 17 23 21l254 -311q-7 -14 -21 -17z" />
<glyph unicode="&#xe9;" horiz-adv-x="1040" d="M145 545q0 279 111 416t299 137q173 0 264.5 -104t91.5 -263q0 -56 -5.5 -106t-11.5 -73l-5 -22h-713q8 -272 96 -396t279 -124q50 0 98 9.5t80.5 22.5t58 26t38.5 22l12 10q18 -4 18 -22q-4 -4 -12.5 -10.5t-37.5 -23.5t-62 -30t-87 -23.5t-112 -10.5q-400 0 -400 565z M176 561h690l9 60q6 55 6 116q0 66 -19.5 124.5t-58 105t-102.5 73.5t-146 27q-175 0 -275 -126.5t-104 -379.5zM424 1264l254 311q11 -2 20 -18q1 -2 2 -3l-256 -307q-13 3 -20 17z" />
<glyph unicode="&#xea;" horiz-adv-x="1040" d="M145 545q0 279 111 416t299 137q173 0 264.5 -104t91.5 -263q0 -56 -5.5 -106t-11.5 -73l-5 -22h-713q8 -272 96 -396t279 -124q50 0 98 9.5t80.5 22.5t58 26t38.5 22l12 10q18 -4 18 -22q-4 -4 -12.5 -10.5t-37.5 -23.5t-62 -30t-87 -23.5t-112 -10.5q-400 0 -400 565z M176 561h690l9 60q6 55 6 116q0 66 -19.5 124.5t-58 105t-102.5 73.5t-146 27q-175 0 -275 -126.5t-104 -379.5zM285 1251l260 207h26l256 -207q0 -17 -16 -20l-252 201l-258 -201q-12 5 -16 20z" />
<glyph unicode="&#xeb;" horiz-adv-x="1040" d="M145 545q0 279 111 416t299 137q173 0 264.5 -104t91.5 -263q0 -56 -5.5 -106t-11.5 -73l-5 -22h-713q8 -272 96 -396t279 -124q50 0 98 9.5t80.5 22.5t58 26t38.5 22l12 10q18 -4 18 -22q-4 -4 -12.5 -10.5t-37.5 -23.5t-62 -30t-87 -23.5t-112 -10.5q-400 0 -400 565z M176 561h690l9 60q6 55 6 116q0 66 -19.5 124.5t-58 105t-102.5 73.5t-146 27q-175 0 -275 -126.5t-104 -379.5zM393 1356v41q13 8 29 8q8 0 15.5 -2t10.5 -4l3 -2v-41q-11 -8 -29 -8q-7 0 -14.5 2t-11.5 4zM668 1356v41q12 8 28 8q8 0 15.5 -2t10.5 -4l3 -2v-41 q-11 -8 -29 -8q-7 0 -14 2t-10 4z" />
<glyph unicode="&#xec;" horiz-adv-x="438" d="M35 1561q9 16 22 20l254 -311q-7 -14 -20 -17zM205 4v1069q2 4 14 4q5 0 8.5 -1t4.5 -2l1 -1v-1069q-2 -4 -14 -4q-5 0 -8.5 1t-4.5 2z" />
<glyph unicode="&#xed;" horiz-adv-x="438" d="M111 1272l254 311q11 -2 22 -20l-256 -308q-13 3 -20 17zM205 4v1069q2 4 14 4q5 0 8.5 -1t4.5 -2l1 -1v-1069q-2 -4 -14 -4q-5 0 -8.5 1t-4.5 2z" />
<glyph unicode="&#xee;" horiz-adv-x="438" d="M-51 1251l260 207h27l256 -207q0 -17 -17 -20l-252 201l-258 -201q-12 5 -16 20zM205 4v1069q2 4 14 4q5 0 8.5 -1t4.5 -2l1 -1v-1069q-2 -4 -14 -4q-5 0 -8.5 1t-4.5 2z" />
<glyph unicode="&#xef;" horiz-adv-x="438" d="M49 1376v41q13 8 29 8q8 0 15 -2t10 -4l3 -2v-41q-10 -8 -28 -8q-7 0 -14.5 2t-11.5 4zM205 4v1069q2 4 14 4q5 0 8.5 -1t4.5 -2l1 -1v-1069q-2 -4 -14 -4q-5 0 -8.5 1t-4.5 2zM324 1376v41q12 8 28 8q8 0 15.5 -2t10.5 -4l3 -2v-41q-11 -8 -29 -8q-7 0 -14 2t-10 4z" />
<glyph unicode="&#xf0;" d="M145 516q0 263 103 400t297 137q157 0 254.5 -71.5t136.5 -227.5q-60 381 -264 573l-199 -137q-15 9 -18 27l192 131q-137 114 -344 153q-7 22 6 35q223 -45 367 -168l166 113q15 -6 18 -25l-160 -110q275 -259 275 -836q0 -275 -107 -402.5t-313 -127.5 q-201 0 -305.5 136t-104.5 400zM176 516q0 -249 96 -377.5t283 -128.5q197 0 292 122.5t95 381.5q0 139 -30 240t-85.5 158.5t-125.5 83.5t-158 26q-180 0 -273.5 -129t-93.5 -377z" />
<glyph unicode="&#xf1;" d="M197 4v1069q14 11 28 0v-248q131 273 404 273q143 0 226 -81t83 -220v-793q-14 -11 -29 0v791q0 131 -75.5 202.5t-208.5 71.5q-275 0 -400 -307v-758q-14 -10 -28 0zM358 1378q1 4 3 9.5t11 21t21.5 27t36.5 21t53 9.5q32 0 66 -20.5t71 -41t76 -20.5q68 0 95 68 q16 -3 24 -14q-1 -3 -3.5 -9t-12 -20.5t-22 -25.5t-35.5 -20t-50 -9q-39 0 -76.5 20.5t-72 41t-66.5 20.5q-34 0 -57.5 -17.5t-29.5 -34.5l-7 -18q-18 3 -25 12z" />
<glyph unicode="&#xf2;" horiz-adv-x="1101" d="M145 539q0 295 103 427t303 132q199 0 302 -132t103 -427t-103 -427t-302 -132q-200 0 -303 132t-103 427zM174 539q0 -147 26 -251t76.5 -164.5t117.5 -88t157 -27.5t157 27.5t117.5 88t76.5 164.5t26 251t-26 251t-76.5 164.5t-117.5 87.5t-157 27t-157 -27 t-117.5 -87.5t-76.5 -164.5t-26 -251zM362 1559q9 15 23 20l254 -311q-7 -14 -21 -17z" />
<glyph unicode="&#xf3;" horiz-adv-x="1101" d="M145 539q0 295 103 427t303 132q199 0 302 -132t103 -427t-103 -427t-302 -132q-200 0 -303 132t-103 427zM174 539q0 -147 26 -251t76.5 -164.5t117.5 -88t157 -27.5t157 27.5t117.5 88t76.5 164.5t26 251t-26 251t-76.5 164.5t-117.5 87.5t-157 27t-157 -27 t-117.5 -87.5t-76.5 -164.5t-26 -251zM406 1266l253 311q12 -2 23 -21l-256 -307q-13 3 -20 17z" />
<glyph unicode="&#xf4;" horiz-adv-x="1101" d="M145 539q0 295 103 427t303 132q199 0 302 -132t103 -427t-103 -427t-302 -132q-200 0 -303 132t-103 427zM174 539q0 -147 26 -251t76.5 -164.5t117.5 -88t157 -27.5t157 27.5t117.5 88t76.5 164.5t26 251t-26 251t-76.5 164.5t-117.5 87.5t-157 27t-157 -27 t-117.5 -87.5t-76.5 -164.5t-26 -251zM279 1251l260 207h26l256 -207q0 -17 -16 -20l-252 201l-258 -201q-12 5 -16 20z" />
<glyph unicode="&#xf5;" horiz-adv-x="1101" d="M145 539q0 295 103 427t303 132q199 0 302 -132t103 -427t-103 -427t-302 -132q-200 0 -303 132t-103 427zM174 539q0 -147 26 -251t76.5 -164.5t117.5 -88t157 -27.5t157 27.5t117.5 88t76.5 164.5t26 251t-26 251t-76.5 164.5t-117.5 87.5t-157 27t-157 -27 t-117.5 -87.5t-76.5 -164.5t-26 -251zM330 1354q1 4 3 9.5t11 21t21.5 27t36.5 21t53 9.5q32 0 66 -20.5t71 -41t76 -20.5q67 0 94 67q16 -3 24 -14l-3 -9t-11.5 -20.5t-22 -25.5t-35.5 -20t-50 -9q-39 0 -76.5 20.5t-72 41t-66.5 20.5q-34 0 -57.5 -17.5t-30.5 -35.5 l-7 -17q-16 3 -24 13z" />
<glyph unicode="&#xf6;" horiz-adv-x="1101" d="M145 539q0 295 103 427t303 132q199 0 302 -132t103 -427t-103 -427t-302 -132q-200 0 -303 132t-103 427zM174 539q0 -147 26 -251t76.5 -164.5t117.5 -88t157 -27.5t157 27.5t117.5 88t76.5 164.5t26 251t-26 251t-76.5 164.5t-117.5 87.5t-157 27t-157 -27 t-117.5 -87.5t-76.5 -164.5t-26 -251zM387 1389v41q13 8 29 8q8 0 15 -2t10 -4l3 -2v-41q-10 -9 -28 -9q-7 0 -14.5 2t-11.5 4zM662 1389v41q12 8 28 8q8 0 15.5 -2t10.5 -4l3 -2v-41q-11 -9 -29 -9q-7 0 -14 2t-10 4z" />
<glyph unicode="&#xf7;" horiz-adv-x="1144" d="M190 580q-6 15 0 30h764q6 -15 0 -30h-764zM545 248v41q12 8 28 8q8 0 15.5 -2t10.5 -4l3 -2v-41q-11 -8 -29 -8q-7 0 -14 2t-11 4zM545 899v41q12 8 28 8q8 0 15.5 -2t10.5 -4l3 -2v-41q-11 -8 -29 -8q-7 0 -14 2t-11 4z" />
<glyph unicode="&#xf8;" horiz-adv-x="1101" d="M145 539q0 295 103 427t303 132q161 0 256 -82l74 135q15 0 24 -12l-78 -144q129 -132 129 -456q0 -295 -103 -427t-302 -132q-151 0 -240 69l-69 -129q-16 0 -25 12l74 134q-146 134 -146 473zM174 539q0 -322 131 -447l488 897q-86 80 -242 80q-90 0 -157 -27 t-117.5 -87.5t-76.5 -164.5t-26 -251zM326 74q83 -66 225 -66q90 0 157 27.5t117.5 88t76.5 164.5t26 251q0 306 -115 430z" />
<glyph unicode="&#xf9;" d="M188 293v780q14 11 29 0v-778q0 -132 76.5 -209.5t208.5 -77.5q274 0 399 307v758q15 11 29 0v-1069q-14 -11 -29 0v248q-130 -272 -403 -272q-141 0 -225.5 86t-84.5 227zM373 1559q10 16 22 20l254 -311q-7 -14 -20 -17z" />
<glyph unicode="&#xfa;" d="M188 293v780q14 11 29 0v-778q0 -132 76.5 -209.5t208.5 -77.5q274 0 399 307v758q15 11 29 0v-1069q-14 -11 -29 0v248q-130 -272 -403 -272q-141 0 -225.5 86t-84.5 227zM449 1282l239 293q12 -2 23 -21l-242 -288q-13 3 -20 16z" />
<glyph unicode="&#xfb;" d="M188 293v780q14 11 29 0v-778q0 -132 76.5 -209.5t208.5 -77.5q274 0 399 307v758q15 11 29 0v-1069q-14 -11 -29 0v248q-130 -272 -403 -272q-141 0 -225.5 86t-84.5 227zM309 1270l236 188h26l242 -194q0 -18 -16 -21l-238 189l-233 -183q-13 5 -17 21z" />
<glyph unicode="&#xfc;" d="M188 293v780q14 11 29 0v-778q0 -132 76.5 -209.5t208.5 -77.5q274 0 399 307v758q15 11 29 0v-1069q-14 -11 -29 0v248q-130 -272 -403 -272q-141 0 -225.5 86t-84.5 227zM381 1395v41q13 8 29 8q8 0 15 -2t10 -4l3 -2v-41q-10 -9 -28 -9q-7 0 -14.5 2t-11.5 4z M655 1395v41q13 8 29 8q8 0 15.5 -2t10.5 -4l3 -2v-41q-11 -9 -29 -9q-7 0 -14.5 2t-11.5 4z" />
<glyph unicode="&#xfd;" horiz-adv-x="1058" d="M74 1073q4 4 16 4l16 -4l451 -1038h2l389 1038q5 4 17 4l16 -4l-514 -1362q-46 -125 -89.5 -174t-117.5 -49q-23 0 -45 2.5t-33 5.5l-10 2q-6 15 2 29q29 -10 84 -10q66 0 102 45.5t82 169.5l101 266h-2zM414 1270l254 311q11 -2 22 -20l-256 -308q-13 3 -20 17z" />
<glyph unicode="&#xfe;" horiz-adv-x="1136" d="M197 -510v2038q4 4 16 4q5 0 8.5 -1t4.5 -2l1 -1v-703q43 121 138 197t219 76q407 0 407 -559t-393 -559q-119 0 -219 69t-152 193v-752q-4 -4 -14 -4zM227 377q3 -88 50 -171.5t132.5 -139.5t186.5 -56q365 0 365 529q0 269 -95 398.5t-284 129.5q-105 0 -188.5 -63.5 t-125 -153.5t-41.5 -182v-291z" />
<glyph unicode="&#xff;" horiz-adv-x="1058" d="M74 1073q4 4 16 4l16 -4l451 -1038h2l389 1038q5 4 17 4l16 -4l-514 -1362q-46 -125 -89.5 -174t-117.5 -49q-23 0 -45 2.5t-33 5.5l-10 2q-6 15 2 29q29 -10 84 -10q66 0 102 45.5t82 169.5l101 266h-2zM348 1399v41q13 8 29 8q8 0 15.5 -2t10.5 -4l3 -2v-41 q-11 -8 -29 -8q-7 0 -14.5 2t-10.5 4zM643 1399v41q13 8 29 8q8 0 15 -2t10 -4l3 -2v-41q-10 -8 -28 -8q-7 0 -14.5 2t-11.5 4z" />
<glyph unicode="&#x152;" horiz-adv-x="1662" d="M160 737q0 385 149.5 571.5t417.5 186.5q55 0 172 -20h627q8 -15 0 -31h-617v-680h535q8 -16 0 -31h-535v-702h637q5 -18 0 -31h-649q-70 -20 -170 -20q-268 0 -417.5 185.5t-149.5 571.5zM190 737q0 -189 39 -330.5t111 -227.5t168.5 -127.5t218.5 -41.5q83 0 152 19 v1419q-62 16 -152 16q-122 0 -218.5 -41.5t-168.5 -127.5t-111 -227.5t-39 -330.5z" />
<glyph unicode="&#x153;" horiz-adv-x="1714" d="M145 539q0 296 98 427.5t292 131.5q155 0 244 -85t118 -272q33 181 125.5 269t228.5 88q163 0 247.5 -103.5t84.5 -263.5q0 -56 -5.5 -106t-11.5 -73l-5 -22h-648q6 -520 344 -520q43 0 84 9.5t70 22.5t51.5 26t33.5 22l11 10q23 -7 23 -24q-4 -4 -11 -10.5t-32.5 -23 t-55 -29t-79 -23t-103.5 -10.5q-141 0 -232.5 86.5t-119.5 263.5q-36 -186 -125.5 -268t-241.5 -82q-193 0 -289 131t-96 428zM174 539q0 -147 24 -250.5t71 -164t110.5 -87.5t150.5 -27q173 0 260 125.5t87 407.5q0 148 -21.5 250.5t-66 162.5t-106.5 86.5t-148 26.5 q-87 0 -151 -27t-112.5 -87.5t-73 -164.5t-24.5 -251zM913 561h623l9 52q7 56 7 120q0 67 -17.5 125.5t-52 106.5t-94 76t-137.5 28q-155 0 -244.5 -127.5t-93.5 -380.5z" />
<glyph unicode="&#x178;" horiz-adv-x="1247" d="M66 1470q6 5 20 5q5 0 9 -1.5t5 -2.5l2 -1l519 -811l536 811q5 5 19 5l18 -5l-557 -843v-623q-6 -4 -16 -4l-15 4v621zM455 1673v41q12 8 28 8q8 0 15.5 -2t10.5 -4l3 -2v-41q-11 -8 -29 -8q-7 0 -14 2t-11 4zM729 1673v41q13 8 29 8q8 0 15 -2t10 -4l3 -2v-41 q-10 -8 -28 -8q-7 0 -14.5 2t-11.5 4z" />
<glyph unicode="&#x2c6;" horiz-adv-x="811" d="M131 1171l260 207h27l256 -207q0 -17 -17 -20l-251 201l-259 -201q-12 5 -16 20z" />
<glyph unicode="&#x2dc;" horiz-adv-x="669" d="M135 1288q1 4 3 9.5t11 21t21.5 27t36.5 21t53 9.5q32 0 66 -20.5t71 -41t76 -20.5q67 0 94 68q17 -3 25 -14q-1 -3 -3.5 -9t-12 -20.5t-22 -25.5t-35.5 -20t-50 -9q-39 0 -76.5 20.5t-72 41t-66.5 20.5q-34 0 -57.5 -17.5t-30.5 -34.5l-6 -18q-18 3 -25 12z" />
<glyph unicode="&#x2000;" horiz-adv-x="952" />
<glyph unicode="&#x2001;" horiz-adv-x="1905" />
<glyph unicode="&#x2002;" horiz-adv-x="952" />
<glyph unicode="&#x2003;" horiz-adv-x="1905" />
<glyph unicode="&#x2004;" horiz-adv-x="635" />
<glyph unicode="&#x2005;" horiz-adv-x="476" />
<glyph unicode="&#x2006;" horiz-adv-x="317" />
<glyph unicode="&#x2007;" horiz-adv-x="317" />
<glyph unicode="&#x2008;" horiz-adv-x="238" />
<glyph unicode="&#x2009;" horiz-adv-x="381" />
<glyph unicode="&#x200a;" horiz-adv-x="105" />
<glyph unicode="&#x2010;" horiz-adv-x="716" d="M182 575q-6 15 0 31h353q6 -16 0 -31h-353z" />
<glyph unicode="&#x2011;" horiz-adv-x="716" d="M182 575q-6 15 0 31h353q6 -16 0 -31h-353z" />
<glyph unicode="&#x2012;" horiz-adv-x="716" d="M182 575q-6 15 0 31h353q6 -16 0 -31h-353z" />
<glyph unicode="&#x2013;" horiz-adv-x="1134" d="M186 575q-6 15 0 31h762q6 -15 0 -31h-762z" />
<glyph unicode="&#x2014;" horiz-adv-x="1646" d="M186 575q-6 15 0 31h1274q6 -15 0 -31h-1274z" />
<glyph unicode="&#x2018;" horiz-adv-x="380" d="M160 1288v35q0 40 15 77.5t31 55.5l15 17l17 -13q-6 -7 -14 -19t-22 -45.5t-14 -62.5l21 -4v-41q-7 -4 -25 -4z" />
<glyph unicode="&#x2019;" horiz-adv-x="372" d="M154 1300q5 7 13.5 19t22 45.5t13.5 62.5l-21 5v41q7 4 25 4l24 -4v-35q0 -40 -15 -77.5t-30 -54.5l-16 -18z" />
<glyph unicode="&#x201a;" horiz-adv-x="323" d="M109 -131q5 7 13.5 19t22 45.5t13.5 62.5l-21 4v41q7 4 25 4l24 -4v-35q0 -40 -15 -77t-31 -55l-15 -17z" />
<glyph unicode="&#x201c;" horiz-adv-x="528" d="M162 1290v35q0 40 15 77.5t31 55.5l15 17l17 -13q-6 -7 -14 -19t-22 -45.5t-14 -62.5l21 -4v-41q-7 -4 -25 -4zM307 1290v35q0 40 15.5 77.5t31.5 55.5l15 17l16 -13q-5 -7 -13.5 -19t-22 -45.5t-13.5 -62.5l20 -4v-41q-6 -4 -24 -4z" />
<glyph unicode="&#x201d;" horiz-adv-x="516" d="M152 1296q5 7 13.5 19t22 45.5t13.5 62.5l-21 4v41q7 5 25 5l24 -5v-34q0 -40 -15 -77.5t-30 -54.5l-16 -18zM297 1296q5 7 13.5 19t22 45.5t13.5 62.5l-20 4v41q6 5 24 5l25 -5v-34q0 -40 -15.5 -77.5t-31.5 -54.5l-15 -18z" />
<glyph unicode="&#x201e;" horiz-adv-x="468" d="M109 -131q5 7 13.5 19t22 45.5t13.5 62.5l-21 4v41q7 4 25 4l24 -4v-35q0 -40 -15 -77t-31 -55l-15 -17zM254 -131q5 7 13.5 19t22 45.5t13.5 62.5l-20 4v41q6 4 24 4l25 -4v-35q0 -40 -15.5 -77.5t-30.5 -54.5l-16 -17z" />
<glyph unicode="&#x2022;" horiz-adv-x="552" d="M229 578q0 21 13 33t34 12q22 0 35 -12t13 -33q0 -20 -13 -31.5t-35 -11.5q-21 0 -34 11.5t-13 31.5z" />
<glyph unicode="&#x2026;" horiz-adv-x="897" d="M156 2v41q12 8 28 8q8 0 15 -2t11 -4l3 -2v-41q-11 -8 -29 -8q-7 0 -14 2t-10 4zM422 2v41q13 8 29 8q8 0 15 -2t10 -4l3 -2v-41q-10 -8 -28 -8q-7 0 -14.5 2t-10.5 4zM684 2v41q13 8 29 8q8 0 15 -2t10 -4l3 -2v-41q-10 -8 -28 -8q-7 0 -14.5 2t-10.5 4z" />
<glyph unicode="&#x202f;" horiz-adv-x="381" />
<glyph unicode="&#x2039;" horiz-adv-x="696" d="M113 553l4 12l426 477q12 -2 18 -18l-416 -471l418 -471q-3 -18 -20 -21l-426 480q-4 4 -4 12z" />
<glyph unicode="&#x203a;" horiz-adv-x="696" d="M133 82l418 471l-416 471q6 15 19 18l426 -477q4 -4 4 -12l-4 -12l-426 -480q-18 4 -21 21z" />
<glyph unicode="&#x205f;" horiz-adv-x="476" />
<glyph unicode="&#x20ac;" horiz-adv-x="1193" d="M129 508l6 31h156q-4 49 -4 145q0 79 6 156h-164l6 30h160q8 87 25 159.5t51.5 141.5t83.5 116.5t125.5 76.5t173.5 29q92 0 165.5 -15t100.5 -30l27 -15q0 -17 -13 -24q-11 6 -32.5 15t-93 23.5t-148.5 14.5q-93 0 -165 -26.5t-118.5 -70.5t-78.5 -109.5t-48 -133 t-24 -152.5h594q2 -12 -7 -30h-589q-5 -128 -5 -156q0 -86 5 -145h512q2 -12 -7 -31h-503q6 -85 21.5 -154t47 -135t78 -110.5t120 -71.5t167.5 -27q84 0 157.5 14t105.5 28l32 14q8 -8 12 -23q-11 -7 -33 -17.5t-103 -28t-177 -17.5q-101 0 -179 30t-127 78.5t-82.5 119.5 t-49 142t-23.5 158h-164z" />
<glyph unicode="&#x2122;" horiz-adv-x="1312" d="M98 1458q0 13 4 17h416q4 -4 4 -17q0 -8 -4 -14h-190v-553q-5 -6 -17 -6q-4 0 -7.5 1.5t-5.5 3.5l-1 1v553h-195q-4 8 -4 14zM635 891v577q20 6 39 0l196 -399l209 399q19 7 37 0v-577q-6 -4 -14 -4l-17 4v278v254l-196 -374q-5 -7 -19 -7q-6 0 -10.5 2t-5.5 4l-2 1 l-188 374v-252v-280q-7 -4 -15 -4z" />
<glyph unicode="&#x25fc;" horiz-adv-x="1075" d="M0 0v1075h1075v-1075h-1075z" />
</font>
</defs>
</svg>
