<?xml version="1.0" standalone="no"?>
<!DOCTYPE svg PUBLIC "-//W3C//DTD SVG 1.1//EN" "http://www.w3.org/Graphics/SVG/1.1/DTD/svg11.dtd" >
<svg xmlns="http://www.w3.org/2000/svg">
<metadata></metadata>
<defs>
<font id="glober_regularregular" horiz-adv-x="1388" >
<font-face units-per-em="2048" ascent="1536" descent="-512" />
<missing-glyph horiz-adv-x="485" />
<glyph unicode="&#xfb01;" horiz-adv-x="1161" d="M74 1020q0 16 2 30.5t4 20.5l2 6h131v123q0 165 89 250.5t288 85.5q98 0 195.5 -15t145.5 -31l48 -15q0 -67 -39 -109q-16 5 -45.5 13.5t-118 22t-174.5 13.5q-133 0 -187.5 -49t-54.5 -156v-133h551q40 0 80 -8v-1059q-24 -10 -73 -10q-24 0 -42.5 2.5t-25.5 5.5l-6 2 v951h-484v-951q-24 -10 -73 -10q-23 0 -41.5 2.5t-25.5 5.5l-7 2v951h-131q-8 22 -8 59z" />
<glyph unicode="&#xfb02;" horiz-adv-x="1165" d="M74 1020q0 33 8 57h131v123q0 336 365 336q98 0 201.5 -17.5t157.5 -34.5l54 -18v-1456q-24 -10 -73 -10q-24 0 -42.5 2.5t-25.5 5.5l-6 2v1372q-134 33 -254 33q-125 0 -177.5 -50.5t-52.5 -154.5v-133h230q8 -24 8 -57q0 -31 -8 -59h-230v-951q-24 -10 -73 -10 q-23 0 -41.5 2.5t-25.5 5.5l-7 2v951h-131q-8 56 -8 59z" />
<glyph horiz-adv-x="0" />
<glyph horiz-adv-x="682" />
<glyph unicode=" "  horiz-adv-x="485" />
<glyph unicode="&#x09;" horiz-adv-x="485" />
<glyph unicode="&#xa0;" horiz-adv-x="485" />
<glyph unicode="!" horiz-adv-x="528" d="M184 10v150q23 10 80 10q24 0 44 -2.5t28 -5.5l8 -2v-150q-25 -10 -80 -10q-25 0 -45 2.5t-27 5.5zM184 1464q17 11 80 11q27 0 47 -2.5t27 -5.5l6 -3l-25 -1104q-18 -12 -55 -12q-16 0 -30 3t-20 6l-5 3z" />
<glyph unicode="&#x22;" horiz-adv-x="679" d="M133 1464q23 11 74 11q23 0 41.5 -2.5t25.5 -5.5l7 -3l-27 -403q-14 -8 -47 -8q-14 0 -25.5 2t-16.5 4l-5 2zM399 1464q21 11 74 11q22 0 40.5 -2.5t26.5 -5.5l7 -3l-27 -403q-16 -8 -47 -8q-15 0 -26.5 2t-16.5 4l-4 2z" />
<glyph unicode="#" horiz-adv-x="1345" d="M82 332q0 41 10 61h225l134 471h-187q-10 22 -10 62q0 39 10 59h219l80 279q30 12 66 12q38 0 65 -12l-78 -279h316l80 279q30 12 65 12q39 0 66 -12l-80 -279h184q10 -27 10 -57q0 -34 -10 -64h-217l-133 -471h178q10 -20 10 -59q0 -32 -10 -62h-213l-71 -260 q-42 -12 -68 -12q-18 0 -66 12l74 260h-315l-74 -260q-42 -12 -68 -12q-21 0 -63 12l72 260h-191q-10 20 -10 60zM451 393h315l131 471h-315z" />
<glyph unicode="$" horiz-adv-x="1150" d="M117 1001q0 158 103.5 253t297.5 110l-14 242q24 10 67 10q20 0 37.5 -2.5t25.5 -5.5l7 -2l-16 -238q93 -3 178 -15t123 -23l39 -11q0 -34 -9 -62q-12 -36 -34 -51q-132 41 -308 41q-346 0 -346 -231q0 -56 26.5 -98t71.5 -67.5t103 -45t122 -36.5t128 -35.5t122 -47 t103 -67.5t71.5 -100.5t26.5 -141.5q0 -164 -107 -260t-310 -111l16 -260q-21 -10 -68 -10q-20 0 -37.5 2.5t-24.5 5.5l-7 2l14 258q-107 2 -206 20.5t-145 35.5l-46 18q0 43 4 59q5 15 12 27.5t11.5 18.5t7.5 7q21 -6 57 -15t136 -24.5t186 -15.5q352 0 352 234 q0 60 -26.5 105t-71 72t-102 47.5t-121.5 36.5t-128 33t-121.5 44t-102 63t-71 95t-26.5 136z" />
<glyph unicode="%" horiz-adv-x="1542" d="M96 1061q0 354 273 354q272 0 272 -354t-272 -354q-134 0 -203.5 84t-69.5 270zM215 1061q0 -99 19.5 -156.5t51.5 -78.5t83 -21q75 0 113 56t38 200q0 143 -38.5 200.5t-112.5 57.5q-77 0 -115.5 -57.5t-38.5 -200.5zM315 -10l795 1437q19 11 64 11q19 0 35 -3t22 -5 l6 -3l-793 -1437q-22 -10 -65 -10q-18 0 -34 2.5t-23 5.5zM903 334q0 354 273 354q272 0 272 -354t-272 -354q-133 0 -203 84t-70 270zM1022 334q0 -144 39 -200t115 -56t113.5 56t37.5 200q0 143 -38.5 200.5t-112.5 57.5q-76 0 -115 -57.5t-39 -200.5z" />
<glyph unicode="&#x26;" horiz-adv-x="1306" d="M96 330q0 65 22.5 126t55 104.5t77 83t79.5 62.5t71 42q-73 165 -73 319q0 160 83 253t246 93q136 0 215.5 -70.5t79.5 -179.5q0 -62 -20 -116.5t-52 -97t-85 -86t-103.5 -75.5t-124.5 -73q120 -219 346 -393q80 102 129 262q35 3 68.5 -10.5t50.5 -38.5 q-47 -148 -157 -281q116 -78 247 -133q3 -36 -15 -70.5t-48 -52.5q-153 63 -283 152q-21 -22 -51.5 -45.5t-83.5 -54.5t-128 -50.5t-157 -19.5q-77 0 -145 20.5t-123.5 61.5t-88 110t-32.5 158zM242 348q0 -114 72 -180t194 -66q161 0 309 115q-232 184 -368 434 q-34 -20 -65 -45t-66 -63t-55.5 -88.5t-20.5 -106.5zM461 1075q0 -128 59 -264q145 80 218 156.5t73 181.5q0 73 -43 115.5t-121 42.5q-87 0 -136.5 -59.5t-49.5 -172.5z" />
<glyph unicode="'" horiz-adv-x="413" d="M133 1464q21 11 74 11q22 0 40.5 -2.5t26.5 -5.5l7 -3l-27 -403q-14 -8 -47 -8q-14 0 -25.5 2t-16.5 4l-5 2z" />
<glyph unicode="(" horiz-adv-x="593" d="M119 655q0 162 30.5 325.5t73.5 280.5t86.5 211t74.5 142l30 47q26 2 61 -16q16 -9 28.5 -20.5t16.5 -18.5l4 -7q-10 -15 -27.5 -43.5t-62 -123.5t-78.5 -197.5t-62 -261t-28 -318.5t26.5 -316.5t64.5 -265t76 -194t65 -127.5l26 -41q-12 -27 -47 -45q-16 -8 -31.5 -12 t-23.5 -4h-8q-12 17 -32 49.5t-70.5 137.5t-89.5 215.5t-71 275.5t-32 327z" />
<glyph unicode=")" horiz-adv-x="593" d="M72 -289q10 15 27.5 43.5t62 123.5t78.5 197.5t62 261t28 318.5t-26.5 316.5t-64.5 265t-76 194t-65 127.5l-26 41q12 26 47 46q16 8 31.5 12t23.5 4h8q12 -17 31.5 -49.5t70 -137t89.5 -215.5t70.5 -276.5t31.5 -327.5q0 -118 -16 -237t-42 -215.5t-57.5 -185.5 t-62.5 -154t-57 -114t-42 -74l-16 -25q-28 -2 -63 16q-16 8 -27.5 19t-15.5 19z" />
<glyph unicode="*" horiz-adv-x="704" d="M117 1245q0 53 26 82l166 -55v172q41 15 86 0v-172l166 55q25 -28 25 -82l-166 -53l106 -145q-39 -39 -71 -50l-105 142l-100 -142q-40 11 -72 47l103 146z" />
<glyph unicode="+" horiz-adv-x="958" d="M115 594q0 16 2.5 30.5t4.5 20.5l3 6h297v299q20 8 57 8q16 0 30.5 -2t20.5 -4l7 -2v-299h299q8 -20 8 -57q0 -16 -2 -30.5t-4 -20.5l-2 -6h-299v-297q-21 -11 -58 -11q-16 0 -30.5 2.5t-20.5 5.5l-6 3v297h-297q-10 20 -10 57z" />
<glyph unicode="," horiz-adv-x="460" d="M129 -190q7 8 18 22.5t30.5 63.5t23.5 104q-16 1 -29.5 3.5t-19.5 4.5l-5 2v150q29 10 82 10q24 0 45 -2.5t30 -5.5l9 -2v-103q0 -53 -13 -102t-31.5 -81t-37.5 -56.5t-32 -35.5l-13 -11z" />
<glyph unicode="-" horiz-adv-x="729" d="M154 594q0 16 2.5 30.5t5.5 20.5l2 6h401q10 -20 10 -57q0 -16 -2.5 -30.5t-4.5 -20.5l-3 -6h-401q-10 20 -10 57z" />
<glyph unicode="." horiz-adv-x="462" d="M147 10v150q27 10 84 10q24 0 45 -2.5t30 -5.5l9 -2v-150q-29 -10 -84 -10q-25 0 -46 2.5t-29 5.5z" />
<glyph unicode="/" horiz-adv-x="931" d="M47 -84l688 1608q27 12 74 12q23 0 42 -3t27 -6l7 -3l-688 -1608q-27 -12 -76 -12q-22 0 -40.5 3t-26.5 6z" />
<glyph unicode="0" horiz-adv-x="1267" d="M135 696q0 370 125.5 543.5t370.5 173.5q247 0 374.5 -172t127.5 -545q0 -372 -127.5 -544t-374.5 -172q-246 0 -371 171.5t-125 544.5zM293 696q0 -214 39 -345.5t111.5 -188t187.5 -56.5q176 0 258 135.5t82 454.5q0 217 -38 348t-111 186.5t-191 55.5 q-115 0 -187.5 -55.5t-111.5 -187t-39 -347.5z" />
<glyph unicode="1" horiz-adv-x="825" d="M72 1085q257 68 403 295q23 13 72 13q22 0 40.5 -3.5t26.5 -6.5l7 -3v-1368q-23 -12 -76 -12q-22 0 -41 3t-27 6l-8 3v897q0 165 10 275q-136 -162 -373 -223q-22 22 -31.5 55.5t-2.5 68.5z" />
<glyph unicode="2" horiz-adv-x="1085" d="M109 137q0 47 6.5 90t15.5 77t28.5 68t34 57.5t43 51.5t46.5 44.5t53.5 41.5t53.5 36.5t58 37t56 35.5q147 96 192 136q95 82 110 185q3 23 3 50q0 50 -15 91t-47.5 76t-92 54.5t-140.5 19.5q-73 0 -150 -14t-118 -28l-41 -15q-52 39 -43 108q17 8 49 20.5t130.5 33 t197.5 20.5q91 0 165.5 -20t134 -61.5t93 -113t33.5 -167.5q0 -41 -6 -77t-14.5 -66t-27.5 -59.5t-34.5 -51.5t-46.5 -49t-52.5 -44.5t-63.5 -45t-68.5 -44t-78.5 -47.5q-16 -10 -58.5 -34.5t-64.5 -39t-58 -40t-56.5 -49.5t-42 -56t-31.5 -70t-10 -81q0 -15 1 -29t2 -22.5 t1 -10.5h676q12 -24 12 -67q0 -40 -12 -68h-811q-12 65 -12 137z" />
<glyph unicode="3" horiz-adv-x="1062" d="M102 49q-2 29 9 60.5t30 50.5q143 -49 297 -49q179 0 261.5 69.5t82.5 202.5q0 285 -331 285h-127q-25 62 0 123h127q290 0 290 251q0 120 -74 183t-221 63q-71 0 -140 -12t-102 -24l-34 -13q-56 37 -49 107q6 3 16 7.5t44.5 16t71.5 20.5t94 16t114 7q208 0 319 -93 t111 -257q0 -256 -203 -332q246 -77 246 -369q0 -83 -26 -150t-81.5 -120.5t-151.5 -82.5t-226 -29q-60 0 -118 7t-97.5 17t-70.5 20.5t-46 17.5z" />
<glyph unicode="4" horiz-adv-x="1179" d="M70 422q0 18 3 33.5t6 21.5l3 6l661 897q25 13 78 13q22 0 40 -3.5t25 -6.5l7 -3v-897h197q12 -20 12 -61q0 -18 -3 -33t-6 -21l-3 -6h-197v-350q-27 -12 -72 -12q-21 0 -38.5 3t-24.5 6l-8 3v350h-668q-12 19 -12 60zM238 483h512v697z" />
<glyph unicode="5" horiz-adv-x="1064" d="M104 41q-3 29 8 60.5t31 50.5q13 -5 36.5 -12t95 -19t141.5 -12q189 0 282 67.5t93 214.5q0 145 -83 217t-286 72q-45 0 -95 -3.5t-91.5 -8t-49.5 -4.5v729h701q22 -70 0 -133h-555v-463q50 10 141 10q473 0 473 -416q0 -411 -514 -411q-64 0 -121 6.5t-93 15.5t-63 17.5 t-39 14.5z" />
<glyph unicode="6" horiz-adv-x="1128" d="M131 526q0 416 197 630t553 237q26 -57 0 -121q-240 -26 -384 -142.5t-190 -351.5q158 74 299 74q90 0 164.5 -24.5t132.5 -75.5t90.5 -136.5t32.5 -199.5q0 -213 -120.5 -324.5t-327.5 -111.5q-101 0 -181.5 32t-140.5 97t-92.5 170.5t-32.5 246.5zM283 518 q0 -214 79.5 -317t215.5 -103q134 0 213 81t79 237q0 160 -76.5 237.5t-207.5 77.5q-137 0 -297 -88q-6 -59 -6 -125z" />
<glyph unicode="7" horiz-adv-x="1011" d="M72 1325q0 20 3 37t6 24l3 7h840q10 -36 10 -84q-2 -101 -31.5 -192.5t-75 -165.5t-100.5 -147.5t-109 -154.5t-99 -170.5t-73 -210.5t-28 -260q-56 -8 -70 -8q-12 0 -76 8q0 144 25.5 268.5t67 216t92 172t103.5 150.5t98.5 136.5t79.5 145t44 160.5h-698q-12 25 -12 68 z" />
<glyph unicode="8" horiz-adv-x="1191" d="M127 336q0 77 28 146t74.5 118.5t87.5 81.5t86 57q-109 59 -170 137.5t-61 198.5q0 156 113 247t307 91q192 0 304 -88.5t112 -241.5q0 -224 -222 -360q63 -31 109 -62.5t87.5 -76t63 -104t21.5 -132.5q0 -172 -125 -270t-354 -98q-217 0 -339 96.5t-122 259.5zM272 344 q0 -110 83 -177t241 -67q149 0 234 67t85 175q0 37 -10.5 69.5t-24.5 57t-43.5 49.5t-51 40.5t-64.5 36.5t-67 31.5t-75 31.5t-73 30q-24 -14 -46.5 -29.5t-59 -49.5t-62.5 -69.5t-46 -88t-20 -107.5zM317 1085q0 -59 22.5 -104t81.5 -83.5t94.5 -56t126.5 -54.5 q26 -11 40 -17q186 125 186 301q0 106 -74 165.5t-202 59.5q-127 0 -201 -57.5t-74 -153.5z" />
<glyph unicode="9" horiz-adv-x="1128" d="M102 977q0 213 120.5 324.5t326.5 111.5q209 0 328.5 -135t119.5 -412q0 -211 -52.5 -372t-151.5 -265.5t-235.5 -161t-311.5 -67.5q-25 64 0 121q239 24 382 141t189 352q-148 -73 -297 -73q-90 0 -164 24.5t-132 75.5t-90 136.5t-32 199.5zM256 977q0 -160 77 -237.5 t208 -77.5q148 0 297 88q6 59 6 124q0 214 -79.5 317t-215.5 103q-134 0 -213.5 -80.5t-79.5 -236.5z" />
<glyph unicode=":" horiz-adv-x="475" d="M154 10v150q27 10 84 10q24 0 45 -2.5t30 -5.5l9 -2v-150q-29 -10 -84 -10q-25 0 -46 2.5t-30 5.5zM154 819v150q27 10 84 10q24 0 45 -2.5t30 -4.5l9 -3v-150q-29 -10 -84 -10q-25 0 -46 2.5t-30 4.5z" />
<glyph unicode=";" horiz-adv-x="497" d="M152 -190q3 3 7 8t15.5 23.5t20.5 38.5t17.5 53t10.5 67q-16 1 -30 3.5t-19 4.5l-6 2v150q27 10 84 10q24 0 45 -2.5t30 -5.5l9 -2v-103q0 -53 -13 -102t-32 -81t-37.5 -56.5t-31.5 -35.5l-13 -11zM168 819v150q27 10 84 10q24 0 45 -2.5t30 -4.5l9 -3v-150 q-29 -10 -84 -10q-25 0 -46 2.5t-30 4.5z" />
<glyph unicode="&#x3c;" horiz-adv-x="940" d="M109 594q0 18 2.5 34.5t4.5 23.5l3 7l655 297q10 -16 10 -57q0 -18 -2.5 -33.5t-5.5 -21.5l-2 -6l-534 -246l534 -242q10 -20 10 -61q0 -17 -2.5 -32t-5.5 -21l-2 -7l-655 297q-10 29 -10 68z" />
<glyph unicode="=" horiz-adv-x="1048" d="M170 356q-15 63 0 117h709q16 -59 0 -117h-709zM170 715q-15 60 0 114h709q16 -55 0 -114h-709z" />
<glyph unicode="&#x3e;" horiz-adv-x="937" d="M156 289q0 18 2.5 33.5t5.5 21.5l2 6l534 242l-534 246q-10 20 -10 61q0 18 2.5 32.5t5.5 19.5l2 5l655 -297q10 -24 10 -65q0 -17 -2.5 -34t-4.5 -26l-3 -8l-655 -297q-10 21 -10 60z" />
<glyph unicode="?" horiz-adv-x="886" d="M78 1346q5 3 14.5 7.5t41 16t66.5 20.5t89 16t110 7q185 0 289.5 -90.5t104.5 -249.5q0 -82 -21 -147t-54 -107t-73.5 -78t-80.5 -70.5t-73 -73.5t-54 -98t-21 -134q-17 -17 -58 -17q-16 0 -31 4t-21 8l-7 5q0 92 19 163.5t48.5 116t66 81t73 68t66 66t48.5 86.5t19 119 q0 106 -65 163.5t-195 57.5q-70 0 -133.5 -12t-91.5 -24l-29 -13q-54 38 -47 109zM274 10v150q27 10 84 10q24 0 45 -2.5t30 -5.5l9 -2v-150q-29 -10 -84 -10q-25 0 -46 2.5t-30 5.5z" />
<glyph unicode="@" horiz-adv-x="1871" d="M125 571q0 249 107.5 437t293.5 286.5t424 98.5q247 0 427 -97.5t272 -271t92 -403.5q0 -211 -93.5 -329t-261.5 -118q-183 0 -231 137q-75 -137 -264 -137q-71 0 -128 21t-102 65.5t-69.5 123t-24.5 185.5q0 109 24.5 188t69.5 124t102 65.5t128 20.5q164 0 244 -107v98 q20 13 63 13q19 0 35 -3.5t23 -6.5l6 -3v-507q0 -175 129 -175q99 0 163 86.5t64 258.5q0 306 -177.5 488.5t-490.5 182.5q-205 0 -361.5 -86.5t-243.5 -250.5t-87 -384q0 -144 36.5 -262t99.5 -199t150 -136t185.5 -80t208.5 -25q293 0 555 164q48 -20 51 -78 q-273 -193 -626 -193q-127 0 -243 31t-216.5 96.5t-174.5 159.5t-116.5 228t-42.5 294zM707 569q0 -165 60 -231t165 -66q89 0 143.5 58t59.5 139v199q-2 82 -57 141t-146 59q-51 0 -88.5 -12.5t-70 -43.5t-49.5 -92t-17 -151z" />
<glyph unicode="A" horiz-adv-x="1327" d="M37 12l543 1450q33 13 84 13q24 0 45 -3.5t30 -6.5l9 -3l542 -1450q-27 -12 -84 -12q-22 0 -40 3t-26 6l-7 3l-148 391h-653l-150 -391q-24 -12 -73 -12q-22 0 -40 3t-25 6zM377 530h563l-238 627q-13 36 -23 71.5t-13 52.5l-4 17h-7q-12 -61 -41 -141z" />
<glyph unicode="B" horiz-adv-x="1284" d="M197 0v1475h520q102 0 180 -31t124.5 -86t69.5 -125t23 -154q0 -218 -176 -325q82 -40 124 -83q99 -99 99 -265q0 -188 -111 -297t-325 -109h-528zM348 123h350q162 0 234 71t72 209q0 146 -74.5 214.5t-231.5 68.5h-350v-563zM348 805h336q274 0 274 274 q0 131 -64.5 202t-211.5 71h-334v-547z" />
<glyph unicode="C" horiz-adv-x="1146" d="M133 737q0 376 144.5 567t429.5 191q99 0 185 -17t122 -34l37 -17v-7q0 -60 -47 -107q-13 6 -37 14.5t-97.5 22.5t-146.5 14q-80 0 -143.5 -18t-118 -62.5t-91 -115.5t-57 -180t-20.5 -253t20.5 -252t56.5 -177.5t91.5 -112.5t118.5 -60.5t143 -17.5t155.5 12.5 t111.5 25.5l36 13q44 -44 47 -117q-5 -3 -15 -7.5t-44.5 -16.5t-74 -21t-102.5 -16.5t-130 -7.5q-574 0 -574 757z" />
<glyph unicode="D" horiz-adv-x="1353" d="M197 0v1475h428q149 0 256.5 -37.5t185.5 -123t116 -228.5t38 -349q0 -205 -38 -348t-116 -228t-185.5 -123t-256.5 -38h-428zM348 129h264q89 0 155 16t123 56.5t93 108.5t56 175t20 252q0 146 -20 253t-56 175t-93 108.5t-123 56.5t-155 16h-264v-1217z" />
<glyph unicode="E" horiz-adv-x="1136" d="M197 0v1475h813q12 -27 12 -62q0 -38 -12 -65h-662v-539h559q13 -29 13 -59q0 -34 -13 -66h-559v-557h682q12 -27 12 -61q0 -36 -12 -66h-833z" />
<glyph unicode="F" horiz-adv-x="1089" d="M197 12v1463h804q13 -45 13 -64q0 -33 -13 -63h-653v-560h572q12 -24 12 -61t-12 -65h-572v-650q-25 -12 -76 -12q-23 0 -41.5 3t-26.5 6z" />
<glyph unicode="G" horiz-adv-x="1277" d="M131 737q0 373 154 565.5t446 192.5q107 0 201.5 -17t135.5 -34l42 -17q-3 -71 -47 -112q-16 5 -44 13.5t-110.5 22t-158.5 13.5q-82 0 -148.5 -18t-125.5 -62.5t-99 -115.5t-63 -180.5t-23 -252.5t23 -252t62.5 -178.5t99 -113t126 -61t148.5 -17.5q123 0 237 26v531 h-336q-12 24 -12 63q0 19 3 35t6 22l3 7h482v-750q-6 -3 -18 -7.5t-51.5 -16t-83 -20.5t-111.5 -16t-138 -7q-292 0 -446 190.5t-154 566.5z" />
<glyph unicode="H" d="M197 12v1450q26 13 75 13q22 0 41 -3.5t27 -6.5l8 -3v-639h692v639q27 13 76 13q22 0 41 -3.5t27 -6.5l8 -3v-1450q-25 -12 -76 -12q-24 0 -43 3t-26 6l-7 3v676h-692v-676q-27 -12 -76 -12q-24 0 -43 3t-25 6z" />
<glyph unicode="I" horiz-adv-x="544" d="M197 12v1450q24 13 75 13q23 0 42 -3.5t26 -6.5l8 -3v-1450q-27 -12 -76 -12q-24 0 -42.5 3t-25.5 6z" />
<glyph unicode="J" horiz-adv-x="884" d="M49 41v9q0 67 41 108q104 -43 221 -43q236 0 236 241v1106q21 13 76 13q23 0 41.5 -3.5t25.5 -6.5l8 -3v-1102q0 -192 -92.5 -286t-267.5 -94q-71 0 -143.5 15t-108.5 31z" />
<glyph unicode="K" horiz-adv-x="1255" d="M197 12v1450q26 13 77 13q22 0 40.5 -3.5t25.5 -6.5l8 -3v-633h209l442 633q35 13 78 13q47 0 82 -13l-475 -680l535 -770q-30 -12 -89 -12q-24 0 -46.5 3t-33.5 6l-10 3l-481 690h-211v-690q-23 -12 -76 -12q-22 0 -40.5 3t-26.5 6z" />
<glyph unicode="L" horiz-adv-x="1048" d="M197 0v1462q26 13 75 13q23 0 42 -3.5t26 -6.5l8 -3v-1329h641q10 -35 10 -65q0 -28 -10 -68h-792z" />
<glyph unicode="M" horiz-adv-x="1714" d="M195 12v1450q35 13 92 13q22 0 45 -3.5t35 -6.5l12 -3l356 -651q87 -168 107 -231h8q10 44 70 151q172 310 401 731q50 13 98 13q27 0 52.5 -3.5t36.5 -6.5l12 -3v-1450q-27 -12 -76 -12q-22 0 -41 3t-27 6l-8 3v869q0 319 10 409h-6q-27 -88 -139 -301l-342 -606 q-20 -8 -51 -8q-13 0 -24.5 2t-17.5 4l-5 2q-40 74 -153.5 281t-174.5 321q-117 215 -141 305h-7q17 -84 17 -399v-879q-23 -12 -70 -12q-20 0 -37 3t-25 6z" />
<glyph unicode="N" horiz-adv-x="1425" d="M197 12v1450q33 13 90 13q27 0 49.5 -3.5t31.5 -6.5l9 -3l600 -1030q31 -53 60.5 -112t42.5 -92l14 -33h6q-13 131 -13 305v962q23 13 74 13q22 0 39 -3.5t23 -6.5l6 -3v-1450q-27 -12 -86 -12q-27 0 -50 3t-33 6l-9 3l-607 1043q-33 55 -60.5 111t-38.5 85l-11 29h-6 q10 -110 10 -311v-957q-23 -12 -72 -12q-21 0 -38 3t-24 6z" />
<glyph unicode="O" d="M131 737q0 385 147 571.5t416 186.5q270 0 416.5 -186t146.5 -572q0 -387 -146 -572t-417 -185t-417 185t-146 572zM291 737q0 -174 28 -297.5t82 -196t125.5 -105t167.5 -32.5t167.5 32.5t126 105t82.5 196t28 297.5t-28 297.5t-82.5 196t-126 105t-167.5 32.5 t-167.5 -32.5t-125.5 -105t-82 -196t-28 -297.5z" />
<glyph unicode="P" horiz-adv-x="1232" d="M197 12v1463h518q195 0 309.5 -120.5t114.5 -318.5q0 -197 -114.5 -317.5t-309.5 -120.5h-367v-586q-25 -12 -74 -12q-24 0 -43.5 3t-26.5 6zM348 729h352q132 0 205.5 81.5t73.5 223.5q0 147 -73 229.5t-206 82.5h-352v-617z" />
<glyph unicode="Q" d="M131 737q0 385 147 571.5t416 186.5q270 0 416.5 -186t146.5 -572q0 -456 -206 -637q115 -106 268 -137q-5 -42 -28 -77t-58 -52q-81 25 -157 79t-128 122q-104 -55 -254 -55q-271 0 -417 185t-146 572zM291 737q0 -174 28 -297.5t82 -196t125.5 -105t167.5 -32.5 t167.5 32.5t126 105t82.5 196t28 297.5t-28 297.5t-82.5 196t-126 105t-167.5 32.5t-167.5 -32.5t-125.5 -105t-82 -196t-28 -297.5z" />
<glyph unicode="R" horiz-adv-x="1271" d="M197 12v1463h508q195 0 309 -115t114 -305q0 -156 -77.5 -263t-216.5 -141l354 -639q-31 -12 -88 -12q-25 0 -47 3t-31 6l-10 3l-344 623h-320v-623q-25 -12 -74 -12q-24 0 -43.5 3t-26.5 6zM348 764h342q131 0 205 76.5t74 214.5q0 136 -74 213.5t-205 77.5h-342v-582z " />
<glyph unicode="S" horiz-adv-x="1155" d="M123 61q0 70 39 121q21 -7 57 -17.5t136 -28t186 -17.5q173 0 263.5 69.5t90.5 202.5q0 52 -17 93t-42 68.5t-68.5 50.5t-81 36.5t-94.5 30.5q-167 52 -197 64q-167 65 -228 170q-44 76 -44 183q0 189 125.5 298.5t359.5 109.5q105 0 201.5 -13.5t140.5 -27.5l45 -14 q0 -72 -41 -119q-147 43 -325 43q-177 0 -266 -70t-89 -198q0 -52 18.5 -92.5t49 -67t77.5 -49t95.5 -38t110.5 -33.5q17 -4 26 -7q50 -15 85.5 -27.5t80.5 -33t76 -42t63 -53t51 -68t31.5 -85.5t12.5 -107q0 -197 -129.5 -305t-370.5 -108q-73 0 -144 8.5t-120 20 t-87.5 23.5t-57.5 20z" />
<glyph unicode="T" horiz-adv-x="1103" d="M59 1409q0 17 3.5 33.5t6.5 24.5l3 8h960q12 -25 12 -66q0 -17 -3 -34t-6 -25l-3 -9h-399v-1329q-27 -12 -76 -12q-24 0 -43 3t-26 6l-7 3v1329h-409q-13 27 -13 68z" />
<glyph unicode="U" horiz-adv-x="1368" d="M186 481v981q27 13 76 13q23 0 42 -3.5t26 -6.5l8 -3v-1003q0 -166 92 -258t258 -92q164 0 255 92t91 258v1003q25 13 74 13q22 0 41 -3.5t27 -6.5l8 -3v-981q0 -238 -136 -369.5t-364 -131.5t-363 133t-135 368z" />
<glyph unicode="V" horiz-adv-x="1284" d="M49 1460q25 15 82 15q22 0 40 -3.5t25 -6.5l7 -3l387 -1091q16 -48 29 -96t17 -71l5 -24h6q14 82 53 191l387 1091q21 13 72 13q23 0 42.5 -3.5t27.5 -6.5l8 -3l-512 -1452q-33 -10 -82 -10q-23 0 -44 2.5t-31 5.5l-9 2z" />
<glyph unicode="W" horiz-adv-x="1959" d="M57 1462q25 13 76 13q24 0 43.5 -3.5t27.5 -6.5l7 -3l305 -1046q16 -56 29 -115.5t19 -90.5l5 -32h6q13 111 46 236l292 1048q23 13 76 13q24 0 43.5 -3.5t27.5 -6.5l7 -3l291 -1046q15 -58 25.5 -117.5t14.5 -90.5l3 -30h6q12 103 51 236l297 1048q25 13 70 13 q20 0 37.5 -3.5t25.5 -6.5l8 -3l-409 -1450q-31 -12 -82 -12q-22 0 -43.5 3t-31.5 6l-11 3l-285 1037q-18 72 -29.5 133.5t-13.5 87.5l-2 26h-6q-6 -85 -45 -247l-287 -1037q-36 -12 -90 -12q-52 0 -84 12z" />
<glyph unicode="X" horiz-adv-x="1251" d="M47 10l475 752l-442 700q31 13 90 13q24 0 45.5 -3.5t30.5 -6.5l10 -3l373 -585l379 585q35 13 82 13q49 0 84 -13l-451 -694l477 -754q-31 -14 -88 -14q-25 0 -47 3t-31 6l-10 3l-406 639l-403 -641q-35 -10 -80 -10q-43 0 -88 10z" />
<glyph unicode="Y" horiz-adv-x="1286" d="M49 1462q31 13 92 13q25 0 46.5 -3.5t30.5 -6.5l9 -3l422 -686l432 686q25 13 80 13q24 0 45.5 -3.5t31.5 -6.5l9 -3l-530 -841v-609q-25 -12 -74 -12q-24 0 -43.5 3t-27.5 6l-7 3v604z" />
<glyph unicode="Z" horiz-adv-x="1198" d="M80 70q0 30 10 65l807 1204h-750q-10 40 -10 72q0 34 10 64h924q12 -24 12 -66t-12 -70l-811 -1204h838q10 -30 10 -65q0 -43 -10 -70h-1008q-10 40 -10 70z" />
<glyph unicode="[" horiz-adv-x="663" d="M199 -348v2007h379q8 -21 8 -62q0 -18 -2 -33t-4 -20l-2 -6h-238v-1765h238q8 -21 8 -60q0 -19 -2 -34.5t-4 -20.5l-2 -6h-379z" />
<glyph unicode="\" horiz-adv-x="935" d="M47 1524q27 12 78 12q23 0 42.5 -3t27.5 -6l8 -3l686 -1608q-25 -12 -78 -12q-22 0 -41 3t-27 6l-8 3z" />
<glyph unicode="]" horiz-adv-x="663" d="M78 -287q0 17 2.5 32t5.5 21l2 7h236v1765h-236q-10 18 -10 59q0 18 2.5 33.5t5.5 21.5l2 7h377v-2007h-377q-10 18 -10 61z" />
<glyph unicode="^" horiz-adv-x="1060" d="M109 936l356 528q20 11 65 11q20 0 36.5 -2.5t23.5 -5.5l6 -3l356 -528q-18 -10 -61 -10q-19 0 -36.5 2.5t-25.5 5.5l-8 2l-293 434l-290 -434q-25 -10 -68 -10q-19 0 -34.5 2.5t-21.5 5.5z" />
<glyph unicode="_" horiz-adv-x="1124" d="M125 -92q0 16 2.5 29t4.5 17l3 5h854q8 -14 8 -51q0 -17 -2 -30.5t-4 -17.5l-2 -5h-854q-10 14 -10 53z" />
<glyph unicode="`" horiz-adv-x="487" d="M78 1595q18 27 56.5 45t74.5 15l213 -295q-26 -43 -88 -49z" />
<glyph unicode="a" horiz-adv-x="1054" d="M94 307q0 320 387 320q125 0 269 -17v111q0 130 -58 190t-184 60q-68 0 -140 -12.5t-110 -25.5l-37 -13q-3 2 -8 6t-13.5 15t-13.5 24q-10 26 -10 63q17 8 48.5 19.5t123 31t178.5 19.5q109 0 181.5 -25.5t114 -80t58.5 -128t17 -180.5v-674q-18 -10 -59 -10 q-16 0 -31 2.5t-22 5.5l-7 2l-22 154q-43 -89 -132 -136.5t-212 -47.5q-146 0 -232 84.5t-86 242.5zM248 307q0 -107 55.5 -158t155.5 -51q132 0 211.5 91.5t79.5 232.5v82q-188 16 -248 16q-130 0 -192 -50.5t-62 -162.5z" />
<glyph unicode="b" horiz-adv-x="1136" d="M164 10v1516q23 10 74 10q23 0 41 -2.5t25 -5.5l7 -2v-588q94 160 316 160q93 0 163 -29t123 -93t80 -173.5t27 -263.5t-27 -263.5t-80 -173.5t-123 -93t-163 -29q-222 0 -316 159v-129q-22 -10 -73 -10q-23 0 -41.5 2.5t-25.5 5.5zM311 410q0 -78 29.5 -146.5t92 -114 t145.5 -45.5q153 0 220.5 98t67.5 337t-67 336.5t-221 97.5q-123 0 -194 -88.5t-73 -210.5v-264z" />
<glyph unicode="c" horiz-adv-x="913" d="M115 539q0 274 112.5 416.5t327.5 142.5q79 0 143.5 -12t89.5 -24l25 -13q0 -72 -45 -111q-71 35 -186 35q-163 0 -238.5 -107t-75.5 -327t78 -324t244 -104q53 0 102.5 9.5t72.5 19.5l23 10q45 -35 48 -109q-11 -7 -31.5 -17t-93.5 -27t-156 -17q-215 0 -327.5 142.5 t-112.5 416.5z" />
<glyph unicode="d" horiz-adv-x="1136" d="M117 539q0 154 27 263.5t80 173.5t123 93t163 29q217 0 315 -160v588q23 10 74 10q23 0 41.5 -2.5t25.5 -5.5l7 -2v-1516q-25 -10 -62 -10q-17 0 -33.5 2.5t-23.5 5.5l-8 2l-15 137q-97 -167 -321 -167q-93 0 -163 29t-123 93t-80 173.5t-27 263.5zM270 539 q0 -161 31.5 -257t93.5 -137t164 -41q83 0 145 45.5t91.5 114t29.5 146.5v262q-2 121 -73 211t-193 90q-153 0 -221 -98t-68 -336z" />
<glyph unicode="e" horiz-adv-x="1048" d="M115 545q0 280 117.5 416.5t322.5 136.5q185 0 285 -104.5t100 -291.5q0 -56 -5.5 -108.5t-10.5 -77.5l-6 -24h-650q10 -206 87 -293.5t231 -87.5q69 0 131.5 16.5t90.5 33.5l28 17q50 -40 53 -108q-5 -4 -13.5 -10t-40 -21.5t-67 -27.5t-93 -21.5t-118.5 -9.5 q-220 0 -331 143t-111 422zM268 602h520q7 49 7 117q0 114 -58 186t-182 72q-128 0 -203 -91t-84 -284z" />
<glyph unicode="f" horiz-adv-x="708" d="M66 1020q0 33 8 57h139v123q0 162 73.5 249t250.5 87q55 0 107 -9t76 -17l25 -9q0 -67 -38 -108q-64 22 -158 22q-109 0 -149 -49.5t-40 -155.5v-133h289q10 -35 10 -59q0 -22 -10 -57h-289v-951q-22 -10 -73 -10q-23 0 -41.5 2.5t-25.5 5.5l-7 2v951h-139q-8 28 -8 59z " />
<glyph unicode="g" horiz-adv-x="1075" d="M74 -221q0 57 20 108.5t52 88.5t57.5 59.5t50.5 38.5q-47 47 -47 119q0 107 96 225q-89 41 -135.5 123t-46.5 196q0 169 101.5 265t285.5 96q128 0 221 -49l279 47q10 -26 10 -61.5t-10 -63.5l-185 -4q72 -87 72 -230q0 -169 -100 -263.5t-287 -94.5q-70 0 -109 10 q-55 -71 -55 -146v-5q3 -42 41 -66t96.5 -34t128.5 -17.5t140 -22.5t127 -42t93 -84.5t36 -141.5q0 -148 -135.5 -245t-376.5 -97q-211 0 -315.5 80t-104.5 211zM221 -193q0 -95 70.5 -151.5t206.5 -56.5q168 0 266 59t98 156q0 59 -34.5 96t-95 52.5t-123.5 23t-140.5 17.5 t-124.5 26q-57 -40 -90 -99.5t-33 -122.5zM266 739q0 -124 65.5 -188t176.5 -64q112 0 177 64t65 188q0 123 -65 186.5t-177 63.5q-111 0 -176.5 -64t-65.5 -186z" />
<glyph unicode="h" horiz-adv-x="1124" d="M164 10v1516q23 10 74 10q22 0 40 -2.5t26 -5.5l7 -2v-588q128 160 340 160q149 0 232.5 -83.5t83.5 -223.5v-781q-27 -10 -74 -10q-23 0 -41.5 2.5t-25.5 5.5l-7 2v752q0 213 -221 213q-86 0 -164 -50t-123 -137v-778q-24 -10 -73 -10q-23 0 -41.5 2.5t-25.5 5.5z" />
<glyph unicode="i" horiz-adv-x="487" d="M160 1311v149q27 10 84 10q24 0 45 -2.5t30 -5.5l9 -2v-149q-29 -11 -84 -11q-25 0 -46 3t-30 5zM170 10v1057q21 10 74 10q22 0 40 -2.5t26 -4.5l7 -3v-1057q-24 -10 -73 -10q-24 0 -42.5 2.5t-25.5 5.5z" />
<glyph unicode="j" horiz-adv-x="487" d="M-102 -459q0 23 4 42t8 27l4 7q33 -8 82 -8q88 0 131 48.5t43 154.5v1255q21 10 74 10q22 0 40 -2.5t26 -4.5l7 -3v-1247q0 -165 -74 -248.5t-212 -83.5q-38 0 -70 4.5t-45 9.5l-12 4q-6 15 -6 35zM160 1315v149q27 11 84 11q24 0 44.5 -2.5t29.5 -5.5l8 -3v-149 q-29 -12 -82 -12q-25 0 -46 3t-30 6z" />
<glyph unicode="k" horiz-adv-x="1019" d="M164 10v1518q29 8 76 8q19 0 37 -2t26 -4l8 -2v-907h174l301 446q29 10 80 10q20 0 38 -2.5t26 -4.5l8 -3l-332 -494l381 -561q-33 -12 -84 -12q-24 0 -45 3t-30 6l-9 3l-336 492h-172v-494q-26 -10 -71 -10q-22 0 -41 2.5t-27 5.5z" />
<glyph unicode="l" horiz-adv-x="495" d="M174 10v1516q21 10 74 10q22 0 40.5 -2.5t25.5 -5.5l8 -2v-1516q-25 -10 -74 -10q-24 0 -42.5 2.5t-25.5 5.5z" />
<glyph unicode="m" horiz-adv-x="1708" d="M164 10v1057q23 10 74 10q22 0 40 -2.5t26 -4.5l7 -3v-127q57 75 139.5 116.5t182.5 41.5q206 0 270 -178q127 178 350 178q140 0 218.5 -83.5t78.5 -223.5v-781q-24 -10 -73 -10q-23 0 -41.5 2.5t-25.5 5.5l-7 2v752q0 213 -203 213q-82 0 -154.5 -49t-115.5 -140v-776 q-25 -10 -74 -10q-23 0 -41.5 2.5t-25.5 5.5l-7 2v752q0 213 -202 213q-79 0 -153 -50.5t-116 -136.5v-778q-24 -10 -73 -10q-23 0 -41.5 2.5t-25.5 5.5z" />
<glyph unicode="n" horiz-adv-x="1124" d="M164 10v1057q23 10 74 10q22 0 40 -2.5t26 -4.5l7 -3v-129q128 160 340 160q149 0 232.5 -83.5t83.5 -223.5v-781q-27 -10 -74 -10q-23 0 -41.5 2.5t-25.5 5.5l-7 2v752q0 213 -221 213q-86 0 -164 -50t-123 -137v-778q-24 -10 -73 -10q-23 0 -41.5 2.5t-25.5 5.5z" />
<glyph unicode="o" horiz-adv-x="1110" d="M117 539q0 294 112 426.5t326 132.5t326 -132.5t112 -426.5t-112 -426.5t-326 -132.5t-326 132.5t-112 426.5zM268 539q0 -126 19.5 -213.5t58.5 -137t89.5 -71t119.5 -21.5t119.5 21.5t89.5 71t58.5 137t19.5 213.5t-19.5 213t-58.5 136.5t-89.5 71t-119.5 21.5 t-119.5 -21.5t-89.5 -71t-58.5 -136.5t-19.5 -213z" />
<glyph unicode="p" horiz-adv-x="1138" d="M164 -479v1546q23 10 74 10q23 0 41 -2.5t25 -4.5l7 -3v-129q94 160 316 160q93 0 163 -29t123 -93t80 -173.5t27 -263.5t-27 -263.5t-80 -173.5t-123 -93t-163 -29q-222 0 -316 159v-618q-22 -10 -73 -10q-23 0 -41.5 2.5t-25.5 4.5zM311 410q0 -78 29.5 -146.5t92 -114 t145.5 -45.5q153 0 220.5 98t67.5 337t-67 336.5t-221 97.5q-123 0 -194 -88.5t-73 -210.5v-264z" />
<glyph unicode="q" horiz-adv-x="1138" d="M119 539q0 154 27 263.5t80 173.5t123 93t163 29q217 0 315 -160v129q21 10 72 10q23 0 42 -2.5t27 -4.5l7 -3v-1546q-23 -10 -74 -10q-23 0 -41.5 2.5t-25.5 4.5l-7 3v618q-97 -159 -315 -159q-93 0 -163 29t-123 93t-80 173.5t-27 263.5zM272 539q0 -161 31.5 -257 t93.5 -137t164 -41q119 0 190 87t76 206v277q-3 122 -74 210.5t-192 88.5q-153 0 -221 -98t-68 -336z" />
<glyph unicode="r" horiz-adv-x="800" d="M164 10v1057q23 10 74 10q23 0 41 -2.5t25 -4.5l7 -3v-168q107 197 277 197q97 0 176 -49q-9 -77 -68 -125q-64 41 -139 41q-69 0 -134 -55.5t-112 -149.5v-748q-22 -10 -73 -10q-23 0 -41.5 2.5t-25.5 5.5z" />
<glyph unicode="s" horiz-adv-x="909" d="M111 49v9q0 66 41 102q15 -6 41 -14.5t99.5 -22.5t137.5 -14q109 0 172.5 45t63.5 137q0 46 -18.5 79t-56 54.5t-72.5 34t-90 28.5q-13 3 -19 5q-51 15 -86.5 28t-78.5 37t-69.5 53t-44.5 74.5t-18 101.5q0 143 94 227.5t276 84.5q81 0 150 -13t98 -25l29 -13 q2 -31 -9 -61t-32 -48q-98 35 -219 35q-120 0 -182 -46t-62 -134q0 -32 15 -59t31.5 -43t57.5 -34t61.5 -25t74.5 -23q11 -3 16 -5q46 -14 73.5 -24t68 -28.5t64.5 -40t48.5 -52t35.5 -72t11 -92.5q0 -150 -95 -232.5t-280 -82.5q-57 0 -112 7t-92 17t-66 20.5t-43 17.5z " />
<glyph unicode="t" horiz-adv-x="753" d="M57 1018q0 18 2.5 33t5.5 21l3 5h159v195q49 34 122 34q13 0 26 -1v-228h293q10 -20 10 -57q0 -16 -2.5 -31t-5.5 -21l-2 -7h-293v-588q0 -149 48 -210t169 -61q23 0 48 3t38 5l14 3q13 -25 13 -62q0 -16 -2.5 -29.5t-4.5 -19.5l-2 -6q-53 -16 -143 -16q-176 0 -251 96 t-75 291v594h-159q-11 20 -11 57z" />
<glyph unicode="u" horiz-adv-x="1122" d="M156 287v780q26 10 73 10q23 0 41.5 -2.5t25.5 -4.5l7 -3v-752q0 -213 223 -213q83 0 161 49.5t124 137.5v778q25 10 74 10q23 0 41 -2.5t25 -4.5l7 -3v-1057q-22 -10 -73 -10q-22 0 -40.5 2.5t-26.5 5.5l-7 2v129q-61 -76 -148.5 -117.5t-191.5 -41.5q-149 0 -232 83.5 t-83 223.5z" />
<glyph unicode="v" horiz-adv-x="1044" d="M51 1067q27 10 78 10q24 0 43.5 -2.5t27.5 -4.5l7 -3l256 -700q18 -50 33.5 -103t21.5 -80l6 -28h6q23 94 64 209l256 702q23 10 68 10q21 0 38.5 -2.5t25.5 -4.5l7 -3l-381 -1057q-35 -10 -84 -10q-24 0 -45 2.5t-30 5.5l-9 2z" />
<glyph unicode="w" horiz-adv-x="1626" d="M59 1067q25 10 74 10q23 0 40 -2.5t23 -4.5l5 -3l225 -717q26 -87 41 -186h6q13 90 45 186l225 717q33 10 78 10q22 0 40.5 -2.5t26.5 -4.5l7 -3l221 -713q24 -76 41 -190h6q10 70 47 188l224 715q24 10 67 10q21 0 37.5 -2.5t22.5 -4.5l6 -3l-328 -1057q-57 -10 -80 -10 t-80 10l-198 629q-58 194 -62 272h-6q-10 -96 -68 -272l-198 -629q-45 -10 -78 -10q-32 0 -82 10z" />
<glyph unicode="x" horiz-adv-x="1011" d="M47 10l371 539l-355 518q29 10 82 10q24 0 45 -2.5t30 -4.5l9 -3l285 -410l281 410q22 10 73 10q23 0 43 -2.5t29 -4.5l8 -3l-356 -514l373 -543q-27 -10 -82 -10q-24 0 -45 2.5t-30 5.5l-9 2l-301 434l-297 -434q-25 -10 -78 -10q-22 0 -41 2.5t-27 5.5z" />
<glyph unicode="y" horiz-adv-x="1071" d="M51 1067q27 10 78 10q23 0 42.5 -2.5t27.5 -4.5l8 -3l276 -702q22 -56 40.5 -111t26.5 -82l7 -27h6q23 91 66 220l241 702q23 10 74 10q21 0 39.5 -2.5t26.5 -4.5l8 -3l-434 -1266q-21 -64 -40.5 -108.5t-46.5 -86t-58.5 -65.5t-75 -38.5t-97.5 -14.5q-27 0 -53 4t-39 8 l-12 4q-12 24 -12 58q0 21 5 39t9 22q39 -10 88 -10q69 0 111.5 44t85.5 173l61 172q-22 0 -49 10z" />
<glyph unicode="z" horiz-adv-x="944" d="M84 66q0 39 10 59l580 827h-539q-10 23 -10 64q0 18 2.5 33.5t4.5 21.5l3 6h696q11 -33 11 -59q0 -28 -11 -66l-579 -827h582q12 -21 12 -64q0 -17 -3 -32.5t-6 -22.5l-3 -6h-740q-10 23 -10 66z" />
<glyph unicode="{" horiz-adv-x="704" d="M70 684q0 31 10 61h63q43 0 64.5 27.5t21.5 71.5v542q0 126 69.5 199.5t201.5 73.5h118q9 -27 9 -60q0 -5 -9 -59h-90q-159 0 -159 -158v-501q0 -72 -16.5 -118.5t-57.5 -76.5q41 -29 57.5 -76t16.5 -118v-504q0 -158 159 -158h90q9 -27 9 -59q0 -33 -9 -60h-118 q-132 0 -201.5 73.5t-69.5 199.5v544q0 44 -21 70.5t-65 26.5h-63q-10 30 -10 59z" />
<glyph unicode="|" horiz-adv-x="540" d="M197 -393v2001q20 10 73 10q22 0 40.5 -2.5t25.5 -5.5l8 -2v-2001q-25 -10 -74 -10q-24 0 -42 2.5t-24 4.5z" />
<glyph unicode="}" horiz-adv-x="706" d="M78 -231q0 31 10 61h88q160 0 160 158v504q0 139 72 192q-72 56 -72 197v501q0 158 -160 158h-88q-10 30 -10 59q0 30 10 60h117q133 0 202.5 -73t69.5 -200v-542q0 -44 21.5 -71.5t64.5 -27.5h62q10 -30 10 -59q0 -41 -10 -61h-62q-44 0 -65 -26.5t-21 -70.5v-544 q0 -127 -69.5 -200t-202.5 -73h-117q-10 30 -10 58z" />
<glyph unicode="~" horiz-adv-x="1091" d="M158 596q3 5 8 13t25.5 28t44 35.5t64.5 28t87 12.5q45 0 89 -16.5t74 -36t73 -36t86 -16.5q44 0 81.5 18.5t53.5 37.5l16 18q61 -16 74 -76q-3 -5 -8 -13t-25 -28.5t-44.5 -36t-66 -28.5t-88.5 -13q-45 0 -89 16.5t-74 36t-72.5 36t-85.5 16.5q-27 0 -53 -7.5t-43 -18.5 t-30.5 -22t-19.5 -18l-6 -8q-61 15 -71 78z" />
<glyph unicode="&#xa1;" horiz-adv-x="507" d="M170 901v150q29 10 84 10q25 0 46 -2.5t30 -4.5l8 -3v-150q-27 -10 -84 -10q-24 0 -45 2.5t-30 4.5zM174 -403l25 1103q18 11 55 11q16 0 29.5 -2.5t19.5 -5.5l6 -3l25 -1103q-17 -11 -80 -11q-27 0 -47 3t-27 5z" />
<glyph unicode="&#xa2;" horiz-adv-x="952" d="M125 539q0 254 97 395t284 160l-10 190q36 12 65 12q40 0 64 -12l-13 -188q64 -3 116.5 -14.5t73.5 -21.5l21 -11q0 -65 -45 -107q-71 35 -186 35q-162 0 -237.5 -108.5t-75.5 -329.5t78 -328t243 -107q53 0 102.5 10.5t73.5 20.5l23 10q44 -37 47 -104 q-9 -6 -26.5 -14.5t-78.5 -24.5t-129 -20l13 -189q-21 -14 -66 -14q-22 0 -40.5 5t-22.5 9l10 191q-186 17 -283.5 158.5t-97.5 396.5z" />
<glyph unicode="&#xa3;" horiz-adv-x="1071" d="M117 690q0 48 10 58h135q-63 176 -63 296q0 189 113.5 280t310.5 91q181 0 327 -61q6 -73 -47 -111q-131 45 -260 45q-138 0 -213.5 -61.5t-75.5 -188.5q0 -23 3.5 -50t6 -44.5t12.5 -52t12.5 -44.5t16.5 -52.5t15 -46.5h389q10 -20 10 -56q0 -44 -10 -59h-358 q17 -65 21 -121.5t-6 -121t-47.5 -129t-101.5 -126.5h627q12 -12 12 -67q0 -56 -12 -68h-797v135q73 66 114.5 131.5t52 129t5.5 117t-24 120.5h-168q-10 20 -10 57z" />
<glyph unicode="&#xa4;" horiz-adv-x="1206" d="M129 160l154 151q-84 109 -84 244q0 132 84 244l-154 151q4 24 29 51q13 12 25.5 18.5t18.5 7.5l7 1l151 -149q109 82 244 82q133 0 242 -84l151 151q21 0 50 -27q12 -12 19 -24.5t8 -19.5l1 -7l-149 -151q84 -112 84 -244q0 -134 -84 -246l151 -149q1 -24 -26 -51 q-12 -13 -25 -20t-20 -8l-7 -1l-151 151q-108 -81 -244 -81q-138 0 -246 81l-149 -151q-24 2 -51 31q-12 12 -19 24.5t-9 18.5zM309 555q0 -124 86 -209.5t209 -85.5q124 0 209.5 85t85.5 210t-85.5 210t-209.5 85q-123 0 -209 -85.5t-86 -209.5z" />
<glyph unicode="&#xa5;" horiz-adv-x="1251" d="M70 1389q27 12 82 12q24 0 43.5 -3t27.5 -6l8 -3l392 -668l411 670q27 10 78 10q21 0 40 -2.5t28 -4.5l8 -3l-453 -727h293q8 -20 8 -50q0 -27 -8 -51h-342v-155h342q8 -16 8 -50q0 -27 -8 -51h-342v-295q-21 -12 -70 -12q-21 0 -38 3t-24 6l-7 3v295h-344q-8 24 -8 53 q0 28 8 48h344v155h-344q-8 24 -8 51q0 30 8 50h295z" />
<glyph unicode="&#xa6;" horiz-adv-x="516" d="M182 86v1063q23 10 76 10q22 0 41 -2.5t27 -4.5l8 -3v-1063q-27 -10 -76 -10q-24 0 -43 2.5t-26 5.5z" />
<glyph unicode="&#xa7;" horiz-adv-x="987" d="M135 698q0 133 141 238q-120 70 -120 209q0 132 93.5 200t260.5 68q156 0 281 -45q5 -26 -3.5 -55t-29.5 -45q-25 8 -91.5 20t-129.5 12q-246 0 -246 -153q0 -45 31 -77.5t80 -52t108.5 -36t119.5 -37t109 -48t80 -76.5t31 -115q0 -129 -131 -228q143 -78 143 -221 q0 -75 -30.5 -130t-86.5 -86t-125 -45.5t-155 -14.5q-83 0 -164 13t-121 25l-39 13q-11 68 33 104q17 -5 52 -13t99 -17t117 -9q137 0 207 38t70 124q0 39 -25 69t-66 47t-93.5 34t-107.5 30t-107.5 35t-93.5 49t-66 72t-25 104zM266 717q0 -32 15.5 -57.5t37.5 -41.5 t60 -31t69.5 -23.5t81.5 -21.5t80 -22q24 19 35 29t31.5 33t30.5 48.5t10 55.5q0 31 -15 56t-37 41t-59 31t-68.5 24t-79 23t-77.5 24q-115 -79 -115 -168z" />
<glyph unicode="&#xa8;" horiz-adv-x="931" d="M221 1262v133q25 10 76 10q22 0 40.5 -2.5t26.5 -4.5l7 -3v-133q-25 -11 -74 -11q-23 0 -42 2.5t-27 5.5zM545 1262v133q25 10 76 10q22 0 40 -2.5t25 -4.5l8 -3v-133q-24 -11 -73 -11q-23 0 -42 2.5t-27 5.5z" />
<glyph unicode="&#xa9;" horiz-adv-x="1646" d="M125 696q0 190 93 351t254 254.5t351 93.5t351 -93.5t254.5 -254.5t93.5 -351t-93.5 -351t-254.5 -254t-351 -93q-143 0 -272 55t-222.5 148.5t-148.5 222.5t-55 272zM227 696q0 -161 80 -298.5t217.5 -217.5t298.5 -80q121 0 231.5 47.5t189.5 127.5t126 190t47 231 q0 161 -79 298t-216 216.5t-299 79.5q-161 0 -298.5 -79.5t-217.5 -216.5t-80 -298zM475 711q0 201 88.5 304t263.5 103q60 0 112.5 -11t75.5 -23l23 -11q0 -52 -37 -84q-77 35 -159 35q-127 0 -188.5 -73t-61.5 -240q0 -160 63.5 -235t186.5 -75q40 0 82 7.5t64 14.5l22 7 q39 -24 39 -82q-9 -5 -26.5 -13t-75 -21t-120.5 -13q-173 0 -262.5 106t-89.5 304z" />
<glyph unicode="&#xaa;" horiz-adv-x="739" d="M115 809q0 197 237 197q73 0 154 -9v66q0 70 -34 103.5t-105 33.5q-40 0 -83 -8t-66 -16l-23 -7q-31 31 -31 76q98 45 215 45q119 0 174 -55t55 -166v-442q-14 -9 -43 -9q-11 0 -21.5 2t-15.5 4l-4 3l-12 75q-61 -96 -203 -96q-89 0 -141.5 53t-52.5 150zM125 412 q-12 47 0 88h477q13 -42 0 -88h-477zM217 809q0 -119 121 -119q76 0 121 49.5t47 130.5v52q-3 0 -53.5 3t-87.5 3q-148 0 -148 -119z" />
<glyph unicode="&#xab;" horiz-adv-x="1038" d="M100 549q0 18 3 34.5t7 23.5l3 7l417 428q41 -28 52 -92l-353 -397l353 -399q-11 -65 -52 -93l-417 426q-13 23 -13 62zM469 549q0 17 2.5 32.5t4.5 22.5l3 6l387 396q40 -27 47 -88l-319 -365l319 -367q-7 -61 -47 -88l-387 394q-10 20 -10 57z" />
<glyph unicode="&#xac;" horiz-adv-x="1232" d="M117 834q0 18 3.5 34.5t7.5 23.5l3 7h936v-528q-25 -15 -66 -15q-18 0 -34 4t-23 8l-6 3v401h-807q-14 25 -14 62z" />
<glyph unicode="&#xad;" horiz-adv-x="536" />
<glyph unicode="&#xae;" horiz-adv-x="1093" d="M115 965q0 117 58 216.5t157.5 157.5t216.5 58t216.5 -58t157.5 -157.5t58 -216.5q0 -179 -127 -306t-305 -127t-305 127t-127 306zM182 965q0 -152 107 -258.5t258 -106.5q152 0 258 106.5t106 258.5t-106 258t-258 106q-151 0 -258 -106t-107 -258zM397 745v461h183 q73 0 112 -37t39 -102q0 -98 -90 -127l119 -190q-16 -11 -41 -11q-10 0 -19.5 1.5t-13.5 3.5l-4 1l-117 189h-100v-189q-17 -6 -35 -6q-9 0 -17 1.5t-12 3.5zM465 991h110q87 0 87 76q0 82 -87 82h-110v-158z" />
<glyph unicode="&#xaf;" horiz-adv-x="833" d="M96 1290q-22 52 0 101h615q18 -44 0 -101h-615z" />
<glyph unicode="&#xb0;" horiz-adv-x="733" d="M113 1264q0 101 69.5 177.5t188.5 76.5q118 0 184 -74t66 -174q0 -101 -66 -174.5t-184 -73.5q-123 0 -190.5 71t-67.5 171zM201 1266q0 -68 43 -116t125 -48q80 0 121.5 48.5t41.5 117.5q0 70 -41.5 119t-121.5 49t-124 -50.5t-44 -119.5z" />
<glyph unicode="&#xb1;" horiz-adv-x="1048" d="M160 336q0 16 2.5 30.5t5.5 20.5l2 6h711q8 -20 8 -57q0 -16 -2 -30.5t-4 -20.5l-2 -6h-711q-10 20 -10 57zM160 823q0 16 2.5 30.5t5.5 20.5l2 7h297v237q20 8 57 8q16 0 30.5 -2t21.5 -4l6 -2v-237h299q8 -21 8 -58q0 -16 -2 -30.5t-4 -20.5l-2 -6h-299v-236 q-21 -10 -58 -10q-16 0 -30.5 2.5t-20.5 5.5l-6 2v236h-297q-10 20 -10 57z" />
<glyph unicode="&#xb2;" horiz-adv-x="612" d="M66 793q0 57 20 101.5t52.5 73.5t71.5 52.5t78 43t71.5 40.5t52.5 50.5t20 66.5q0 52 -39 83t-119 31q-41 0 -84 -7.5t-55 -12.5q-30 38 -24 78q75 28 184 28q117 0 178.5 -51.5t61.5 -142.5q0 -50 -19 -89.5t-50 -65t-68.5 -47.5t-75.5 -42.5t-71 -44t-55.5 -59 t-27.5 -80.5h350q10 -23 10 -45t-10 -45h-444q-8 37 -8 84z" />
<glyph unicode="&#xb3;" horiz-adv-x="614" d="M70 733q0 50 28 72q68 -21 154 -21q100 0 139 33t39 92q0 125 -147 125h-93q-16 42 0 84h93q125 0 125 107q0 110 -142 110q-38 0 -76.5 -4.5t-57.5 -8.5l-19 -5q-28 28 -25 74q73 30 184 30q115 0 177.5 -48t62.5 -136q0 -58 -21.5 -96t-70.5 -62q56 -23 85.5 -65 t29.5 -113q0 -203 -279 -203q-50 0 -96.5 9t-67.5 17z" />
<glyph unicode="&#xb4;" horiz-adv-x="458" d="M53 1360l213 295q39 3 76.5 -14t54.5 -46l-256 -284q-65 7 -88 49z" />
<glyph unicode="&#xb5;" horiz-adv-x="1185" d="M188 -29v1096q25 10 74 10q24 0 42.5 -2.5t25.5 -4.5l6 -3v-754q0 -211 223 -211q90 0 167 54.5t118 132.5v778q23 10 74 10q23 0 41 -2.5t25 -4.5l7 -3v-1057q-22 -10 -73 -10q-23 0 -41.5 2.5t-25.5 5.5l-7 2v121q-116 -151 -307 -151q-144 0 -222 86q7 -177 25 -313 t32 -183l15 -47q-28 -25 -76 -32.5t-84 5.5q-4 15 -10.5 46.5t-17.5 154t-11 274.5z" />
<glyph unicode="&#xb6;" horiz-adv-x="1060" d="M63 1130q3 124 81.5 213t217.5 89h111v-1889q-20 -8 -59 -8q-20 0 -35.5 2t-20.5 4l-6 2v1288q-138 3 -213.5 91t-75.5 208zM735 -457v1880q19 9 60 9q18 0 33.5 -2t21.5 -4l6 -3v-1880q-20 -8 -61 -8q-18 0 -33 2t-21 4z" />
<glyph unicode="&#xb7;" horiz-adv-x="458" d="M154 516v133q24 10 75 10q22 0 41 -2.5t27 -4.5l8 -3v-133q-27 -12 -76 -12q-23 0 -41.5 3t-25.5 6z" />
<glyph unicode="&#xb8;" horiz-adv-x="606" d="M96 -397q0 47 35 71q64 -32 143 -32q142 0 142 118q0 107 -127 107h-72l-20 24l36 201l89 -18l-23 -127q114 0 167.5 -50t53.5 -139q0 -100 -61 -151t-178 -51q-50 0 -96.5 12t-67.5 24z" />
<glyph unicode="&#xb9;" horiz-adv-x="495" d="M53 1270q136 36 223 133q19 8 52 8q23 0 47 -8v-688q-18 -6 -47 -6q-36 0 -54 6v483q0 57 2 82q-88 -71 -198 -94q-14 14 -21 37.5t-4 46.5z" />
<glyph unicode="&#xba;" horiz-adv-x="772" d="M117 948q0 179 66 260.5t202 81.5q137 0 204.5 -81t67.5 -261q0 -181 -67.5 -262.5t-204.5 -81.5q-136 0 -202 81.5t-66 262.5zM137 457q0 28 6 43h484q8 -20 8 -43q0 -25 -8 -45h-484q-6 15 -6 45zM223 948q0 -143 37 -199.5t125 -56.5q87 0 125.5 57t38.5 199 q0 140 -39 198t-125 58q-87 0 -124.5 -57.5t-37.5 -198.5z" />
<glyph unicode="&#xbb;" horiz-adv-x="1036" d="M123 186l319 367l-319 365q11 64 47 88l387 -396q10 -22 10 -61q0 -16 -2.5 -30.5t-4.5 -20.5l-3 -6l-387 -394q-36 24 -47 88zM455 154l352 399l-352 397q11 62 51 92l420 -428q10 -24 10 -65q0 -17 -2.5 -32.5t-5.5 -22.5l-2 -7l-420 -426q-40 30 -51 93z" />
<glyph unicode="&#xbc;" horiz-adv-x="1345" d="M74 1270q136 36 223 133q19 8 51 8q19 0 47 -8v-688q-21 -6 -47 -6q-37 0 -55 6v483q0 57 2 82q-84 -71 -197 -94q-31 28 -24 84zM221 -12l795 1439q16 11 55 11q17 0 31 -3t19 -5l5 -3l-792 -1439q-21 -8 -58 -8q-15 0 -28.5 2t-19.5 4zM715 213q0 23 6 35l350 446 q24 8 49 8q29 0 49 -8v-432h84q7 -35 7 -41q0 -11 -7 -39h-84v-176q-36 -6 -43 -6q-11 0 -47 6v176h-358q-6 18 -6 31zM834 262h245v311z" />
<glyph unicode="&#xbd;" horiz-adv-x="1458" d="M74 1270q136 36 223 133q19 8 51 8q19 0 47 -8v-688q-21 -6 -47 -6q-37 0 -55 6v483q0 57 2 82q-84 -71 -197 -94q-31 28 -24 84zM221 -12l795 1439q16 11 55 11q17 0 31 -3t19 -5l5 -3l-792 -1439q-21 -8 -58 -8q-15 0 -28.5 2t-19.5 4zM889 84q0 57 20 101.5t52.5 73.5 t71.5 52.5t78 43t71.5 40.5t52.5 50.5t20 66.5q0 53 -37.5 84t-115.5 31q-43 0 -87 -8t-57 -13q-27 34 -24 78q75 29 184 29q117 0 179.5 -52t62.5 -143q0 -50 -19 -89.5t-50 -65t-69 -47.5t-76.5 -42.5t-71 -44t-55.5 -59t-28 -80.5h350q11 -19 11 -45t-11 -45h-444 q-8 37 -8 84z" />
<glyph unicode="&#xbe;" horiz-adv-x="1449" d="M102 733q-2 19 6 39.5t21 32.5q70 -21 156 -21q100 0 139 33t39 92q0 125 -148 125h-92q-19 42 0 84h92q62 0 93.5 28t31.5 79q0 110 -141 110q-38 0 -77 -4.5t-59 -8.5l-20 -5q-25 25 -22 74q73 30 184 30q114 0 176 -48t62 -136q0 -59 -21 -96.5t-71 -61.5 q57 -23 85.5 -64.5t28.5 -113.5q0 -203 -276 -203q-50 0 -97 9t-68 17zM326 -12l794 1439q17 11 56 11q17 0 31 -3t19 -5l5 -3l-793 -1439q-20 -8 -57 -8q-15 0 -28.5 2t-20.5 4zM819 215q0 21 6 33l351 446q24 8 49 8q29 0 49 -8v-432h84q6 -30 6 -41q0 -15 -6 -39h-84 v-176q-36 -6 -43 -6q-11 0 -47 6v176h-359q-6 24 -6 33zM938 262h246v311z" />
<glyph unicode="&#xbf;" horiz-adv-x="868" d="M88 -8q0 82 21 147t54 107t73 78t80.5 70.5t73.5 73.5t54 98t21 134q18 13 57 13q17 0 32.5 -3.5t22.5 -6.5l7 -3q0 -92 -19 -163.5t-49 -116t-66.5 -81t-73 -68t-66.5 -66t-49 -86.5t-19 -119q0 -106 65 -163.5t195 -57.5q71 0 134.5 12.5t91.5 24.5l28 12 q54 -38 47 -109q-14 -8 -40 -19t-110 -29.5t-172 -18.5q-185 0 -289 90.5t-104 249.5zM440 905v150q29 10 82 10q25 0 46 -2.5t30 -4.5l8 -3v-150q-27 -10 -84 -10q-24 0 -44.5 2.5t-29.5 4.5z" />
<glyph unicode="&#xc0;" horiz-adv-x="1327" d="M37 12l543 1450q33 13 84 13q24 0 45 -3.5t30 -6.5l9 -3l542 -1450q-27 -12 -84 -12q-22 0 -40 3t-26 6l-7 3l-148 391h-653l-150 -391q-24 -12 -73 -12q-22 0 -40 3t-25 6zM377 530h563l-238 627q-13 36 -23 71.5t-13 52.5l-4 17h-7q-12 -61 -41 -141zM436 1829 q17 27 56 44.5t75 14.5l213 -295q-26 -43 -88 -49z" />
<glyph unicode="&#xc1;" horiz-adv-x="1325" d="M37 12l541 1450q33 13 84 13q24 0 44.5 -3.5t29.5 -6.5l9 -3l543 -1450q-27 -12 -84 -12q-22 0 -40.5 3t-25.5 6l-8 3l-147 391h-653l-150 -391q-25 -12 -74 -12q-22 0 -39 3t-23 6zM375 530h563l-238 627q-13 36 -23 71.5t-14 52.5l-4 17h-6q-12 -61 -41 -141zM559 1595 l213 295q39 3 76.5 -13.5t54.5 -45.5l-256 -285q-65 7 -88 49z" />
<glyph unicode="&#xc2;" horiz-adv-x="1325" d="M37 12l541 1450q33 13 84 13q24 0 44.5 -3.5t29.5 -6.5l9 -3l543 -1450q-27 -12 -84 -12q-22 0 -40.5 3t-25.5 6l-8 3l-147 391h-653l-150 -391q-25 -12 -74 -12q-22 0 -39 3t-23 6zM360 1634l271 221h53l270 -221q-24 -57 -69 -71l-230 161l-225 -161q-52 19 -70 71z M375 530h563l-238 627q-13 36 -23 71.5t-14 52.5l-4 17h-6q-12 -61 -41 -141z" />
<glyph unicode="&#xc3;" horiz-adv-x="1325" d="M37 12l541 1450q33 13 84 13q24 0 44.5 -3.5t29.5 -6.5l9 -3l543 -1450q-27 -12 -84 -12q-22 0 -40.5 3t-25.5 6l-8 3l-147 391h-653l-150 -391q-25 -12 -74 -12q-22 0 -39 3t-23 6zM375 530h563l-238 627q-13 36 -23 71.5t-14 52.5l-4 17h-6q-12 -61 -41 -141zM385 1626 l5.5 11t17.5 25.5t31 33t45.5 26.5t60.5 13q47 2 87.5 -16.5t75.5 -37t68 -16.5q25 0 45.5 13.5t28.5 27.5l8 14q56 -7 80 -51q-2 -4 -6 -11t-19 -24.5t-32.5 -31.5t-47 -25t-61.5 -12q-47 -2 -87 16t-74 36t-66 17q-27 -1 -48 -15t-29 -28l-7 -14q-62 7 -76 49z" />
<glyph unicode="&#xc4;" horiz-adv-x="1327" d="M37 12l543 1450q33 13 84 13q24 0 45 -3.5t30 -6.5l9 -3l542 -1450q-27 -12 -84 -12q-22 0 -40 3t-26 6l-7 3l-148 391h-653l-150 -391q-24 -12 -73 -12q-22 0 -40 3t-25 6zM377 530h563l-238 627q-13 36 -23 71.5t-13 52.5l-4 17h-7q-12 -61 -41 -141zM422 1569v135 q25 8 76 8q22 0 40.5 -2t26.5 -4l8 -2v-135q-26 -8 -75 -8q-23 0 -42 2t-26 4zM745 1569v135q25 8 76 8q22 0 41 -2t27 -4l8 -2v-135q-27 -8 -76 -8q-23 0 -42 2t-27 4z" />
<glyph unicode="&#xc5;" horiz-adv-x="1327" d="M37 12l526 1407q-65 19 -103 72t-38 129q0 102 70.5 160.5t169.5 58.5q97 0 168 -58t71 -161q0 -74 -38 -125t-99 -72l524 -1411q-25 -12 -82 -12q-22 0 -40 3t-26 6l-7 3l-148 391h-653l-150 -391q-24 -12 -73 -12q-22 0 -40 3t-25 6zM377 530h563l-238 627 q-13 36 -23 71.5t-13 52.5l-4 17h-7q-12 -61 -41 -141zM518 1620q0 -57 36.5 -97t104.5 -40t107 41t39 96q0 56 -38.5 94.5t-107.5 38.5q-68 0 -104.5 -39t-36.5 -94z" />
<glyph unicode="&#xc6;" horiz-adv-x="1757" d="M18 12l887 1463h725q27 -59 0 -127h-569v-539h467q22 -65 0 -127h-467v-555h590q12 -31 12 -66t-12 -61h-733v389h-512l-226 -377q-34 -12 -82 -12q-53 0 -80 12zM481 516h437v727z" />
<glyph unicode="&#xc7;" horiz-adv-x="1144" d="M129 737q0 376 143 567t428 191q100 0 187 -17t123 -34l37 -17q5 -26 -9 -61q-7 -16 -17 -29.5t-16 -18.5l-6 -5q-13 6 -37 14.5t-97 22.5t-146 14q-80 0 -143.5 -18t-118 -62.5t-91 -115.5t-57 -180t-20.5 -253q0 -179 30.5 -303t89.5 -192.5t134 -97.5t176 -29 q80 0 155.5 12.5t111.5 25.5l36 13q21 -14 37 -49q6 -16 8.5 -32.5t2.5 -24.5l-1 -9q-5 -3 -15 -7.5t-44 -16t-72.5 -20.5t-100.5 -16.5t-128 -8.5l-15 -74q114 0 167.5 -50t53.5 -139q0 -100 -61 -151t-178 -51q-50 0 -96 11.5t-67 23.5l-21 12q0 47 34 71q64 -32 144 -32 q141 0 141 118q0 107 -127 107h-72l-20 24l24 136q-487 53 -487 751z" />
<glyph unicode="&#xc8;" horiz-adv-x="1136" d="M197 0v1475h813q12 -27 12 -62q0 -38 -12 -65h-662v-539h559q13 -29 13 -59q0 -34 -13 -66h-559v-557h682q12 -27 12 -61q0 -36 -12 -66h-833zM365 1829q17 27 56 44.5t75 14.5l213 -295q-26 -43 -88 -49z" />
<glyph unicode="&#xc9;" horiz-adv-x="1136" d="M197 0v1475h813q12 -27 12 -62q0 -38 -12 -65h-662v-539h559q13 -29 13 -59q0 -34 -13 -66h-559v-557h682q12 -27 12 -61q0 -36 -12 -66h-833zM444 1597l213 295q39 3 76.5 -13.5t54.5 -45.5l-256 -285q-65 7 -88 49z" />
<glyph unicode="&#xca;" horiz-adv-x="1136" d="M197 0v1475h813q12 -27 12 -62q0 -38 -12 -65h-662v-539h559q13 -29 13 -59q0 -34 -13 -66h-559v-557h682q12 -27 12 -61q0 -36 -12 -66h-833zM301 1634l270 221h54l270 -221q-20 -56 -70 -71l-227 161l-225 -161q-51 17 -72 71z" />
<glyph unicode="&#xcb;" horiz-adv-x="1136" d="M197 0v1475h813q12 -27 12 -62q0 -38 -12 -65h-662v-539h559q13 -29 13 -59q0 -34 -13 -66h-559v-557h682q12 -27 12 -61q0 -36 -12 -66h-833zM371 1569v135q24 8 75 8q22 0 40.5 -2t25.5 -4l8 -2v-135q-25 -8 -74 -8q-23 0 -41.5 2t-26.5 4zM694 1569v135q25 8 76 8 q22 0 40.5 -2t25.5 -4l8 -2v-135q-25 -8 -74 -8q-23 0 -42 2t-26 4z" />
<glyph unicode="&#xcc;" horiz-adv-x="544" d="M57 1829q17 27 56 44.5t75 14.5l213 -295q-26 -43 -88 -49zM197 12v1450q24 13 75 13q23 0 42 -3.5t26 -6.5l8 -3v-1450q-27 -12 -76 -12q-24 0 -42.5 3t-25.5 6z" />
<glyph unicode="&#xcd;" horiz-adv-x="544" d="M117 1597l213 295q39 3 76.5 -13.5t54.5 -45.5l-256 -285q-65 7 -88 49zM197 12v1450q24 13 75 13q23 0 42 -3.5t26 -6.5l8 -3v-1450q-27 -12 -76 -12q-24 0 -42.5 3t-25.5 6z" />
<glyph unicode="&#xce;" horiz-adv-x="544" d="M-25 1634l271 221h53l270 -221q-24 -57 -69 -71l-230 161l-225 -161q-49 18 -70 71zM197 12v1450q24 13 75 13q23 0 42 -3.5t26 -6.5l8 -3v-1450q-27 -12 -76 -12q-24 0 -42.5 3t-25.5 6z" />
<glyph unicode="&#xcf;" horiz-adv-x="544" d="M37 1569v135q25 8 76 8q22 0 40 -2t25 -4l8 -2v-135q-24 -8 -73 -8q-23 0 -42 2t-27 4zM197 12v1450q24 13 75 13q23 0 42 -3.5t26 -6.5l8 -3v-1450q-27 -12 -76 -12q-24 0 -42.5 3t-25.5 6zM360 1569v135q25 8 76 8q22 0 40.5 -2t25.5 -4l8 -2v-135q-25 -8 -74 -8 q-23 0 -42 2t-26 4z" />
<glyph unicode="&#xd0;" horiz-adv-x="1372" d="M47 676q-16 57 0 108h168v691h428q149 0 256.5 -37.5t185.5 -123t116 -228.5t38 -349q0 -205 -38 -348t-116 -228t-185.5 -123t-256.5 -38h-428v676h-168zM367 129h264q89 0 155 16t123 56.5t92.5 108.5t55.5 175t20 252q0 146 -20 253t-55.5 175t-92.5 108.5t-123 56.5 t-155 16h-264v-562h319q14 -52 0 -108h-319v-547z" />
<glyph unicode="&#xd1;" horiz-adv-x="1425" d="M197 12v1450q31 13 90 13q26 0 48 -3.5t31 -6.5l9 -3l602 -1030q31 -53 60.5 -112t42.5 -92l14 -33h6q-13 131 -13 305v962q23 13 72 13q23 0 40.5 -3.5t23.5 -6.5l6 -3v-1450q-27 -12 -88 -12q-26 0 -48.5 3t-32.5 6l-9 3l-607 1043q-33 55 -60.5 111t-38.5 85l-11 29 h-6q10 -110 10 -311v-957q-23 -12 -72 -12q-22 0 -39 3t-23 6zM463 1645q2 4 6 10t18.5 22t32 28t46.5 22t61 10q47 0 86 -18t72.5 -36t66.5 -18q27 0 50 13.5t32 26.5l10 13q23 -6 40 -25.5t22 -43.5q-3 -7 -15 -19.5t-32 -29t-52 -28t-67 -11.5q-58 0 -122 34.5t-102 34.5 q-26 0 -49 -14t-33 -28l-10 -13q-52 22 -61 70z" />
<glyph unicode="&#xd2;" d="M131 737q0 385 147 571.5t416 186.5q270 0 416.5 -186t146.5 -572q0 -387 -146 -572t-417 -185t-417 185t-146 572zM291 737q0 -174 28 -297.5t82 -196t125.5 -105t167.5 -32.5t167.5 32.5t126 105t82.5 196t28 297.5t-28 297.5t-82.5 196t-126 105t-167.5 32.5 t-167.5 -32.5t-125.5 -105t-82 -196t-28 -297.5zM510 1829q17 27 56 44.5t75 14.5l203 -284q-24 -43 -88 -50z" />
<glyph unicode="&#xd3;" d="M131 737q0 385 147 571.5t416 186.5q270 0 416.5 -186t146.5 -572q0 -387 -146 -572t-417 -185t-417 185t-146 572zM291 737q0 -174 28 -297.5t82 -196t125.5 -105t167.5 -32.5t167.5 32.5t126 105t82.5 196t28 297.5t-28 297.5t-82.5 196t-126 105t-167.5 32.5 t-167.5 -32.5t-125.5 -105t-82 -196t-28 -297.5zM659 1630l205 285q39 3 76.5 -14t54.5 -46l-247 -274q-66 10 -89 49z" />
<glyph unicode="&#xd4;" d="M131 737q0 385 147 571.5t416 186.5q270 0 416.5 -186t146.5 -572q0 -387 -146 -572t-417 -185t-417 185t-146 572zM291 737q0 -174 28 -297.5t82 -196t125.5 -105t167.5 -32.5t167.5 32.5t126 105t82.5 196t28 297.5t-28 297.5t-82.5 196t-126 105t-167.5 32.5 t-167.5 -32.5t-125.5 -105t-82 -196t-28 -297.5zM401 1634l271 221h53l270 -221q-24 -56 -69 -71l-230 161l-225 -161q-52 19 -70 71z" />
<glyph unicode="&#xd5;" d="M131 737q0 385 147 571.5t416 186.5q270 0 416.5 -186t146.5 -572q0 -387 -146 -572t-417 -185t-417 185t-146 572zM291 737q0 -174 28 -297.5t82 -196t125.5 -105t167.5 -32.5t167.5 32.5t126 105t82.5 196t28 297.5t-28 297.5t-82.5 196t-126 105t-167.5 32.5 t-167.5 -32.5t-125.5 -105t-82 -196t-28 -297.5zM430 1659q2 4 5.5 10t17 22t30.5 28.5t45.5 23.5t61.5 12q59 2 124.5 -30t102.5 -31q27 1 49.5 15.5t31.5 28.5l9 15q22 -8 39 -26t23 -41q-2 -4 -5.5 -10.5t-17 -23t-30.5 -29.5t-45.5 -24t-61.5 -12q-53 -2 -121 31.5 t-106 32.5q-27 -1 -50.5 -16t-33.5 -29l-9 -15q-44 21 -59 68z" />
<glyph unicode="&#xd6;" d="M131 737q0 385 147 571.5t416 186.5q270 0 416.5 -186t146.5 -572q0 -387 -146 -572t-417 -185t-417 185t-146 572zM291 737q0 -174 28 -297.5t82 -196t125.5 -105t167.5 -32.5t167.5 32.5t126 105t82.5 196t28 297.5t-28 297.5t-82.5 196t-126 105t-167.5 32.5 t-167.5 -32.5t-125.5 -105t-82 -196t-28 -297.5zM457 1589v135q24 9 75 9q22 0 41 -2.5t27 -4.5l8 -2v-135q-27 -8 -76 -8q-23 0 -41.5 2t-26.5 4zM780 1589v135q25 9 76 9q22 0 41 -2.5t27 -4.5l8 -2v-135q-27 -8 -76 -8q-23 0 -42 2t-26 4z" />
<glyph unicode="&#xd7;" horiz-adv-x="946" d="M150 354l237 238l-237 237q7 25 36 50q11 13 23.5 22t19.5 11l7 3l237 -237l238 237q24 -7 49 -36q13 -11 22 -23.5t12 -19.5l3 -7l-238 -237l238 -238q-8 -24 -37 -49q-11 -13 -23.5 -22t-18.5 -12l-7 -3l-238 238l-237 -238q-25 8 -50 37q-13 11 -22 23.5t-12 19.5z " />
<glyph unicode="&#xd8;" horiz-adv-x="1386" d="M129 737q0 385 147 571.5t416 186.5q178 0 303 -82l88 154q63 -6 111 -54l-107 -180q168 -186 168 -596q0 -387 -146 -572t-417 -185q-201 0 -327 100l-101 -174q-66 6 -110 53l120 207q-145 190 -145 571zM289 737q0 -271 78 -418l559 977q-93 72 -234 72 q-96 0 -167.5 -32.5t-125.5 -105t-82 -196t-28 -297.5zM436 203q97 -97 256 -97q96 0 167.5 32.5t126 105t82.5 196t28 297.5q0 301 -97 447z" />
<glyph unicode="&#xd9;" horiz-adv-x="1368" d="M186 481v981q27 13 76 13q23 0 42 -3.5t26 -6.5l8 -3v-1003q0 -166 92 -258t258 -92q164 0 255 92t91 258v1003q25 13 74 13q22 0 41 -3.5t27 -6.5l8 -3v-981q0 -238 -136 -369.5t-364 -131.5t-363 133t-135 368zM451 1829q17 27 56 44.5t75 14.5l200 -282 q-24 -40 -88 -50z" />
<glyph unicode="&#xda;" horiz-adv-x="1368" d="M186 481v981q27 13 76 13q23 0 42 -3.5t26 -6.5l8 -3v-1003q0 -166 92 -258t258 -92q164 0 255 92t91 258v1003q25 13 74 13q22 0 41 -3.5t27 -6.5l8 -3v-981q0 -238 -136 -369.5t-364 -131.5t-363 133t-135 368zM551 1597l213 295q39 3 76.5 -13.5t54.5 -45.5l-256 -285 q-65 7 -88 49z" />
<glyph unicode="&#xdb;" horiz-adv-x="1368" d="M186 481v981q27 13 76 13q23 0 42 -3.5t26 -6.5l8 -3v-1003q0 -166 92 -258t258 -92q164 0 255 92t91 258v1003q25 13 74 13q22 0 41 -3.5t27 -6.5l8 -3v-981q0 -238 -136 -369.5t-364 -131.5t-363 133t-135 368zM399 1634l271 221h53l270 -221q-24 -57 -69 -71l-230 161 l-225 -161q-52 19 -70 71z" />
<glyph unicode="&#xdc;" horiz-adv-x="1368" d="M186 481v981q27 13 76 13q23 0 42 -3.5t26 -6.5l8 -3v-1003q0 -166 92 -258t258 -92q164 0 255 92t91 258v1003q25 13 74 13q22 0 41 -3.5t27 -6.5l8 -3v-981q0 -238 -136 -369.5t-364 -131.5t-363 133t-135 368zM449 1593v133q24 11 75 11q22 0 40.5 -2.5t25.5 -5.5 l8 -3v-133q-25 -10 -74 -10q-23 0 -41.5 2.5t-26.5 4.5zM772 1593v133q25 11 76 11q22 0 40.5 -2.5t25.5 -5.5l8 -3v-133q-25 -10 -74 -10q-23 0 -42 2.5t-26 4.5z" />
<glyph unicode="&#xdd;" horiz-adv-x="1286" d="M49 1462q31 13 92 13q25 0 46.5 -3.5t30.5 -6.5l9 -3l422 -686l432 686q25 13 80 13q24 0 45.5 -3.5t31.5 -6.5l9 -3l-530 -841v-609q-25 -12 -74 -12q-24 0 -43.5 3t-27.5 6l-7 3v604zM526 1597l213 295q39 3 76.5 -13.5t54.5 -45.5l-256 -285q-65 7 -88 49z" />
<glyph unicode="&#xde;" horiz-adv-x="1236" d="M197 12v1450q22 13 75 13q24 0 43 -3.5t26 -6.5l7 -3v-276h367q195 0 309.5 -116.5t114.5 -309.5q0 -192 -114.5 -308t-309.5 -116h-367v-324q-25 -12 -76 -12q-24 0 -43 3t-25 6zM348 465h352q133 0 206 78t73 215q0 142 -73 220.5t-206 78.5h-352v-592z" />
<glyph unicode="&#xdf;" horiz-adv-x="1169" d="M164 10v1129q0 397 422 397q97 0 173 -29.5t121.5 -79.5t68.5 -112.5t22 -132.5q0 -96 -43 -193q-9 0 -24 -2t-53 -13.5t-67 -29.5t-53 -55.5t-24 -87.5q0 -44 21 -79.5t54 -61.5t73.5 -51t81 -54t73.5 -64.5t54 -90t21 -121.5q0 -142 -89 -220.5t-246 -78.5 q-63 0 -118 9t-78 18l-24 9q-6 66 35 105q71 -23 160 -23q106 0 161.5 47t55.5 127q0 50 -21 91t-54.5 69.5t-74 55t-81.5 54.5t-74.5 59.5t-54.5 79t-21 105.5q0 47 13 87.5t34.5 67t47 48t51 33.5t47 20t34.5 10l13 3q20 70 20 125q-2 102 -60 168.5t-177 66.5 q-142 0 -207.5 -69.5t-65.5 -206.5v-1129q-22 -10 -73 -10q-23 0 -41.5 2.5t-25.5 5.5z" />
<glyph unicode="&#xe0;" horiz-adv-x="1054" d="M94 307q0 158 97 239t290 81q125 0 269 -17v117q0 126 -58 185t-184 59q-68 0 -140 -12.5t-110 -25.5l-37 -13q-3 2 -8 6t-13.5 15t-13.5 24q-10 26 -10 63q17 8 48.5 19.5t123 31t178.5 19.5q109 0 181.5 -25.5t114 -80t58.5 -128t17 -180.5v-674q-18 -10 -59 -10 q-16 0 -31 2.5t-22 5.5l-7 2l-22 154q-43 -89 -132 -136.5t-212 -47.5q-146 0 -232 85t-86 242zM248 307q0 -106 55.5 -157.5t155.5 -51.5q132 0 211.5 91.5t79.5 232.5v82q-188 16 -248 16q-128 0 -191 -52.5t-63 -160.5zM262 1528q17 27 56 44.5t75 14.5l213 -295 q-26 -43 -88 -49z" />
<glyph unicode="&#xe1;" horiz-adv-x="1054" d="M94 307q0 158 97 239t290 81q125 0 269 -17v115q0 128 -58 187t-184 59q-68 0 -140 -12.5t-110 -25.5l-37 -13q-3 2 -8 6t-13.5 15t-13.5 24q-10 26 -10 63q17 8 48.5 19.5t123 31t178.5 19.5q109 0 181.5 -25.5t114 -80t58.5 -128t17 -180.5v-674q-18 -10 -59 -10 q-16 0 -31 2.5t-22 5.5l-7 2l-22 154q-43 -89 -132 -136.5t-212 -47.5q-146 0 -232 85t-86 242zM248 307q0 -106 55.5 -157.5t155.5 -51.5q132 0 211.5 91.5t79.5 232.5v82q-188 16 -248 16q-128 0 -191 -52.5t-63 -160.5zM387 1292l211 295q39 3 76.5 -13.5t56.5 -45.5 l-256 -285q-65 7 -88 49z" />
<glyph unicode="&#xe2;" horiz-adv-x="1054" d="M94 307q0 158 97 239t290 81q125 0 269 -17v119q0 126 -58.5 184t-183.5 58q-68 0 -140 -12.5t-110 -25.5l-37 -13q-3 2 -8 6t-13.5 15t-13.5 24q-10 26 -10 63q17 8 48.5 19.5t123 31t178.5 19.5q109 0 181.5 -25.5t114 -80t58.5 -128t17 -180.5v-674q-18 -10 -59 -10 q-16 0 -31 2.5t-22 5.5l-7 2l-22 154q-43 -89 -132 -136.5t-212 -47.5q-146 0 -232 85t-86 242zM238 1303l264 217h51l266 -217q-26 -58 -69 -68l-222 156l-223 -158q-44 16 -67 70zM248 307q0 -106 55.5 -157.5t155.5 -51.5q132 0 211.5 91.5t79.5 232.5v82 q-188 16 -248 16q-128 0 -191 -52.5t-63 -160.5z" />
<glyph unicode="&#xe3;" horiz-adv-x="1052" d="M94 307q0 158 97 239t290 81q125 0 269 -17v121q0 128 -58 184t-184 56q-68 0 -140 -12.5t-110 -25.5l-37 -13q-3 2 -8 6t-13.5 15t-13.5 24q-10 24 -10 63q17 8 48.5 19.5t123 31t178.5 19.5q109 0 181.5 -25.5t114 -80t58.5 -128t17 -180.5v-674q-18 -10 -59 -10 q-16 0 -31 2.5t-22 5.5l-7 2l-22 154q-43 -89 -132 -136.5t-212 -47.5q-146 0 -232 85t-86 242zM248 307q0 -106 55.5 -157.5t155.5 -51.5q132 0 211.5 91.5t79.5 232.5v82q-188 16 -248 16q-128 0 -191 -52.5t-63 -160.5zM260 1364q69 92 166 92q58 0 121.5 -35t101.5 -35 t61 18t31 36q50 -19 60 -70q-1 -3 -7.5 -12.5t-21 -23t-32.5 -25.5t-45 -20.5t-56 -8.5q-47 0 -86 18t-72.5 36t-66.5 18q-27 0 -51 -14.5t-34 -29.5l-10 -14q-48 26 -59 70z" />
<glyph unicode="&#xe4;" horiz-adv-x="1054" d="M94 307q0 158 97 239t290 81q125 0 269 -17v117q0 126 -58 185t-184 59q-68 0 -140 -12.5t-110 -25.5l-37 -13q-3 2 -8 6t-13.5 15t-13.5 24q-10 26 -10 63q17 8 48.5 19.5t123 31t178.5 19.5q109 0 181.5 -25.5t114 -80t58.5 -128t17 -180.5v-674q-18 -10 -59 -10 q-16 0 -31 2.5t-22 5.5l-7 2l-22 154q-43 -89 -132 -136.5t-212 -47.5q-146 0 -232 85t-86 242zM248 307q0 -106 55.5 -157.5t155.5 -51.5q132 0 211.5 91.5t79.5 232.5v82q-188 16 -248 16q-128 0 -191 -52.5t-63 -160.5zM291 1309v133q25 10 76 10q22 0 40 -2.5t25 -5.5 l8 -2v-133q-24 -11 -73 -11q-23 0 -42 3t-27 5zM614 1309v133q25 10 76 10q22 0 40.5 -2.5t25.5 -5.5l8 -2v-133q-25 -11 -74 -11q-23 0 -42 3t-26 5z" />
<glyph unicode="&#xe5;" horiz-adv-x="1054" d="M94 307q0 158 97 239t290 81q125 0 269 -17v115q0 128 -58 187t-184 59q-68 0 -140 -12.5t-110 -25.5l-37 -13q-3 2 -8 6t-13.5 15t-13.5 24q-10 26 -10 63q17 8 48.5 19.5t123 31t178.5 19.5q109 0 181.5 -25.5t114 -80t58.5 -128t17 -180.5v-674q-18 -10 -59 -10 q-16 0 -31 2.5t-22 5.5l-7 2l-22 154q-43 -89 -132 -136.5t-212 -47.5q-146 0 -232 85t-86 242zM248 307q0 -106 55.5 -157.5t155.5 -51.5q132 0 211.5 91.5t79.5 232.5v82q-188 16 -248 16q-128 0 -191 -52.5t-63 -160.5zM295 1425q0 98 68.5 153.5t164.5 55.5 q94 0 165 -55.5t71 -153.5q0 -100 -68.5 -157.5t-169.5 -57.5q-102 0 -166.5 57t-64.5 158zM395 1425q0 -53 34 -90t97 -37q65 0 101.5 38t36.5 89t-36.5 87t-101.5 36q-62 0 -96.5 -36.5t-34.5 -86.5z" />
<glyph unicode="&#xe6;" horiz-adv-x="1587" d="M94 307q0 157 91.5 234t281.5 77h246v113q0 128 -53.5 184t-172.5 56q-64 0 -131 -12.5t-102 -25.5l-35 -13q-43 40 -43 108q16 8 45.5 19.5t116 31t168.5 19.5q238 0 303 -189q47 93 127 141t182 48q177 0 272 -105t95 -293q0 -50 -5.5 -98t-11.5 -71l-6 -23h-604 q10 -208 81.5 -306t205.5 -98q65 0 123.5 16.5t83.5 33.5l26 16q45 -31 52 -100q-4 -4 -12 -10t-36 -21.5t-60.5 -27.5t-86 -21.5t-111.5 -9.5q-137 0 -225 68t-121 175q-30 -104 -124 -173.5t-244 -69.5t-233 85t-83 242zM246 305q0 -103 49.5 -155t140.5 -52q127 0 202 86 t75 232v92h-226q-127 0 -184 -48t-57 -155zM858 618h469q8 35 8 101q0 115 -51 186.5t-166 71.5q-112 0 -181.5 -85.5t-78.5 -273.5z" />
<glyph unicode="&#xe7;" horiz-adv-x="911" d="M115 539q0 274 112.5 416.5t327.5 142.5q79 0 143.5 -12t89.5 -24l25 -13q0 -65 -45 -107q-71 35 -186 35q-162 0 -238 -108.5t-76 -329.5t78.5 -328t243.5 -107q53 0 102.5 10.5t72.5 20.5l23 10q45 -38 48 -104q-10 -7 -30.5 -16.5t-95.5 -26.5t-163 -18l-17 -99 q222 0 222 -182q0 -195 -240 -195q-50 0 -96 12t-67 24l-21 11q0 48 34 72q66 -33 144 -33q69 0 105 25.5t36 85.5q0 104 -127 104h-71l-21 23l27 160q-166 31 -253 171.5t-87 379.5z" />
<glyph unicode="&#xe8;" horiz-adv-x="1048" d="M115 545q0 280 117.5 416.5t322.5 136.5q185 0 287 -105.5t102 -292.5q0 -56 -5.5 -108t-10.5 -76l-6 -24h-654q10 -206 87 -293.5t231 -87.5q69 0 131.5 16.5t90.5 33.5l28 17q50 -40 53 -108q-5 -4 -13.5 -10t-40 -21.5t-67 -27.5t-93 -21.5t-118.5 -9.5 q-220 0 -331 143t-111 422zM268 602h518q9 45 9 117q0 114 -58 186t-182 72q-128 0 -203 -91t-84 -284zM326 1528q17 27 56 44.5t75 14.5l213 -295q-26 -43 -88 -49z" />
<glyph unicode="&#xe9;" horiz-adv-x="1048" d="M115 545q0 280 117.5 416.5t322.5 136.5q185 0 287 -105.5t102 -292.5q0 -56 -5.5 -108t-10.5 -76l-6 -24h-654q10 -206 87 -293.5t231 -87.5q69 0 131.5 16.5t90.5 33.5l28 17q50 -40 53 -108q-5 -4 -13.5 -10t-40 -21.5t-67 -27.5t-93 -21.5t-118.5 -9.5 q-220 0 -331 143t-111 422zM268 602h518q9 45 9 117q0 114 -58 186t-182 72q-128 0 -203 -91t-84 -284zM387 1292l213 295q39 3 76.5 -13.5t54.5 -45.5l-256 -285q-65 7 -88 49z" />
<glyph unicode="&#xea;" horiz-adv-x="1048" d="M115 545q0 280 117.5 416.5t322.5 136.5q185 0 287 -105.5t102 -292.5q0 -56 -5.5 -108t-10.5 -76l-6 -24h-654q10 -206 87 -293.5t231 -87.5q69 0 131.5 16.5t90.5 33.5l28 17q50 -40 53 -108q-5 -4 -13.5 -10t-40 -21.5t-67 -27.5t-93 -21.5t-118.5 -9.5 q-220 0 -331 143t-111 422zM260 1303l264 217h51l267 -217q-26 -57 -70 -68l-221 156l-221 -158q-47 16 -70 70zM268 602h518q9 45 9 117q0 114 -58 186t-182 72q-128 0 -203 -91t-84 -284z" />
<glyph unicode="&#xeb;" horiz-adv-x="1048" d="M115 545q0 280 117.5 416.5t322.5 136.5q185 0 287 -105.5t102 -292.5q0 -56 -5.5 -108t-10.5 -76l-6 -24h-654q10 -206 87 -293.5t231 -87.5q69 0 131.5 16.5t90.5 33.5l28 17q50 -40 53 -108q-5 -4 -13.5 -10t-40 -21.5t-67 -27.5t-93 -21.5t-118.5 -9.5 q-220 0 -331 143t-111 422zM268 602h518q9 45 9 117q0 114 -58 186t-182 72q-128 0 -203 -91t-84 -284zM315 1290v133q23 11 74 11q22 0 41 -3t27 -5l8 -3v-133q-27 -10 -76 -10q-23 0 -41.5 2.5t-25.5 5.5zM639 1290v133q23 11 74 11q22 0 40.5 -3t26.5 -5l8 -3v-133 q-26 -10 -75 -10q-23 0 -41.5 2.5t-25.5 5.5z" />
<glyph unicode="&#xec;" horiz-adv-x="487" d="M16 1532q17 27 56 44.5t75 14.5l213 -295q-26 -43 -88 -49zM170 10v1057q21 10 74 10q22 0 40 -2.5t26 -4.5l7 -3v-1057q-24 -10 -73 -10q-24 0 -42.5 2.5t-25.5 5.5z" />
<glyph unicode="&#xed;" horiz-adv-x="487" d="M109 1292l213 295q39 3 76.5 -13.5t54.5 -45.5l-256 -285q-65 7 -88 49zM170 10v1057q21 10 74 10q22 0 40 -2.5t26 -4.5l7 -3v-1057q-24 -10 -73 -10q-24 0 -42.5 2.5t-25.5 5.5z" />
<glyph unicode="&#xee;" horiz-adv-x="487" d="M-45 1303l266 217h51l265 -217q-26 -57 -68 -68l-223 156l-221 -158q-48 17 -70 70zM170 10v1057q21 10 74 10q22 0 40 -2.5t26 -4.5l7 -3v-1057q-24 -10 -73 -10q-24 0 -42.5 2.5t-25.5 5.5z" />
<glyph unicode="&#xef;" horiz-adv-x="487" d="M2 1298v136q25 8 74 8q23 0 42 -2t26 -4l8 -2v-136q-25 -8 -76 -8q-22 0 -40.5 2t-25.5 4zM170 10v1057q21 10 74 10q22 0 40 -2.5t26 -4.5l7 -3v-1057q-24 -10 -73 -10q-24 0 -42.5 2.5t-25.5 5.5zM326 1298v136q24 8 75 8q22 0 40.5 -2t26.5 -4l7 -2v-136 q-25 -8 -74 -8q-23 0 -41.5 2t-25.5 4z" />
<glyph unicode="&#xf0;" horiz-adv-x="1138" d="M117 516q0 279 111.5 408t312.5 129q207 0 305 -146q-53 234 -223 373l-254 -160q-45 31 -56 86l215 135q-117 70 -245 95q-7 63 30 100q174 -29 324 -123l160 100q42 -29 55 -88l-125 -77q139 -120 214 -301.5t75 -417.5q0 -147 -20.5 -258.5t-57.5 -185.5t-94.5 -120 t-126.5 -65.5t-158 -19.5q-442 0 -442 536zM270 516q0 -119 20.5 -202.5t60 -130t90 -67t118.5 -20.5q54 0 96.5 12t80 42t62 77t38.5 120t14 169q0 121 -21.5 204.5t-63 129.5t-93.5 65t-123 19q-68 0 -117 -20t-86.5 -66.5t-56.5 -129t-19 -202.5z" />
<glyph unicode="&#xf1;" horiz-adv-x="1124" d="M164 10v1057q23 10 74 10q22 0 40 -2.5t26 -4.5l7 -3v-129q128 160 340 160q149 0 232.5 -83.5t83.5 -223.5v-781q-27 -10 -74 -10q-23 0 -41.5 2.5t-25.5 5.5l-7 2v752q0 213 -221 213q-86 0 -164 -50t-123 -137v-778q-24 -10 -73 -10q-23 0 -41.5 2.5t-25.5 5.5z M287 1370q2 4 6 10.5t19 23t32.5 29t47 23t61.5 10.5q37 0 70.5 -11t54 -23.5t47.5 -23.5t53 -11q27 0 50 15.5t32 30.5l10 15q24 -9 43 -29t23 -43q-2 -4 -6.5 -10.5t-19.5 -23t-33 -29t-47.5 -23t-61.5 -10.5q-47 0 -86.5 17.5t-73.5 35t-66 17.5q-27 0 -50 -15.5 t-32 -30.5l-10 -16q-54 25 -63 72z" />
<glyph unicode="&#xf2;" horiz-adv-x="1110" d="M117 539q0 294 112 426.5t326 132.5t326 -132.5t112 -426.5t-112 -426.5t-326 -132.5t-326 132.5t-112 426.5zM268 539q0 -126 19.5 -213.5t58.5 -137t89.5 -71t119.5 -21.5t119.5 21.5t89.5 71t58.5 137t19.5 213.5t-19.5 213t-58.5 136.5t-89.5 71t-119.5 21.5 t-119.5 -21.5t-89.5 -71t-58.5 -136.5t-19.5 -213zM293 1528q18 27 56.5 44.5t76.5 14.5l213 -295q-26 -42 -90 -49z" />
<glyph unicode="&#xf3;" horiz-adv-x="1110" d="M117 539q0 294 112 426.5t326 132.5t326 -132.5t112 -426.5t-112 -426.5t-326 -132.5t-326 132.5t-112 426.5zM268 539q0 -126 19.5 -213.5t58.5 -137t89.5 -71t119.5 -21.5t119.5 21.5t89.5 71t58.5 137t19.5 213.5t-19.5 213t-58.5 136.5t-89.5 71t-119.5 21.5 t-119.5 -21.5t-89.5 -71t-58.5 -136.5t-19.5 -213zM383 1292l213 295q39 3 76.5 -13.5t54.5 -45.5l-256 -285q-65 7 -88 49z" />
<glyph unicode="&#xf4;" horiz-adv-x="1110" d="M117 539q0 294 112 426.5t326 132.5t326 -132.5t112 -426.5t-112 -426.5t-326 -132.5t-326 132.5t-112 426.5zM258 1303l264 217h51l267 -217q-26 -57 -68 -68l-223 156l-221 -158q-47 16 -70 70zM268 539q0 -126 19.5 -213.5t58.5 -137t89.5 -71t119.5 -21.5t119.5 21.5 t89.5 71t58.5 137t19.5 213.5t-19.5 213t-58.5 136.5t-89.5 71t-119.5 21.5t-119.5 -21.5t-89.5 -71t-58.5 -136.5t-19.5 -213z" />
<glyph unicode="&#xf5;" horiz-adv-x="1110" d="M117 539q0 294 112 426.5t326 132.5t326 -132.5t112 -426.5t-112 -426.5t-326 -132.5t-326 132.5t-112 426.5zM268 539q0 -126 19.5 -213.5t58.5 -137t89.5 -71t119.5 -21.5t119.5 21.5t89.5 71t58.5 137t19.5 213.5t-19.5 213t-58.5 136.5t-89.5 71t-119.5 21.5 t-119.5 -21.5t-89.5 -71t-58.5 -136.5t-19.5 -213zM276 1358q2 4 6 10.5t19 23t32.5 29t47 23t61.5 10.5q47 0 86.5 -17.5t73.5 -35t66 -17.5q27 0 50 15t32 30l10 15q53 -16 63 -70q-2 -4 -6 -10.5t-19 -23t-32.5 -29t-47 -23t-61.5 -10.5q-47 0 -86.5 18t-73 36t-65.5 18 q-27 0 -50.5 -15.5t-33.5 -30.5l-10 -16q-53 23 -62 70z" />
<glyph unicode="&#xf6;" horiz-adv-x="1110" d="M117 539q0 294 112 426.5t326 132.5t326 -132.5t112 -426.5t-112 -426.5t-326 -132.5t-326 132.5t-112 426.5zM268 539q0 -126 19.5 -213.5t58.5 -137t89.5 -71t119.5 -21.5t119.5 21.5t89.5 71t58.5 137t19.5 213.5t-19.5 213t-58.5 136.5t-89.5 71t-119.5 21.5 t-119.5 -21.5t-89.5 -71t-58.5 -136.5t-19.5 -213zM313 1307v135q25 8 76 8q22 0 40.5 -2t26.5 -4l7 -2v-135q-25 -9 -74 -9q-23 0 -42 2t-27 4zM637 1307v135q25 8 76 8q22 0 40 -2t25 -4l8 -2v-135q-24 -9 -73 -9q-23 0 -42 2t-27 4z" />
<glyph unicode="&#xf7;" horiz-adv-x="1116" d="M141 594q0 16 2.5 30.5t5.5 20.5l3 6h815q8 -20 8 -57q0 -16 -2 -30.5t-4 -20.5l-2 -6h-815q-11 20 -11 57zM475 188v150q27 10 84 10q24 0 45 -2.5t30 -5.5l9 -2v-150q-29 -10 -84 -10q-25 0 -46 2.5t-29 5.5zM475 850v149q27 11 84 11q24 0 45 -3t30 -5l9 -3v-149 q-29 -10 -84 -10q-25 0 -46 2.5t-29 5.5z" />
<glyph unicode="&#xf8;" horiz-adv-x="1110" d="M117 539q0 294 112.5 426.5t325.5 132.5q141 0 238 -60l75 131q54 -6 95 -47l-89 -147q121 -140 121 -436q0 -294 -113 -426.5t-327 -132.5q-135 0 -227 51l-72 -123q-54 3 -92 47l80 139q-127 136 -127 445zM268 539q0 -204 64 -299l395 688q-67 53 -172 53 q-69 0 -119.5 -21.5t-89.5 -71t-58.5 -136.5t-19.5 -213zM395 141q62 -45 160 -45q69 0 119.5 21.5t89.5 71t58.5 137t19.5 213.5q0 185 -54 288z" />
<glyph unicode="&#xf9;" horiz-adv-x="1122" d="M156 287v780q26 10 73 10q23 0 41.5 -2.5t25.5 -4.5l7 -3v-752q0 -213 223 -213q83 0 161 49.5t124 137.5v778q25 10 74 10q23 0 41 -2.5t25 -4.5l7 -3v-1057q-22 -10 -73 -10q-22 0 -40.5 2.5t-26.5 5.5l-7 2v129q-61 -76 -148.5 -117.5t-191.5 -41.5q-149 0 -232 83.5 t-83 223.5zM328 1528q17 27 56 44.5t75 14.5l213 -295q-26 -43 -88 -49z" />
<glyph unicode="&#xfa;" horiz-adv-x="1122" d="M156 287v780q26 10 73 10q23 0 41.5 -2.5t25.5 -4.5l7 -3v-752q0 -213 223 -213q83 0 161 49.5t124 137.5v778q25 10 74 10q23 0 41 -2.5t25 -4.5l7 -3v-1057q-22 -10 -73 -10q-22 0 -40.5 2.5t-26.5 5.5l-7 2v129q-61 -76 -148.5 -117.5t-191.5 -41.5q-149 0 -232 83.5 t-83 223.5zM406 1292l212 295q39 3 77 -13.5t55 -45.5l-256 -285q-65 7 -88 49z" />
<glyph unicode="&#xfb;" horiz-adv-x="1122" d="M156 287v780q26 10 73 10q23 0 41.5 -2.5t25.5 -4.5l7 -3v-752q0 -213 223 -213q83 0 161 49.5t124 137.5v778q25 10 74 10q23 0 41 -2.5t25 -4.5l7 -3v-1057q-22 -10 -73 -10q-22 0 -40.5 2.5t-26.5 5.5l-7 2v129q-61 -76 -148.5 -117.5t-191.5 -41.5q-149 0 -232 83.5 t-83 223.5zM270 1303l265 217h51l264 -217q-22 -57 -68 -68l-223 156l-221 -158q-49 18 -68 70z" />
<glyph unicode="&#xfc;" horiz-adv-x="1122" d="M156 287v780q26 10 73 10q23 0 41.5 -2.5t25.5 -4.5l7 -3v-752q0 -213 223 -213q83 0 161 49.5t124 137.5v778q25 10 74 10q23 0 41 -2.5t25 -4.5l7 -3v-1057q-22 -10 -73 -10q-22 0 -40.5 2.5t-26.5 5.5l-7 2v129q-61 -76 -148.5 -117.5t-191.5 -41.5q-149 0 -232 83.5 t-83 223.5zM317 1311v133q25 10 76 10q22 0 41 -2.5t27 -5.5l8 -2v-133q-27 -11 -76 -11q-23 0 -42 3t-27 5zM641 1311v133q25 10 76 10q22 0 41 -2.5t27 -5.5l8 -2v-133q-27 -11 -76 -11q-23 0 -42 3t-27 5z" />
<glyph unicode="&#xfd;" horiz-adv-x="1073" d="M51 1067q27 10 78 10q23 0 42.5 -2.5t27.5 -4.5l8 -3l276 -702q22 -56 40.5 -111t26.5 -82l7 -27h6q23 91 66 220l241 702q23 10 74 10q21 0 39.5 -2.5t26.5 -4.5l8 -3l-434 -1266q-21 -64 -40.5 -108.5t-46.5 -86t-58.5 -65.5t-75 -38.5t-97.5 -14.5q-27 0 -53 4t-39 8 l-12 4q-12 24 -12 58q0 21 5 39t9 22q39 -10 88 -10q69 0 111.5 44t85.5 173l61 172q-22 0 -49 10zM393 1292l213 295q39 3 76.5 -13.5t54.5 -45.5l-256 -285q-65 7 -88 49z" />
<glyph unicode="&#xfe;" horiz-adv-x="1138" d="M164 -479v2005q23 10 74 10q23 0 41 -2.5t25 -5.5l7 -2v-588q94 160 316 160q93 0 163 -29t123 -93t80 -173.5t27 -263.5t-27 -263.5t-80 -173.5t-123 -93t-163 -29q-222 0 -316 159v-618q-22 -10 -73 -10q-23 0 -41.5 2.5t-25.5 4.5zM311 410q0 -78 29.5 -146.5t92 -114 t145.5 -45.5q153 0 220.5 98t67.5 337t-67 336.5t-221 97.5q-123 0 -194 -88.5t-73 -210.5v-264z" />
<glyph unicode="&#xff;" horiz-adv-x="1073" d="M51 1067q27 10 78 10q23 0 42.5 -2.5t27.5 -4.5l8 -3l276 -702q22 -56 40.5 -111t26.5 -82l7 -27h6q23 91 66 220l241 702q23 10 74 10q21 0 39.5 -2.5t26.5 -4.5l8 -3l-434 -1266q-21 -64 -40.5 -108.5t-46.5 -86t-58.5 -65.5t-75 -38.5t-97.5 -14.5q-27 0 -53 4t-39 8 l-12 4q-12 24 -12 58q0 21 5 39t9 22q39 -10 88 -10q69 0 111.5 44t85.5 173l61 172q-22 0 -49 10zM301 1313v133q25 10 76 10q22 0 41 -2.5t27 -5.5l8 -2v-133q-27 -10 -76 -10q-23 0 -42 2.5t-27 4.5zM625 1313v133q24 10 75 10q22 0 41 -2.5t27 -5.5l8 -2v-133 q-27 -10 -76 -10q-23 0 -41.5 2.5t-26.5 4.5z" />
<glyph unicode="&#x152;" horiz-adv-x="1746" d="M131 737q0 386 151 572t429 186q86 0 176 -20h733q12 -27 12 -64q0 -36 -12 -63h-576v-539h474q12 -27 12 -61t-12 -64h-474v-557h596q13 -32 13 -64q0 -31 -13 -63h-755q-90 -20 -174 -20q-277 0 -428.5 186t-151.5 571zM291 737q0 -174 29.5 -297.5t86 -196t131 -105 t173.5 -32.5q101 0 182 33v1196q-81 33 -182 33q-99 0 -173.5 -32.5t-131 -105t-86 -196t-29.5 -297.5z" />
<glyph unicode="&#x153;" horiz-adv-x="1685" d="M117 539q0 294 111 426.5t321 132.5q124 0 205.5 -53.5t126.5 -170.5q92 224 323 224q180 0 278.5 -105.5t98.5 -292.5q0 -56 -5.5 -108t-11.5 -76l-5 -24h-611q10 -208 77.5 -298t207.5 -90q64 0 124.5 16.5t88.5 33.5l29 16q44 -28 51 -100q-4 -4 -12.5 -10t-38 -21.5 t-64 -27.5t-90 -21.5t-115.5 -9.5q-238 0 -327 221q-45 -113 -126.5 -167t-203.5 -54q-210 0 -321 132.5t-111 426.5zM270 539q0 -125 19 -213t57 -137.5t87 -71t116 -21.5q90 0 145.5 39.5t85 138t29.5 267.5q0 168 -29.5 266t-84.5 136t-146 38q-67 0 -116 -21.5t-87 -71 t-57 -137t-19 -212.5zM948 602h475q0 3 2.5 19.5t4.5 43t2 54.5q0 115 -54.5 186.5t-173.5 71.5q-117 0 -181.5 -90t-74.5 -285z" />
<glyph unicode="&#x178;" horiz-adv-x="1286" d="M49 1462q31 13 92 13q25 0 46.5 -3.5t30.5 -6.5l9 -3l422 -686l432 686q25 13 80 13q24 0 45.5 -3.5t31.5 -6.5l9 -3l-530 -841v-609q-25 -12 -74 -12q-24 0 -43.5 3t-27.5 6l-7 3v604zM412 1595v134q24 10 75 10q22 0 41 -2.5t27 -4.5l8 -3v-134q-27 -10 -76 -10 q-23 0 -41.5 2.5t-25.5 4.5zM735 1595v134q25 10 76 10q22 0 41 -2.5t27 -4.5l8 -3v-134q-27 -10 -76 -10q-23 0 -42 2.5t-27 4.5z" />
<glyph unicode="&#x2c6;" horiz-adv-x="811" d="M109 1221l270 221h53l270 -221q-25 -59 -69 -70l-230 160l-225 -162q-49 18 -69 72z" />
<glyph unicode="&#x2dc;" horiz-adv-x="669" d="M76 1343q2 4 6 10.5t19.5 23t33 29.5t47 23.5t62.5 10.5q58 0 122.5 -35t102.5 -35q26 0 49 15t33 30l10 15q24 -9 41 -28t21 -42q-2 -4 -6 -10.5t-19 -23t-32.5 -29t-47 -23t-61.5 -10.5q-47 0 -86.5 18t-73.5 35.5t-66 17.5q-27 0 -50.5 -15.5t-33.5 -30.5l-10 -15 q-52 24 -61 69z" />
<glyph unicode="&#x2000;" horiz-adv-x="957" />
<glyph unicode="&#x2001;" horiz-adv-x="1915" />
<glyph unicode="&#x2002;" horiz-adv-x="957" />
<glyph unicode="&#x2003;" horiz-adv-x="1915" />
<glyph unicode="&#x2004;" horiz-adv-x="638" />
<glyph unicode="&#x2005;" horiz-adv-x="478" />
<glyph unicode="&#x2006;" horiz-adv-x="319" />
<glyph unicode="&#x2007;" horiz-adv-x="319" />
<glyph unicode="&#x2008;" horiz-adv-x="239" />
<glyph unicode="&#x2009;" horiz-adv-x="383" />
<glyph unicode="&#x200a;" horiz-adv-x="106" />
<glyph unicode="&#x2010;" horiz-adv-x="729" d="M154 594q0 16 2.5 30.5t5.5 20.5l2 6h401q10 -20 10 -57q0 -16 -2.5 -30.5t-4.5 -20.5l-3 -6h-401q-10 20 -10 57z" />
<glyph unicode="&#x2011;" horiz-adv-x="729" d="M154 594q0 16 2.5 30.5t5.5 20.5l2 6h401q10 -20 10 -57q0 -16 -2.5 -30.5t-4.5 -20.5l-3 -6h-401q-10 20 -10 57z" />
<glyph unicode="&#x2012;" horiz-adv-x="729" d="M154 594q0 16 2.5 30.5t5.5 20.5l2 6h401q10 -20 10 -57q0 -16 -2.5 -30.5t-4.5 -20.5l-3 -6h-401q-10 20 -10 57z" />
<glyph unicode="&#x2013;" horiz-adv-x="1196" d="M180 594q0 16 2.5 30.5t5.5 20.5l2 6h814q8 -20 8 -57q0 -16 -2 -30.5t-4 -20.5l-2 -6h-814q-10 20 -10 57z" />
<glyph unicode="&#x2014;" horiz-adv-x="1708" d="M180 594q0 16 2.5 30.5t5.5 20.5l2 6h1326q8 -20 8 -57q0 -16 -2 -30.5t-4 -20.5l-2 -6h-1326q-10 20 -10 57z" />
<glyph unicode="&#x2018;" horiz-adv-x="446" d="M135 1085v103q0 53 13 101.5t31.5 81t36.5 57t31 36.5l13 11l57 -41q-3 -3 -7 -8t-15.5 -23t-20.5 -38.5t-18 -53.5t-12 -68q17 -1 31.5 -3t20.5 -4l5 -1v-150q-27 -12 -84 -12q-24 0 -44.5 3t-28.5 6z" />
<glyph unicode="&#x2019;" horiz-adv-x="428" d="M127 1114q7 7 17.5 21.5t30.5 64t24 105.5q-17 1 -31 3.5t-20 4.5l-5 2v149q27 11 82 11q24 0 45 -2.5t30 -5.5l9 -3v-102q0 -53 -13 -102.5t-31.5 -82t-36.5 -57t-31 -36.5l-13 -11z" />
<glyph unicode="&#x201a;" horiz-adv-x="460" d="M129 -190q7 8 18 22.5t30.5 63.5t23.5 104q-16 1 -29.5 3.5t-19.5 4.5l-5 2v150q25 10 82 10q24 0 45 -2.5t30 -5.5l9 -2v-103q0 -53 -13 -102t-31.5 -81t-37.5 -56.5t-32 -35.5l-13 -11z" />
<glyph unicode="&#x201c;" horiz-adv-x="669" d="M127 1083v103q0 53 13 102.5t31.5 82t36.5 57t31 36.5l13 11l57 -41q-2 -3 -6.5 -8t-15.5 -23t-20 -38.5t-17.5 -53.5t-11.5 -68q16 -1 30 -3.5t20 -4.5l5 -2v-150q-27 -10 -84 -10q-24 0 -44.5 2.5t-28.5 4.5zM383 1083v103q0 53 13 102.5t31.5 82t37.5 57t32 36.5 l13 11l57 -41q-3 -3 -7 -8t-15.5 -23t-20.5 -38.5t-18 -53.5t-12 -68q17 -1 31 -3.5t19 -4.5l5 -2v-150q-25 -10 -82 -10q-24 0 -45 2.5t-30 4.5z" />
<glyph unicode="&#x201d;" horiz-adv-x="688" d="M129 1114q7 7 18 21.5t31.5 64t24.5 105.5q-17 1 -31 3.5t-20 4.5l-5 2v149q25 11 82 11q24 0 45 -2.5t30 -5.5l9 -3v-102q0 -53 -13 -102.5t-31.5 -82t-37.5 -57t-32 -36.5l-13 -11zM387 1114q7 7 17.5 21.5t30.5 64t24 105.5q-16 1 -30 3.5t-20 4.5l-6 2v149 q27 11 84 11q24 0 44.5 -2.5t28.5 -5.5l9 -3v-102q0 -53 -13 -102.5t-31.5 -82t-36.5 -57t-31 -36.5l-13 -11z" />
<glyph unicode="&#x201e;" horiz-adv-x="720" d="M131 -190q7 8 17.5 22.5t30.5 63.5t24 104q-16 1 -30 3.5t-20 4.5l-6 2v150q27 10 84 10q24 0 44.5 -2.5t28.5 -5.5l9 -2v-103q0 -53 -13 -102t-31.5 -81t-36.5 -56.5t-31 -35.5l-13 -11zM391 -190q7 8 18 22.5t30.5 63.5t23.5 104q-16 1 -30 3.5t-19 4.5l-6 2v150 q27 10 84 10q24 0 44 -2.5t28 -5.5l9 -2v-103q0 -53 -13 -102t-31 -81t-36 -56.5t-31 -35.5l-13 -11z" />
<glyph unicode="&#x2022;" horiz-adv-x="651" d="M199 578q0 57 36 92t91 35q56 0 91.5 -34.5t35.5 -92.5q0 -56 -35.5 -90.5t-91.5 -34.5q-55 0 -91 34.5t-36 90.5z" />
<glyph unicode="&#x2026;" horiz-adv-x="1204" d="M147 10v150q27 10 84 10q24 0 45 -2.5t30 -5.5l9 -2v-150q-29 -10 -84 -10q-25 0 -46 2.5t-29 5.5zM520 10v150q27 10 84 10q24 0 44.5 -2.5t29.5 -5.5l8 -2v-150q-29 -10 -82 -10q-25 0 -46 2.5t-30 5.5zM891 10v150q25 10 82 10q24 0 45 -2.5t30 -5.5l9 -2v-150 q-29 -10 -84 -10q-25 0 -45.5 2.5t-28.5 5.5z" />
<glyph unicode="&#x202f;" horiz-adv-x="383" />
<glyph unicode="&#x2039;" horiz-adv-x="696" d="M100 549q0 18 3 34.5t7 23.5l3 7l417 428q41 -28 52 -92l-353 -397l353 -399q-11 -65 -52 -93l-417 426q-13 23 -13 62z" />
<glyph unicode="&#x203a;" horiz-adv-x="696" d="M115 154l352 399l-352 397q11 64 51 92l418 -428q12 -24 12 -65q0 -17 -3 -32.5t-6 -22.5l-3 -7l-418 -426q-40 27 -51 93z" />
<glyph unicode="&#x205f;" horiz-adv-x="478" />
<glyph unicode="&#x20ac;" horiz-adv-x="1204" d="M106 475q-7 53 19 100h143q-4 70 -4 111q0 76 4 115h-162q-7 56 19 100h154q71 492 497 492q91 0 167 -16t106 -32l30 -16q-3 -70 -45 -104q-11 5 -31 12.5t-82.5 20t-125.5 12.5q-151 0 -243.5 -84.5t-121.5 -284.5h528q10 -54 -18 -100h-524q-2 -37 -2 -117 q0 -76 2 -109h458q10 -54 -18 -100h-428q15 -105 47.5 -178.5t81 -115t106 -59.5t132.5 -18q69 0 134 11.5t95 22.5l31 12q41 -33 45 -105q-12 -7 -36 -18t-108 -29t-180 -18q-430 0 -497 495h-173z" />
<glyph unicode="&#x2122;" horiz-adv-x="1284" d="M82 1444q0 16 6 31h416q6 -12 6 -29q0 -16 -6 -31h-172v-524q-10 -6 -35 -6q-11 0 -19.5 1.5t-11.5 3.5l-2 1v524h-176q-6 24 -6 29zM606 891v577q12 7 41 7q12 0 25 -3.5t14 -3.5l102 -200q43 -84 70 -154q18 47 70 146l104 208q20 7 43 7q12 0 22.5 -1.5t15.5 -3.5 l5 -2v-577q-13 -6 -33 -6q-10 0 -18.5 1.5t-12.5 3.5l-3 1v254q0 161 2 233q-30 -66 -62 -127l-104 -202q-11 -7 -31 -7q-9 0 -16.5 2t-11.5 4l-3 1l-100 200q-5 11 -27.5 57.5t-33.5 71.5q4 -61 4 -233v-254q-13 -6 -31 -6q-9 0 -16.5 1.5t-10.5 3.5z" />
<glyph unicode="&#x25fc;" horiz-adv-x="1075" d="M0 0v1075h1075v-1075h-1075z" />
</font>
</defs>
</svg>
