<?xml version="1.0" standalone="no"?>
<!DOCTYPE svg PUBLIC "-//W3C//DTD SVG 1.1//EN" "http://www.w3.org/Graphics/SVG/1.1/DTD/svg11.dtd" >
<svg xmlns="http://www.w3.org/2000/svg">
<metadata></metadata>
<defs>
<font id="globerlight_italic" horiz-adv-x="1134" >
<font-face units-per-em="2048" ascent="1536" descent="-512" />
<missing-glyph horiz-adv-x="538" />
<glyph unicode="&#xfb01;" d="M94 6l213 1010h-131q-4 8 2 31q2 10 5 17.5t5 9.5l2 3h132l26 123q34 169 130.5 252.5t297.5 83.5q81 0 165 -14t127 -28l44 -13q0 -15 -9.5 -32t-21.5 -26q-15 6 -42.5 14.5t-108 23t-156.5 14.5q-118 0 -191.5 -30.5t-110.5 -86t-56 -148.5l-29 -133h606h11h32 l-227 -1071q-10 -6 -35 -6q-7 0 -13 0.5t-9 1.5t-5 2t-3 2h-1l213 1010h-583l-213 -1010q-10 -6 -35 -6q-7 0 -13 0.5t-9 1.5t-5 2t-3 2h-1z" />
<glyph unicode="&#xfb02;" horiz-adv-x="1138" d="M94 6l213 1010h-131q-4 8 2 31q2 10 5 17.5t5 9.5l2 3h132l26 123q33 161 128.5 248.5t279.5 87.5q90 0 180.5 -17.5t135.5 -34.5l46 -18l-309 -1460q-10 -6 -35 -6q-7 0 -13 0.5t-9 1.5t-5 2t-3 2h-1l301 1419q-138 50 -290 50q-109 0 -179 -32.5t-105 -88t-54 -144.5 l-29 -133h275q4 -7 0 -30q-3 -9 -6.5 -16.5t-5.5 -10.5l-3 -4h-274l-213 -1010q-10 -6 -35 -6q-7 0 -13 0.5t-9 1.5t-5 2t-3 2h-1z" />
<glyph horiz-adv-x="0" />
<glyph horiz-adv-x="682" />
<glyph unicode=" "  horiz-adv-x="538" />
<glyph unicode="&#x09;" horiz-adv-x="538" />
<glyph unicode="&#xa0;" horiz-adv-x="538" />
<glyph unicode="!" horiz-adv-x="487" d="M68 6l18 86q12 6 45 6q15 0 26 -1.5t15 -2.5l4 -2l-18 -86q-14 -6 -47 -6q-15 0 -25.5 1.5t-13.5 2.5zM152 313l235 1155l1 3q6 4 36 4q36 -1 33 -7l-256 -1155q-7 -8 -25 -8q-9 0 -15 2t-7 4z" />
<glyph unicode="&#x22;" horiz-adv-x="595" d="M262 1077l68 391q14 7 37 7q11 0 19 -1.5t10 -3.5l3 -2l-96 -391q-8 -4 -22 -4zM475 1077l68 391q12 7 37 7q11 0 19 -1.5t11 -3.5l2 -2l-96 -391q-8 -4 -22 -4z" />
<glyph unicode="#" horiz-adv-x="1320" d="M29 303q-4 14 2 31q3 19 12 31h242l262 530h-219q-3 12 0 31q3 18 12 30h235l158 314q15 6 33 6q21 0 33 -6l-158 -314h365l157 314q15 6 33 6q21 0 33 -6l-158 -314h217q3 -12 0 -30q-3 -15 -12 -31h-234l-262 -530h211q3 -12 0 -31q-6 -17 -14 -31h-229l-144 -295 q-12 -8 -37 -8q-10 0 -17 2t-9 4l-2 2l143 295h-365l-143 -295q-12 -8 -37 -8q-10 0 -17 2t-9 4l-2 2l143 295h-223zM350 365h365l262 530h-365z" />
<glyph unicode="$" horiz-adv-x="1142" d="M16 72q2 14 11.5 31t21.5 24q19 -6 52 -15t128 -24.5t183 -15.5q199 0 323 72t154 214q13 63 0.5 111t-45 77.5t-79.5 53.5t-102 37.5t-113.5 30.5t-113.5 32.5t-101 42.5t-77.5 61t-42.5 88.5t4 125.5q31 151 156 243.5t321 104.5l41 244q14 6 41 6q13 0 22.5 -1.5 t13.5 -2.5l3 -2l-63 -242q99 0 183.5 -11t119.5 -23l35 -11q-4 -37 -31 -55q-131 37 -313 37q-198 0 -313.5 -74.5t-143.5 -208.5q-13 -61 -0.5 -107.5t45.5 -75t80 -51.5t102.5 -36.5t113.5 -30.5t113 -33t101 -44t77.5 -63.5t42 -91.5t-4.5 -129q-32 -155 -164 -249 t-332 -105l-45 -264q-10 -6 -39 -6q-14 0 -24 1.5t-13 2.5l-4 2l66 262q-108 0 -205.5 17t-140.5 34z" />
<glyph unicode="%" horiz-adv-x="1515" d="M186 -14l1106 1446q12 6 41 6q12 0 22 -1.5t13 -2.5l4 -2l-1106 -1446q-14 -6 -43 -6q-10 0 -19.5 1.5t-13.5 2.5zM205 1061q74 354 336 354t186 -354t-338 -354q-127 0 -175.5 84t-8.5 270zM276 1061q-34 -158 0.5 -224.5t126.5 -66.5t154 66.5t96 224.5 q63 293 -127 293q-91 0 -153.5 -68t-96.5 -225zM823 334q74 354 334 354q262 0 189 -354q-76 -354 -338 -354q-127 0 -176 84.5t-9 269.5zM894.5 109.5q33.5 -66.5 125.5 -66.5t155 66.5t97 224.5q61 293 -127 293q-92 0 -155 -68t-95 -225q-34 -158 -0.5 -224.5z" />
<glyph unicode="&#x26;" horiz-adv-x="1284" d="M41 169q-15 65 2 157q14 66 49.5 126.5t77.5 103t94.5 80.5t92 59.5t79.5 39.5q-34 163 -4 318q36 169 138.5 264.5t256.5 95.5q127 0 184.5 -72t35.5 -172q-13 -63 -46 -118t-76 -98t-112.5 -87.5t-135 -78.5t-163.5 -80q78 -270 309 -467q147 136 236 325q19 0 35 -8.5 t22 -21.5q-78 -171 -252 -332q101 -79 240 -144q-3 -38 -41 -61q-132 56 -256 156q-14 -13 -34.5 -29t-66.5 -43.5t-95.5 -48.5t-120 -37t-142.5 -16q-76 0 -137.5 20t-108 62t-61.5 107zM119 330q-29 -135 40 -212t210 -77q197 0 397 147q-116 102 -196.5 229.5 t-118.5 262.5q-35 -16 -69 -35t-78 -52t-79 -69.5t-64.5 -87.5t-41.5 -106zM502 764q85 40 144.5 70.5t120 69t99.5 75.5t67.5 82.5t39.5 95.5q19 90 -25 142.5t-143 52.5q-112 0 -191.5 -76t-109.5 -217q-31 -152 -2 -295z" />
<glyph unicode="'" horiz-adv-x="382" d="M262 1077l68 391q12 7 37 7q11 0 19 -1.5t10 -3.5l3 -2l-96 -391q-8 -4 -22 -4z" />
<glyph unicode="(" horiz-adv-x="573" d="M104 321q1 167 37 334q26 122 69 243t91.5 217.5t101 185t99.5 152.5t85 112t61 72l22 24q14 2 26 -8q6 -4 10.5 -10t5.5 -9l1 -4q-15 -16 -41.5 -45t-98 -127t-133 -204.5t-128 -269.5t-101.5 -329q-26 -121 -34.5 -240t-2.5 -212.5t19.5 -179t31.5 -146.5t34.5 -106 t28.5 -67l11 -23q-7 -13 -27 -23q-8 -4 -15 -6t-10 -2h-3q-9 17 -24 48t-47.5 133.5t-51 212.5t-17.5 277z" />
<glyph unicode=")" horiz-adv-x="571" d="M-127 -319q15 16 41.5 45t98 127t133 204t128 269t101.5 329q26 121 34.5 240t2.5 212.5t-19.5 179t-31.5 146.5t-34.5 106.5t-28.5 68.5l-11 22q6 13 24 23q9 4 16.5 6t10.5 2h4q9 -17 24 -48t47.5 -134t50.5 -213t17 -277t-37 -334q-26 -122 -69 -243t-91.5 -217.5 t-100.5 -185t-99 -152.5t-85 -111.5t-61 -71.5l-22 -24q-15 -2 -29 8q-5 4 -8.5 10t-4.5 10z" />
<glyph unicode="*" horiz-adv-x="724" d="M274 1262q6 27 27 49l166 -58l39 183q8 4 26 4l25 -4l-39 -183l191 58q13 -15 6 -49l-193 -58l82 -157q-25 -21 -47 -29l-82 153l-145 -155q-22 10 -37 28l147 160z" />
<glyph unicode="+" horiz-adv-x="942" d="M117 563q-4 8 2 31q2 10 5 18t5 10l2 3h307l66 307q8 6 31 6q10 0 17.5 -1.5t9.5 -2.5l3 -2l-65 -307h307q4 -8 0 -31q-3 -10 -6.5 -18t-5.5 -10l-2 -3h-308l-63 -307q-10 -6 -33 -6q-10 0 -17.5 1.5t-9.5 2.5l-2 2l64 307h-307z" />
<glyph unicode="," horiz-adv-x="417" d="M-35 -168q8 6 20 18.5t39.5 56.5t43.5 93q-11 0 -20 1.5t-12 2.5l-3 2l18 86q16 6 49 6q15 0 27.5 -1.5t17.5 -2.5l5 -2l-15 -65q-9 -40 -27 -77.5t-37 -62t-37.5 -43.5t-29.5 -28l-12 -9z" />
<glyph unicode="-" horiz-adv-x="727" d="M162 563q-4 8 2 31q2 10 5 18t5 10l2 3h369q4 -8 0 -31q-3 -10 -6.5 -18t-6.5 -10l-2 -3h-368z" />
<glyph unicode="." horiz-adv-x="399" d="M29 6l18 86q16 6 49 6q15 0 27 -1.5t17 -2.5l5 -2l-18 -86q-18 -6 -51 -6q-15 0 -26.5 1.5t-15.5 2.5z" />
<glyph unicode="/" horiz-adv-x="872" d="M-98 -90l1038 1620q12 6 37 6q12 0 21.5 -1.5t12.5 -2.5l3 -2l-1039 -1620q-16 -6 -43 -6q-10 0 -17.5 1.5t-10.5 2.5z" />
<glyph unicode="0" horiz-adv-x="1269" d="M142.5 284q-26.5 159 25.5 412q74 371 228 544t392 173q240 0 327.5 -171.5t14.5 -545.5t-228 -545t-394 -171q-159 0 -249 72.5t-116.5 231.5zM234.5 198.5q65.5 -157.5 273.5 -157.5q212 0 345.5 158t205.5 497q71 341 5 498.5t-278 157.5q-208 0 -341 -158.5 t-205 -497.5q-71 -340 -5.5 -497.5z" />
<glyph unicode="1" horiz-adv-x="788" d="M166 1061q137 34 266 118t227 207q8 7 31 7q10 0 18 -1.5t10 -3.5l3 -2l-293 -1380q-10 -6 -37 -6q-12 0 -19.5 1.5t-9.5 2.5l-2 2l207 981q30 133 70 289q-89 -102 -212 -172t-253 -103q-20 20 -6 60z" />
<glyph unicode="2" horiz-adv-x="1071" d="M4 0q2 65 16 137q12 58 33 109t43.5 88.5t57.5 74t62.5 60t73.5 52t75 44.5t81.5 43.5t79.5 42.5q22 12 63.5 35t62.5 35t56.5 33t55 34.5t48 35t44.5 39t36.5 41.5t33 47.5t23.5 52.5t18 61q9 42 9.5 78.5t-12.5 76t-43 67.5t-88 46.5t-141 18.5q-80 0 -168.5 -16.5 t-137.5 -33.5l-48 -16q-21 21 -8 62q18 7 51.5 18t135 29t202.5 18q84 0 148 -20t109.5 -63.5t59.5 -111.5t-4 -163q-10 -48 -29 -90.5t-39 -75t-57.5 -67t-66.5 -57.5t-85.5 -57.5t-93.5 -55t-112 -60.5q-22 -12 -64.5 -33.5t-70 -36t-68 -39t-68.5 -46t-61 -53.5 t-55.5 -65t-42 -76.5t-29.5 -92.5l-12 -84h723q4 -8 -2 -33q-2 -11 -5 -19.5t-6 -11.5l-2 -2h-782z" />
<glyph unicode="3" horiz-adv-x="1042" d="M-12 45q2 13 11 29t19 22q1 0 22 -7l27 -9t28.5 -8.5t35 -9t37 -7t44 -6.5t46 -4t53.5 -2q209 0 320 86t141 231q9 54 11 97t-11 77t-29 59.5t-43.5 44t-55 30.5t-62 19t-66.5 10t-67 3h-93q-4 8 0 31q2 10 5 18t5 11l3 2h92q359 0 424 307q28 132 -43 208.5t-236 76.5 q-76 0 -152.5 -13.5t-115.5 -26.5l-39 -14q-10 6 -14.5 24.5t0.5 31.5q17 6 47.5 15.5t120.5 25.5t174 16q78 0 139.5 -18.5t100.5 -50.5t63.5 -76.5t27 -96t-7.5 -108.5q-27 -131 -99 -213.5t-206 -122.5q251 -75 193 -379q-14 -72 -51.5 -135.5t-100 -117t-161.5 -84.5 t-222 -31q-88 0 -167 16.5t-114 32.5z" />
<glyph unicode="4" horiz-adv-x="1163" d="M35 379q-4 8 0 31q3 10 6.5 17.5t5.5 10.5l2 2l897 946q10 7 37 7q11 0 19.5 -1.5t11.5 -3.5l2 -2l-201 -950h219q4 -8 -2 -26l-12 -31h-219l-78 -373q-12 -6 -37 -6q-7 0 -13 0.5t-9 1.5t-5 2t-3 2h-1l78 373h-698zM125 436h623l180 846z" />
<glyph unicode="5" horiz-adv-x="1062" d="M-2 31q0 14 9.5 32t21.5 25q13 -5 35.5 -12.5t93 -20t139.5 -12.5q222 0 345.5 80t160.5 250q10 56 11.5 106.5t-19 94t-58.5 75.5t-107.5 50t-166.5 18q-55 0 -116.5 -5.5t-95.5 -11.5l-34 -6l148 699h665q4 -10 0 -33q-2 -10 -5 -18.5t-5 -11.5l-2 -3h-598l-121 -561 q84 14 193 14q238 0 330.5 -111.5t49.5 -312.5q-40 -191 -180 -283.5t-397 -92.5q-94 0 -168 12.5t-101 25.5z" />
<glyph unicode="6" horiz-adv-x="1132" d="M107 279q-9 103 20 247q44 210 130.5 372t205 266t259 161t302.5 68q7 -11 4 -29q-10 -25 -12 -29q-555 -54 -756 -592q198 109 385 109q88 0 156.5 -29t114 -87t58.5 -145t-11 -204q-43 -204 -181.5 -305.5t-335.5 -101.5q-95 0 -166 31.5t-117.5 98t-55.5 169.5z M197 518q-52 -239 20 -358t236 -119t282 90t156 270q40 186 -33 285.5t-229 99.5q-81 0 -170 -25.5t-138 -49.5t-88 -49q-19 -62 -36 -144z" />
<glyph unicode="7" horiz-adv-x="1001" d="M178 6q31 148 86 276.5t119.5 222.5t136.5 177t143.5 157t133.5 145.5t113 159.5t77 183h-764q-4 10 0 33q2 10 5 18.5t6 11.5l2 3h827q1 0 1.5 -4t0 -14t-3.5 -23q-22 -106 -71.5 -200.5t-112 -170t-134.5 -150.5t-145.5 -158t-140 -174.5t-122.5 -218.5t-87 -274 q-12 -6 -35 -6q-10 0 -19 1.5t-12 2.5z" />
<glyph unicode="8" horiz-adv-x="1185" d="M76 322q11 51 33.5 100t50.5 87.5t63 75t67.5 63t68.5 51t60.5 38.5t49.5 27q-68 37 -110.5 79.5t-63.5 109.5t-4 149q32 147 154.5 229t310.5 82q185 0 273.5 -87.5t57.5 -233.5q-16 -76 -55.5 -142.5t-91.5 -113.5t-95 -76.5t-87 -52.5q48 -23 85 -47.5t71.5 -59 t51 -73.5t24 -91.5t-8.5 -113.5q-33 -161 -165.5 -251.5t-360.5 -90.5q-212 0 -311 96.5t-68 245.5zM147 330q-31 -128 47.5 -207.5t268.5 -79.5q187 0 303 79.5t145 205.5q8 36 8 68.5t-6 58.5t-21 50.5t-31.5 43t-42.5 38t-48.5 33.5t-56 30.5t-58 27.5t-61 27.5 t-59.5 27.5q-29 -14 -56 -29t-85.5 -55t-102.5 -82t-86.5 -106t-57.5 -131zM351 1037q0 -29 6 -53t19 -46t28.5 -39.5t37.5 -34.5t44 -31t50 -28t53.5 -26t55.5 -25q31 -14 47 -21q44 22 86 49.5t93.5 71.5t90.5 104.5t54 128.5q29 123 -44 193t-224 70q-155 0 -258.5 -68 t-131.5 -184q-7 -32 -7 -61z" />
<glyph unicode="9" horiz-adv-x="1128" d="M131 29q5 25 12 34q563 55 758 590q-99 -58 -178 -85t-193 -27q-89 0 -159 26.5t-119 81t-63.5 139t8.5 201.5q44 206 183 315t333 109q195 0 286.5 -141t32.5 -406q-94 -418 -327 -632.5t-572 -233.5q-6 11 -2 29zM266 977q-38 -186 34.5 -279.5t229.5 -93.5 q117 0 211 35t185 92q14 44 37 143q50 239 -22.5 358.5t-235.5 119.5q-105 0 -193.5 -41t-154 -126.5t-91.5 -207.5z" />
<glyph unicode=":" horiz-adv-x="446" d="M43 6l18 86q17 6 50 6q15 0 27 -1.5t17 -2.5l5 -2l-19 -86q-18 -6 -51 -6q-15 0 -26.5 1.5t-15.5 2.5zM215 815l16 86q19 6 52 6q15 0 26.5 -1.5t16.5 -3.5l4 -1l-17 -86q-18 -6 -51 -6q-15 0 -26.5 1.5t-15.5 3.5z" />
<glyph unicode=";" horiz-adv-x="483" d="M0 -168q3 2 7.5 6.5t18 20.5t25.5 34t26.5 47t24.5 60q-11 0 -19.5 1.5t-11.5 2.5l-3 2l18 86q16 6 49 6q15 0 27 -1.5t17 -2.5l5 -2l-14 -65q-9 -40 -27 -77.5t-37 -62t-37.5 -43.5t-30.5 -28l-11 -9zM240 815l16 86q18 6 51 6q15 0 26.5 -1.5t16.5 -3.5l4 -1l-16 -86 q-18 -6 -51 -6q-15 0 -26.5 1.5t-16.5 3.5z" />
<glyph unicode="&#x3c;" horiz-adv-x="968" d="M113 549q-2 16 4 45q2 12 5.5 23t5.5 15l3 5l721 303q4 -8 -2 -33q-2 -11 -5 -20t-5 -12l-2 -3l-666 -280l547 -275q4 -11 -2 -36q-2 -10 -5.5 -19t-6.5 -12l-3 -4z" />
<glyph unicode="=" horiz-adv-x="1050" d="M139 393q-6 6 0 31q2 10 5 18t6 10l2 3h671q4 -8 0 -31q-2 -10 -5 -18t-5 -10l-2 -3h-672zM211 733q-4 8 0 31l12 31h672q6 -8 0 -31q-2 -10 -5 -18t-5 -10l-2 -3h-672z" />
<glyph unicode="&#x3e;" horiz-adv-x="962" d="M96 246q-2 12 2 35q3 11 6.5 20t5.5 13l3 3l661 275l-543 280q-4 10 0 35q3 11 6.5 19.5t6.5 11.5l2 2l590 -303q2 -16 -2 -43q-3 -13 -7 -24t-7 -16l-3 -5z" />
<glyph unicode="?" horiz-adv-x="866" d="M156 6l18 86q16 6 49 6q15 0 27 -1.5t17 -2.5l5 -2l-18 -86q-18 -6 -51 -6q-15 0 -26.5 1.5t-16.5 2.5zM232 1321q-4 16 1 29q15 7 43.5 17.5t113.5 28t169 17.5q76 0 134.5 -17t93 -46.5t55.5 -70t22 -87t-8 -96.5q-18 -83 -53.5 -149t-80 -111t-94.5 -84.5 t-100.5 -79.5t-94.5 -86.5t-80.5 -116t-55.5 -156.5q-11 -8 -31 -8q-8 0 -15 2t-10 4l-3 2q16 76 42.5 139t58 108t68 83t74.5 68t75.5 58.5t72.5 60.5t64.5 68t53 85t35.5 109q14 51 5.5 98t-32.5 82.5t-79.5 56.5t-136.5 21q-77 0 -150.5 -13t-108.5 -26l-34 -13 q-10 7 -14 23z" />
<glyph unicode="@" horiz-adv-x="1871" d="M114.5 215.5q-26.5 151.5 14.5 355.5q52 246 195 434t344 288t430 100q248 0 406.5 -99.5t211 -272.5t4.5 -400q-43 -208 -155.5 -327.5t-274.5 -119.5q-74 0 -119 37.5t-49 116.5q-107 -154 -297 -154q-69 0 -121 20t-90 66.5t-45.5 122t13.5 186.5q23 108 65.5 187.5 t98.5 124t117 65.5t130 21q176 0 226 -131l26 125q11 6 29 6l33 -6l-109 -510q-49 -224 109 -224q53 0 104.5 22t99.5 67.5t87.5 123.5t60.5 181q46 216 -5 377.5t-196.5 251t-370.5 89.5q-210 0 -395.5 -92t-319 -268t-182.5 -408q-38 -195 -14 -336.5t106 -234t199 -136.5 t264 -44q317 0 617 178q28 -11 20 -43q-300 -193 -663 -193q-158 0 -283 50t-210 151t-111.5 252.5zM634 430.5q4 -58.5 19.5 -97.5t47 -62.5t67 -33.5t80.5 -10q108 0 188 72t103 168l43 199q22 99 -28 173t-161 74q-46 0 -85 -8.5t-80 -31.5t-73.5 -60.5t-60.5 -99.5 t-45 -144q-19 -80 -15 -138.5z" />
<glyph unicode="A" horiz-adv-x="1298" d="M-90 6l889 1462q10 7 30 7q8 0 14.5 -1.5t9.5 -3.5l3 -2l270 -1462q-12 -6 -39 -6q-8 0 -15.5 1.5t-11.5 2.5l-3 2l-82 440h-723l-268 -440q-16 -6 -43 -6q-12 0 -19.5 1.5t-9.5 2.5zM291 512h672l-142 780q-4 23 -6 42.5t-2 27.5v8h-4q-14 -29 -43 -78z" />
<glyph unicode="B" horiz-adv-x="1286" d="M88 0l313 1475h476q195 0 275 -105q53 -70 53 -177q0 -53 -13 -116q-16 -74 -47.5 -134.5t-63.5 -95t-68 -58.5t-57.5 -32.5t-35.5 -11.5l2 -1q96 -28 145 -113q36 -63 36 -147q0 -50 -13 -109q-19 -91 -54 -157t-94.5 -116.5t-152 -76t-218.5 -25.5h-483zM172 66h412 q197 0 297.5 81t134.5 240q12 55 12 101q0 93 -48 145q-71 78 -261 78h-410zM324 776h395q177 0 274 85t125 233q9 50 9 92q0 90 -44 144q-65 78 -237 79h-389z" />
<glyph unicode="C" horiz-adv-x="1132" d="M176 750q82 378 253.5 561.5t442.5 183.5q99 0 180.5 -16.5t113.5 -32.5l32 -16q2 -15 -10 -31q-5 -8 -11.5 -14.5t-10.5 -8.5l-3 -2q-12 6 -35 16t-99 26t-159 16q-89 0 -163.5 -20.5t-145 -70.5t-127 -128.5t-104.5 -199t-82 -278.5q-32 -157 -36 -277q0 -16 -1 -31 q0 -99 20 -167q23 -78 73 -126.5t115.5 -68.5t155.5 -20t175 14t125 29l40 14q11 -4 15 -22q2 -9 1.5 -16.5t-1.5 -11.5l-2 -5q-6 -3 -16.5 -7.5t-46.5 -16t-76.5 -20.5t-105 -16t-132.5 -7q-413 0 -413 454q0 137 38 316z" />
<glyph unicode="D" horiz-adv-x="1349" d="M88 0l313 1475h375q122 0 209.5 -22t151.5 -73.5t93 -135.5q28 -80 27 -199q1 -6 1 -12q-2 -126 -39 -296q-45 -213 -109 -356t-156 -227t-203 -119t-264 -35h-399zM172 68h309q107 0 190 18t158.5 63.5t132 121t103 191.5t80.5 275q34 160 37 276v25q0 100 -22 168 q-24 76 -80.5 121t-131.5 63.5t-182 18.5h-309z" />
<glyph unicode="E" horiz-adv-x="1136" d="M88 0l313 1475h789q2 -6 2 -14.5t-2 -18.5q-7 -23 -14 -33h-719l-133 -629h616q3 -12 0 -30q-7 -22 -14 -33h-617l-137 -651h739q3 -14 0 -31q-6 -22 -14 -35h-809z" />
<glyph unicode="F" horiz-adv-x="1099" d="M90 6l311 1469h789q2 -5 2 -13t-2 -20q-3 -10 -6.5 -18.5t-5.5 -11.5l-2 -3h-719l-138 -645h623q4 -13 0 -33q-2 -9 -5.5 -17t-6.5 -12l-2 -4h-623l-145 -692q-12 -6 -37 -6q-11 0 -19.5 1.5t-11.5 2.5z" />
<glyph unicode="G" horiz-adv-x="1267" d="M174 737q82 377 261 567.5t448 190.5q110 0 202 -16.5t129 -32.5l37 -16q2 -15 -10 -31q-5 -8 -11 -13.5t-10 -7.5l-3 -2q-15 6 -43.5 15.5t-113 25t-167.5 15.5q-88 0 -164.5 -20.5t-150.5 -70.5t-134.5 -128.5t-111 -199.5t-84.5 -278q-34 -159 -34 -282 q0 -117 26 -193q27 -78 80.5 -126.5t121 -68.5t156.5 -20q138 0 322 39l131 616h-396q-4 13 0 33q3 11 6 19.5t5 11.5l2 2h465l-152 -721q-17 -7 -49 -18t-135 -29t-211 -18q-273 0 -382 190q-64 109 -64 281q0 126 34 286z" />
<glyph unicode="H" horiz-adv-x="1384" d="M90 6l309 1462q14 7 37 7q10 0 18.5 -1.5t11.5 -3.5l3 -2l-143 -680h802l144 680q14 7 37 7q10 0 18 -1.5t11 -3.5l3 -2l-309 -1462q-12 -6 -37 -6q-12 0 -20 1.5t-10 2.5l-2 2l151 717h-803l-151 -717q-14 -6 -37 -6q-8 0 -14 0.5t-9.5 1.5t-5.5 2t-3 2h-1z" />
<glyph unicode="I" horiz-adv-x="512" d="M90 6l309 1462q12 7 37 7q11 0 19.5 -1.5t10.5 -3.5l3 -2l-309 -1462q-12 -6 -37 -6q-11 0 -19.5 1.5t-11.5 2.5z" />
<glyph unicode="J" horiz-adv-x="862" d="M-61 41q6 38 34 57q12 -6 34 -15t85.5 -23.5t122.5 -14.5q117 0 192 61.5t107 208.5l244 1153q10 7 37 7q10 0 18 -1.5t11 -3.5l3 -2l-243 -1153q-37 -174 -128 -254.5t-255 -80.5q-68 0 -133.5 15t-97.5 31z" />
<glyph unicode="K" horiz-adv-x="1239" d="M90 6l309 1462q14 7 37 7q10 0 18.5 -1.5t11.5 -3.5l3 -2l-141 -669h293l610 669q14 7 45 7q11 0 20.5 -1.5t13.5 -3.5l3 -2l-639 -708l387 -754q-14 -6 -41 -6q-10 0 -20 1.5t-14 2.5l-5 2l-371 727h-297l-153 -727q-14 -6 -37 -6q-10 0 -18.5 1.5t-11.5 2.5z" />
<glyph unicode="L" horiz-adv-x="1019" d="M88 0l311 1468q14 7 37 7q11 0 19.5 -1.5t10.5 -3.5l3 -2l-297 -1402h678q1 -4 1 -9q0 -10 -3 -24l-12 -33h-748z" />
<glyph unicode="M" horiz-adv-x="1732" d="M90 6l309 1462q18 7 47 7q13 0 22.5 -1.5t13.5 -3.5l3 -2l297 -856q11 -31 19.5 -58t10.5 -38l3 -12h4q29 36 86 108l684 856q15 7 56 7q15 0 26 -1.5t15 -3.5l4 -2l-310 -1462q-12 -6 -37 -6q-11 0 -19 1.5t-10 2.5l-3 2l250 1180q13 62 26.5 115t20.5 75l8 23h-4 q-35 -56 -107 -142l-663 -833q-15 -6 -35 -6q-8 0 -15.5 1.5t-11.5 2.5l-4 2l-291 833q-13 36 -23 71.5t-14 53.5l-4 17h-4q-4 -80 -37 -234l-245 -1159q-10 -6 -35 -6q-11 0 -19.5 1.5t-11.5 2.5z" />
<glyph unicode="N" horiz-adv-x="1421" d="M90 6l309 1462q16 7 43 7q10 0 18.5 -1.5t11.5 -3.5l3 -2l483 -1187q18 -44 34 -90t23 -71l7 -24h4q12 99 43 246l242 1126q12 7 37 7q10 0 17.5 -1.5t10.5 -3.5l2 -2l-309 -1462q-14 -6 -41 -6q-10 0 -18.5 1.5t-11.5 2.5l-3 2l-487 1204q-20 49 -35 92t-19 62l-5 18h-5 q-8 -73 -49 -266l-237 -1110q-12 -6 -37 -6q-10 0 -18 1.5t-11 2.5z" />
<glyph unicode="O" horiz-adv-x="1386" d="M174 737q159 758 698 758q262 0 366 -186q58 -104 57 -272q0 -131 -35 -300q-80 -387 -258 -572t-439 -185t-365 185q-58 104 -59 273q0 130 35 299zM248 737q-38 -170 -38 -299q0 -397 359 -397q463 0 617 696q39 174 39 305q0 392 -353 392q-228 0 -385 -166t-239 -531 z" />
<glyph unicode="P" horiz-adv-x="1224" d="M90 6l311 1469h488q187 1 271 -115q57 -78 56 -192q0 -54 -12 -115q-41 -192 -166.5 -306t-310.5 -114h-434l-133 -627q-12 -6 -37 -6q-11 0 -19.5 1.5t-11.5 2.5zM305 698h428q152 0 256.5 94.5t140.5 258.5q12 60 12 110q0 92 -40 153q-64 95 -217 95h-428z" />
<glyph unicode="Q" horiz-adv-x="1386" d="M174 737q159 758 698 758q262 0 366 -186q58 -104 58 -272q0 -131 -36 -300q-99 -475 -349 -653q42 -55 103.5 -92.5t122.5 -52.5q-15 -43 -58 -62q-64 15 -127.5 62t-101.5 108q-128 -67 -287 -67q-262 0 -365 185q-59 104 -59 273q0 130 35 299zM248 737 q-38 -170 -38 -299q0 -397 359 -397q463 0 617 696q39 174 39 305q0 392 -353 392q-228 0 -385 -166t-239 -531z" />
<glyph unicode="R" horiz-adv-x="1261" d="M90 6l311 1469h478q186 0 270 -113q57 -77 57 -187q0 -51 -12 -110q-34 -160 -133 -262.5t-250 -126.5l211 -670q-16 -6 -41 -6q-11 0 -21 1.5t-14 2.5l-4 2l-205 662h-20h-418l-139 -662q-12 -6 -37 -6q-11 0 -19.5 1.5t-11.5 2.5zM313 733h418q149 0 254 89.5 t139 248.5q11 53 11 99q-1 90 -45 150q-68 90 -216 89h-417z" />
<glyph unicode="S" horiz-adv-x="1146" d="M20 55q4 39 33 58q18 -7 51 -18t127.5 -29.5t182.5 -18.5q197 0 324.5 84t160.5 242q8 38 8 70.5t-5 58t-18.5 48t-27.5 39t-38 32.5t-44.5 26t-52.5 22t-55.5 19t-59.5 17q-43 12 -69 20t-66 22.5t-63.5 27t-54.5 32t-48.5 40t-35.5 49t-24 60.5q-7 35 -7 77q0 40 10 85 q37 179 176.5 278t361.5 99q99 0 189 -12.5t130 -24.5l40 -12q-6 -38 -33 -57q-148 43 -330 43q-198 0 -317.5 -86t-149.5 -236q-8 -39 -8 -72.5t4.5 -60t18 -50t27.5 -40t40 -33t47 -27t56 -22.5t61 -20t68 -19q39 -11 66.5 -19.5t63 -21.5t60 -26.5t52.5 -32.5t45.5 -40 t33.5 -50q16 -28 22 -60q6 -30 6 -67v-5q0 -40 -11 -88q-39 -183 -184.5 -279.5t-372.5 -96.5q-69 0 -134.5 7.5t-109.5 19t-78.5 22.5t-51.5 19z" />
<glyph unicode="T" horiz-adv-x="1073" d="M233 1411v5q0 12 3 28q2 9 5 16.5t5 11.5l2 3h936q2 -4 2 -11.5t-2 -19.5q-2 -9 -5.5 -17t-6.5 -12l-3 -4h-428l-297 -1405q-11 -6 -36 -6q-11 0 -19.5 1.5t-10.5 2.5l-3 2l297 1405h-439z" />
<glyph unicode="U" horiz-adv-x="1361" d="M174 455l215 1013q14 7 37 7q11 0 19.5 -1.5t10.5 -3.5l3 -2l-217 -1022q-13 -62 -13 -115q0 -112 57 -184q84 -106 275 -106q190 0 319 106.5t169 298.5l217 1022q14 7 34 7q10 0 18.5 -1.5t11.5 -3.5l3 -2l-215 -1013q-49 -227 -197 -351t-362 -124q-217 0 -324 126 q-75 88 -75 224q0 58 14 125z" />
<glyph unicode="V" horiz-adv-x="1232" d="M231 1468q10 7 37 7q10 0 17.5 -1.5t9.5 -3.5l2 -2l192 -1249q4 -30 7 -59t4 -42v-14h4q18 47 55 113l723 1251q16 7 43 7q8 0 14 -0.5t9.5 -1.5t5.5 -2.5t3 -2.5h1l-844 -1462q-11 -6 -31 -6q-8 0 -14.5 1.5t-8.5 2.5l-3 2z" />
<glyph unicode="W" horiz-adv-x="1925" d="M240 1468q11 7 36 7q11 0 20 -1.5t12 -3.5l3 -2l109 -1175q4 -49 6 -97q1 -28 0 -48v-22v-22h4q21 76 80 189l610 1175q8 7 31 7l27 -7l104 -1175q4 -50 4 -97.5t-2 -69.5l-2 -22h4q25 76 82 189l590 1175q10 7 41 7q10 0 18 -1.5t11 -3.5l2 -2l-734 -1462q-10 -6 -30 -6 q-9 0 -15.5 1.5t-8.5 2.5l-3 2l-106 1182q-4 54 -5 97t0 59l2 16h-4q-12 -51 -75 -172l-617 -1182q-13 -6 -31 -6q-9 0 -15.5 1.5t-8.5 2.5l-2 2z" />
<glyph unicode="X" horiz-adv-x="1202" d="M-57 6l628 748l-309 714q16 7 47 7q9 0 17 -1.5t12 -3.5l4 -2l287 -665l575 665q16 7 51 7q13 0 23 -1.5t14 -3.5l4 -2l-620 -712l328 -750q-17 -6 -46 -6q-12 0 -21 1.5t-12 2.5l-3 2l-306 699l-583 -699q-24 -6 -53 -6q-12 0 -21 1.5t-13 2.5z" />
<glyph unicode="Y" horiz-adv-x="1241" d="M227 1468q16 7 45 7q10 0 18.5 -1.5t11.5 -3.5l3 -2l324 -768l663 768q18 7 47 7q15 0 25 -1.5t13 -3.5l3 -2l-727 -843l-131 -619q-14 -6 -37 -6q-10 0 -18 1.5t-11 2.5l-3 2l131 617z" />
<glyph unicode="Z" horiz-adv-x="1167" d="M-43 0q-2 5 -2 13.5t2 19.5q2 9 5.5 17t5.5 12l3 4l1159 1343h-819q-4 10 2 33q2 10 5 18.5t6 11.5l2 3h899q2 -6 2 -14.5t-2 -18.5l-15 -33l-1163 -1343h905q4 -10 -2 -33q-2 -10 -5 -18.5t-5 -11.5l-2 -3h-981z" />
<glyph unicode="[" horiz-adv-x="636" d="M12 -348l426 2007h334q4 -10 0 -35q-3 -11 -6.5 -20t-5.5 -12l-2 -3h-264l-398 -1868h264q4 -9 0 -32q-3 -12 -6.5 -21t-5.5 -12l-2 -4h-334z" />
<glyph unicode="\" horiz-adv-x="862" d="M240 1528q9 8 36 8q13 0 22.5 -2t13.5 -4l3 -2l347 -1616q-12 -8 -39 -8q-12 0 -21.5 2t-12.5 4l-3 2z" />
<glyph unicode="]" horiz-adv-x="634" d="M-125 -348q-4 10 2 37q2 10 5 18t5 11l2 3h265l397 1868h-264q-4 10 2 35q2 11 5 20t5 12l2 3h334l-426 -2007h-334z" />
<glyph unicode="^" horiz-adv-x="1046" d="M195 932l473 536q10 7 41 7q6 0 11.5 -0.5t9 -1t6.5 -1t4.5 -1.5t2.5 -1.5t1 -1.5h1l248 -536q-10 -6 -41 -6q-14 0 -23.5 1.5t-12.5 2.5l-3 2l-219 481l-424 -481q-8 -6 -39 -6q-6 0 -11.5 0.5t-9 1t-6.5 1t-4.5 1t-2.5 1t-1 1.5h-1z" />
<glyph unicode="_" horiz-adv-x="1048" d="M-31 -70q2 10 5 17.5t6 9.5l2 2h819q4 -6 0 -29q-3 -10 -6 -17t-5 -9l-2 -2h-819q-6 5 0 28z" />
<glyph unicode="`" horiz-adv-x="487" d="M131 1618q31 35 72 35l176 -307q-20 -26 -55 -29z" />
<glyph unicode="a" d="M92 275v23q0 100 27 241q32 154 82.5 263.5t118 173.5t146 93t175.5 29q118 0 197.5 -56t101.5 -149l45 178q4 6 29 6q11 0 18 -1.5t8 -3.5l2 -1l-225 -1065q-11 -6 -29 -6q-8 0 -14 1.5t-8 2.5l-2 2l27 178q-141 -204 -388 -204q-93 0 -158 28.5t-107 94t-46 172.5z M186 158q56 -118 238 -117q78 0 149.5 33.5t123 87.5t87 118t50.5 130l59 258q10 52 10 103.5t-18.5 99.5t-47.5 84.5t-77 58.5t-107 22q-188 0 -296.5 -116.5t-168.5 -380.5q-30 -134 -30 -231q0 -93 28 -150z" />
<glyph unicode="b" d="M57 6l324 1524q8 6 33 6q11 0 19 -1.5t11 -2.5l2 -2l-135 -631q71 97 160 148t215 51q321 0 322 -338q0 -97 -27 -221q-32 -154 -82 -263.5t-116 -173.5t-142.5 -93t-171.5 -29q-124 0 -202 56.5t-107 156.5l-37 -187q-10 -6 -35 -6q-7 0 -13 0.5t-9 1.5t-5 2t-3 2h-1z M200 306q0 -52 18.5 -99.5t48 -84.5t78.5 -59t110 -22q185 0 293 118t163 380q27 126 27 219q0 99 -30 160q-58 118 -240 118q-77 0 -147 -32t-120 -84t-85 -114t-50 -126l-59 -270q-8 -49 -8 -97q1 -4 1 -7z" />
<glyph unicode="c" horiz-adv-x="905" d="M119 557q56 269 194.5 405t343.5 136q69 0 126 -12t79 -24l23 -11q-7 -40 -37 -58q-8 5 -22.5 11.5t-64 18t-104.5 11.5q-187 0 -303.5 -124t-169.5 -371q-23 -109 -23 -194q-1 -108 37 -177q68 -123 259 -123q58 0 113.5 12.5t81.5 24.5l26 12q20 -14 16 -55 q-11 -7 -32.5 -16.5t-91 -26t-142.5 -16.5q-203 0 -285 149q-48 87 -48 219q0 93 24 209z" />
<glyph unicode="d" d="M117 539q32 154 81.5 263t115 173.5t142.5 93.5t173 29q123 0 202.5 -57t106.5 -152l135 641q8 6 33 6q11 0 19.5 -1.5t10.5 -2.5l3 -2l-324 -1524q-11 -6 -29 -6q-8 0 -14 1.5t-8 2.5l-2 2l26 180q-69 -103 -159 -154.5t-217 -51.5q-321 0 -321 338q0 97 26 221z M186 539q-27 -128 -27 -221q0 -99 30 -159q58 -118 241 -118q78 0 149 33.5t121.5 87.5t85.5 118.5t48 129.5l55 258q11 40 11 81q0 25 -4 49q-10 66 -36.5 118.5t-83 86t-133.5 33.5q-187 0 -294 -117t-163 -380z" />
<glyph unicode="e" horiz-adv-x="1036" d="M113 545q61 281 198.5 417t329.5 136q178 0 255 -105q53 -72 53 -174q0 -46 -11 -98q-12 -56 -28.5 -107t-27.5 -74l-10 -24h-694q-18 -101 -18 -179q0 -113 38 -179q64 -110 244 -111q76 0 146 20.5t102 40.5l33 21q25 -16 25 -50v-7q-5 -4 -14 -10t-41 -22t-67.5 -28 t-92 -22t-115.5 -10q-202 0 -282 145q-47 84 -47 212q0 93 24 208zM190 578h639q25 57 45 153q11 42 11 80q-1 18 -3 36q-8 55 -31.5 97t-78 67t-133.5 25q-161 0 -277.5 -113t-171.5 -345z" />
<glyph unicode="f" horiz-adv-x="684" d="M90 6l213 1010h-143q-3 16 0.5 31.5t8.5 22.5l5 7h143l29 135q17 80 42 135.5t66.5 100t105 66.5t151.5 22q44 0 88.5 -6t66.5 -12l23 -7q0 -15 -9.5 -31.5t-21.5 -25.5q-61 21 -149 21q-75 0 -127 -17t-85 -53.5t-52 -81.5t-33 -113l-29 -133h336q4 -7 0 -30l-14 -31 h-336l-213 -1010q-10 -6 -35 -6q-7 0 -13 0.5t-9 1.5t-5 2t-3 2h-1z" />
<glyph unicode="g" horiz-adv-x="1132" d="M41 -463q3 38 35 55q96 -38 227 -38q94 0 161 22.5t124 78t98 153t72 245.5l28 127q-68 -96 -156 -148t-218 -52q-77 0 -135.5 18t-101.5 59t-65 105q-20 60 -20 150v8q1 96 27 219q33 154 81.5 263t114 173.5t142.5 93.5t174 29q130 0 205 -58.5t102 -154.5l39 186 q10 6 35 6q11 0 18.5 -1.5t9.5 -3.5l2 -1l-217 -1018q-25 -118 -53 -202t-70 -156t-98 -115.5t-133.5 -67.5t-179.5 -24q-72 0 -134 12t-88 24zM186 158q56 -117 244 -117q69 0 130.5 25t105.5 63t79 87.5t55.5 95t30.5 87.5l60 279q5 41 7 88v10q0 41 -14 84q-16 49 -42 88 t-78 63.5t-121 24.5q-188 0 -294.5 -116.5t-162.5 -380.5q-29 -132 -29 -227t29 -154z" />
<glyph unicode="h" horiz-adv-x="1126" d="M57 6l324 1524q10 6 33 6q10 0 18 -1.5t11 -2.5l3 -2l-137 -639q181 207 416 207q145 0 216 -83q49 -58 49 -142q0 -37 -9 -78l-166 -789q-12 -6 -35 -6q-10 0 -17.5 1.5t-10.5 2.5l-2 2l163 772q9 45 9 83q0 71 -34 113q-52 64 -183 64q-110 0 -227 -72.5t-193 -195.5 l-162 -764q-12 -6 -35 -6q-10 0 -18 1.5t-10 2.5z" />
<glyph unicode="i" horiz-adv-x="454" d="M63 6l226 1065q10 6 35 6q11 0 18.5 -1.5t9.5 -3.5l2 -1l-225 -1065q-10 -6 -35 -6q-7 0 -13 0.5t-9 1.5t-5 2t-3 2h-1zM324 1313l18 86q18 6 51 6q15 0 26.5 -1.5t16.5 -3.5l4 -1l-18 -86q-16 -6 -49 -6q-15 0 -27 1.5t-17 3.5z" />
<glyph unicode="j" horiz-adv-x="456" d="M-358 -477q3 10 7 18.5t7 11.5l2 3q31 -9 90 -9q112 0 179 63t96 202l268 1259q10 6 35 6q11 0 18.5 -1.5t9.5 -3.5l2 -1l-266 -1251q-36 -168 -123.5 -250t-214.5 -82q-38 0 -65.5 4.5t-36.5 9.5l-8 4q-1 4 -1 8t1 9zM326 1313l18 86q18 6 51 6q15 0 26.5 -1.5 t16.5 -3.5l4 -1l-18 -86q-16 -6 -49 -6q-15 0 -27 1.5t-17 3.5z" />
<glyph unicode="k" horiz-adv-x="1009" d="M57 6l324 1524q8 6 33 6q11 0 19 -1.5t11 -2.5l2 -2l-198 -936h252l432 477q14 6 49 6q13 0 20.5 -1t8.5 -2l2 -1l-465 -516l289 -549q-12 -8 -41 -8q-11 0 -20.5 2t-12.5 4l-4 2l-273 524h-252l-110 -526q-10 -6 -35 -6q-7 0 -13 0.5t-9 1.5t-5 2t-3 2h-1z" />
<glyph unicode="l" horiz-adv-x="462" d="M68 6l323 1524q8 6 33 6q11 0 19.5 -1.5t10.5 -2.5l3 -2l-324 -1524q-10 -6 -35 -6q-11 0 -18.5 1.5t-9.5 2.5z" />
<glyph unicode="m" horiz-adv-x="1730" d="M57 6l226 1065q11 6 34 6q10 0 18 -1.5t11 -3.5l2 -1l-37 -178q171 205 398 205q107 0 172 -54.5t65 -166.5q176 221 414 221q136 0 196 -82q40 -55 39 -134q0 -40 -10 -87l-166 -789q-12 -6 -35 -6q-10 0 -17.5 1.5t-10.5 2.5l-2 2l164 772q11 52 11 94q0 66 -28 104 q-46 62 -166 62q-104 0 -216.5 -74t-188.5 -200l-160 -758q-12 -6 -35 -6q-10 0 -17.5 1.5t-9.5 2.5l-3 2l163 772q11 53 11 95q-1 65 -27 103q-44 62 -164 62q-103 0 -216 -72.5t-187 -195.5l-162 -764q-12 -6 -35 -6q-10 0 -18 1.5t-10 2.5z" />
<glyph unicode="n" horiz-adv-x="1126" d="M57 6l226 1065q11 6 34 6q10 0 18 -1.5t11 -3.5l2 -1l-39 -180q181 207 422 207q145 0 213 -82q47 -57 47 -140q0 -38 -10 -81l-166 -789q-12 -6 -35 -6q-10 0 -17.5 1.5t-10.5 2.5l-2 2l163 772q10 48 10 87q0 70 -32 110q-50 63 -180 63q-111 0 -230.5 -73t-195.5 -195 l-162 -764q-12 -6 -35 -6q-10 0 -18 1.5t-10 2.5z" />
<glyph unicode="o" horiz-adv-x="1099" d="M117 539q58 295 189 427t335 132q205 0 285 -132q46 -77 46 -208q0 -95 -24 -219q-58 -295 -189 -427t-335 -132q-205 0 -285 132q-46 77 -46 208q0 95 24 219zM160 341v-22q0 -71 14 -120q16 -57 52 -92.5t85 -50.5t115 -15q83 0 149.5 24.5t125.5 81t103.5 154.5 t74.5 238q24 113 26 198v18q-1 73 -15 123q-16 56 -52 92t-84.5 51t-114.5 15q-83 0 -150 -24.5t-126 -80.5t-103.5 -154t-73.5 -238q-24 -113 -26 -198z" />
<glyph unicode="p" d="M-53 -506l336 1577q9 6 34 6q7 0 13 -0.5t9 -1.5t5 -2t3 -1l1 -1l-37 -172q145 199 375 199q77 0 135.5 -18t101.5 -59t65 -105q20 -60 20 -150v-8q-1 -96 -27 -219q-33 -154 -81.5 -263t-114 -173.5t-142.5 -93.5t-174 -29q-121 0 -200 56t-107 159l-150 -701 q-7 -6 -32 -6q-11 0 -19.5 1.5t-10.5 2.5zM207 410q-9 -42 -9 -82q0 -45 11 -89q20 -83 84.5 -140.5t161.5 -57.5q188 0 294 117t162 381q29 133 29 228q0 94 -28 152q-56 117 -244 117q-73 0 -142.5 -32t-120.5 -84t-87.5 -114.5t-51.5 -125.5z" />
<glyph unicode="q" horiz-adv-x="1132" d="M92 320q1 96 27 219q33 154 81.5 263t114 173.5t142.5 93.5t174 29q126 0 203 -56.5t104 -154.5l39 184q10 6 35 6q11 0 18.5 -1.5t9.5 -3.5l2 -1l-335 -1577q-8 -6 -33 -6q-11 0 -19.5 1.5t-10.5 2.5l-3 2l145 684q-68 -96 -157.5 -147t-214.5 -51q-77 0 -135.5 18 t-101.5 59t-65 105q-20 60 -20 150v8zM188 158q56 -117 244 -117q76 0 145.5 31.5t120 83.5t85.5 114t51 127l61 283q6 42 6 83q0 9 -1 18q-1 50 -19.5 96t-48 81.5t-78 56.5t-109.5 21q-188 0 -294.5 -116.5t-162.5 -380.5q-29 -132 -29 -227t29 -154z" />
<glyph unicode="r" horiz-adv-x="788" d="M57 6l226 1065q9 6 34 6q7 0 13 -0.5t9 -1.5t5 -2t3 -1l1 -1l-43 -199q53 73 106 121t100.5 68.5t82 27.5t74.5 7q47 0 87 -11t56 -23l16 -11q-11 -44 -39 -56q-64 37 -145 37q-88 0 -185.5 -74.5t-176.5 -203.5l-158 -748q-10 -6 -35 -6q-7 0 -13 0.5t-9 1.5t-5 2t-3 2 h-1z" />
<glyph unicode="s" horiz-adv-x="911" d="M6 43q2 14 11.5 31t21.5 24q13 -6 37.5 -15.5t95 -25.5t137.5 -16q130 0 223 56t119 173q6 26 6 49.5t-4.5 42t-16 35.5t-23 29.5t-31 24.5t-35.5 20t-41.5 17.5t-42.5 15.5t-45 14q-32 10 -59.5 20t-57 25t-51 32t-42 40t-28.5 49q-9 26 -14 60q-2 10 -2 22q0 24 8 51 q28 133 133.5 207t280.5 74q68 0 130 -11t90 -23l28 -11q-2 -14 -11.5 -31.5t-21.5 -24.5q-94 39 -221 39q-142 0 -229.5 -59t-112.5 -172q-5 -22 -5 -42q0 -24 7 -45q12 -38 45 -64t70 -42.5t89 -31.5q30 -9 51 -16t49.5 -18t48.5 -21.5t43.5 -26t38 -32t28.5 -38.5 q13 -22 19 -46q6 -27 7 -60q0 -29 -8 -62q-63 -280 -418 -280q-86 0 -160 15.5t-105 31.5z" />
<glyph unicode="t" horiz-adv-x="700" d="M145 1016q-2 3 -2 9q0 8 4 22q2 10 5 17.5t6 9.5l2 3h166l43 209q28 19 60 19h9l-47 -228h330q1 -1 1.5 -3t1.5 -9v-5q0 -6 -1 -13q-3 -10 -7 -18t-6 -11l-3 -2h-330l-139 -664q-21 -97 -21 -163v-11q2 -70 44 -103.5t132 -33.5q29 0 62.5 3t52.5 6l18 3q1 -1 1.5 -3.5 t1.5 -10t-1 -16.5l-8 -27q-59 -16 -141 -16q-161 0 -205 92q-22 47 -22 120q0 69 20 160l139 664h-166z" />
<glyph unicode="u" horiz-adv-x="1128" d="M109 293l167 778q12 6 35 6q10 0 18 -1.5t11 -3.5l2 -1l-164 -772q-10 -47 -10 -85q0 -177 217 -177q109 0 225.5 72.5t196.5 197.5l162 764q12 6 35 6q10 0 17.5 -1.5t10.5 -3.5l2 -1l-225 -1065q-12 -6 -35 -6q-10 0 -18 1.5t-10 2.5l-3 2l37 180q-183 -206 -409 -206 q-147 0 -221 84q-51 59 -51 147q0 38 10 82z" />
<glyph unicode="v" horiz-adv-x="1011" d="M156 1071q12 6 39 6q9 0 16 -1.5t9 -3.5l3 -1l142 -778q9 -49 15 -98.5t8 -74.5l1 -24h4q39 80 107 193l469 782q10 6 39 6q10 0 18 -1.5t11 -3.5l3 -1l-637 -1065q-10 -6 -28 -6q-5 0 -9.5 0.5t-7 1.5t-4.5 2t-3 2h-1z" />
<glyph unicode="w" horiz-adv-x="1615" d="M164 1071q12 6 37 6q11 0 19 -1.5t10 -3.5l3 -1l93 -809q5 -46 6.5 -86.5t0.5 -57.5l-1 -18h6q25 62 80 162l454 809q10 6 33 6q7 0 13 -0.5t9 -1.5t5 -2t3 -1l1 -1l104 -805q6 -46 7 -87.5t-1 -60.5l-2 -18h7q23 57 82 166l436 805q12 6 39 6q11 0 18.5 -1.5t9.5 -3.5 l2 -1l-577 -1065q-11 -6 -29 -6q-8 0 -14 1.5t-8 2.5l-2 2l-97 731q-11 83 -15 144q-4 50 -4 72v9l1 19h-6q-27 -58 -131 -244l-410 -731q-11 -6 -29 -6q-8 0 -14 1.5t-8 2.5l-2 2z" />
<glyph unicode="x" horiz-adv-x="989" d="M-63 6l497 543l-264 522q12 6 41 6q8 0 16 -1.5t11 -3.5l4 -1l243 -477l437 477q8 6 49 6q12 0 21.5 -1.5t12.5 -3.5l3 -1l-490 -530l273 -535q-12 -6 -41 -6q-9 0 -16.5 1.5t-11.5 2.5l-3 2l-250 490l-446 -490q-11 -6 -54 -6q-11 0 -19 1.5t-10 2.5z" />
<glyph unicode="y" horiz-adv-x="1124" d="M14 -463q3 38 35 55q96 -38 227 -38q89 0 158 21t129.5 71t105 140.5t72.5 221.5l37 178q-183 -206 -416 -206q-145 0 -215 82q-49 59 -49 145q0 36 8 76l168 788q12 6 35 6q10 0 18 -1.5t11 -3.5l2 -1l-164 -772q-10 -45 -10 -83q0 -177 219 -177q109 0 224.5 72 t195.5 196l162 764q11 6 34 6q10 0 18 -1.5t11 -3.5l2 -1l-227 -1065q-62 -264 -188.5 -391t-354.5 -127q-72 0 -134 12t-88 24z" />
<glyph unicode="z" horiz-adv-x="909" d="M-41 0q-2 3 -2 10.5t2 20.5q3 11 6 18.5t5 9.5l1 2l836 959h-582q-4 7 2 27l13 30h655q2 -4 2 -11.5t-2 -18.5q-3 -10 -6.5 -18t-5.5 -11l-2 -2l-834 -955h639q6 -5 0 -30q-1 -7 -2.5 -13t-3.5 -9t-3 -5t-2 -3l-1 -1h-715z" />
<glyph unicode="{" horiz-adv-x="684" d="M96 651q-4 13 0 33q2 10 5.5 19t6.5 13l3 3h71q43 0 71 30.5t38 75.5l119 561q27 127 111.5 200t217.5 73h82q4 -13 0 -33q-2 -9 -5.5 -17t-5.5 -12l-3 -4h-72q-212 0 -258 -211l-110 -520q-14 -71 -35.5 -111t-63.5 -65q32 -25 36.5 -69.5t-11.5 -108.5l-111 -520 q-22 -104 17.5 -157.5t150.5 -53.5h72q4 -8 0 -31q-2 -8 -4 -14t-3.5 -10t-3 -6.5t-2.5 -3.5l-1 -1h-82q-133 0 -187.5 73.5t-27.5 199.5l118 561q10 46 -4 76t-57 30h-72z" />
<glyph unicode="|" horiz-adv-x="499" d="M0 -397l426 2009q10 6 35 6q7 0 13 -0.5t9 -1.5t5 -2t3 -2h1l-426 -2009q-10 -6 -35 -6q-7 0 -13 0.5t-9 1.5t-5 2t-3 1z" />
<glyph unicode="}" horiz-adv-x="684" d="M-113 -256l15 33h71q212 0 258 211l111 520q15 71 35.5 111t62.5 65q-31 25 -35 69t11 109l110 520q22 104 -17.5 157.5t-150.5 53.5h-71q-4 8 2 31q1 8 2.5 14t3.5 10t3 6.5t2 3.5l1 1h82q133 0 187.5 -73.5t27.5 -199.5l-119 -561q-10 -45 5.5 -75.5t58.5 -30.5h71 q2 -13 -2 -33q-2 -10 -5 -19t-5 -13l-2 -3h-72q-43 0 -71.5 -30.5t-38.5 -75.5l-119 -561q-27 -127 -112 -200t-218 -73h-82q-4 13 0 33z" />
<glyph unicode="~" horiz-adv-x="1103" d="M178 616l10.5 10.5t29.5 23t48 29.5t65 23.5t81 10.5q45 0 85.5 -16.5t66.5 -36t65 -36t82 -16.5q44 0 88 18.5t66 37.5l22 18q36 -6 39 -41q-3 -4 -9.5 -11t-29 -24t-48 -30t-66.5 -24t-85 -11q-45 0 -85.5 16.5t-66.5 35.5t-65 35.5t-82 16.5q-44 0 -88 -18.5 t-66 -36.5l-22 -19q-35 6 -35 45z" />
<glyph unicode="&#xa1;" horiz-adv-x="466" d="M-20 -408l256 1156q4 8 24 8q8 0 14 -2t8 -4l3 -2l-236 -1156l-1 -3q-6 -3 -36 -3q-35 1 -32 6zM256 969l18 86q19 6 52 6q15 0 26.5 -1.5t15.5 -3.5l5 -1l-19 -86q-16 -6 -49 -6q-15 0 -27 1.5t-17 3.5z" />
<glyph unicode="&#xa2;" horiz-adv-x="937" d="M123 539q58 272 199 415.5t344 143.5q69 0 126 -12t79 -24l22 -11q-7 -40 -37 -58q-8 5 -22.5 11.5t-63.5 18t-104 11.5q-187 0 -303.5 -124t-169.5 -371q-53 -248 14 -370t258 -122q58 0 113.5 11.5t81.5 23.5l26 12q20 -14 16 -55q-12 -7 -35 -16.5t-94.5 -26 t-144.5 -16.5q-203 0 -283 143.5t-22 415.5zM342 -207l59 223h52l-39 -223q-16 -8 -37 -8q-22 0 -35 8zM623 1061l36 223q21 6 39 6q21 0 33 -6l-57 -223h-51z" />
<glyph unicode="&#xa3;" horiz-adv-x="1044" d="M25 0l14 66q82 61 139 123.5t85.5 119.5t43 117t12.5 115.5t-6 115.5h-170q-5 19 0 33q4 22 15 33h149q-10 70 -14.5 112.5t-4 105t12.5 116.5q38 181 165 269.5t318 88.5q76 0 148.5 -12.5t107.5 -25.5l35 -13q-8 -41 -37 -55q-13 5 -35.5 12t-92.5 19t-138 12 q-165 0 -266 -76t-133 -225q-7 -30 -9 -61t0.5 -68t5 -61.5t9 -71t8.5 -66.5h412q4 -17 2 -31q-3 -17 -17 -35h-389q4 -58 5 -113.5t-14 -116t-41.5 -118.5t-78.5 -120.5t-125 -122.5h656q7 -13 0 -33q-4 -22 -15 -33h-757z" />
<glyph unicode="&#xa4;" horiz-adv-x="1200" d="M49 146v4l187 151q-70 111 -37 254q31 147 147 254l-123 152q5 14 23 28q9 6 16.5 10t10.5 5h3l125 -150q128 90 269 90q140 0 229 -92l182 152q11 -1 27 -15q4 -6 6.5 -13t3.5 -11v-4l-182 -152q71 -110 41 -254q-35 -148 -150 -254l121 -151q-2 -13 -18 -27 q-9 -8 -17 -12.5t-12 -5.5l-4 -1l-121 154q-129 -92 -272 -92q-145 0 -234 92l-184 -154q-13 1 -25 19q-6 6 -9 13t-3 10zM260 555q-31 -137 45 -232.5t213 -95.5q138 0 252 95t145 233q29 138 -45.5 233t-212.5 95q-137 0 -252.5 -95t-144.5 -233z" />
<glyph unicode="&#xa5;" horiz-adv-x="1232" d="M147 330q-4 10 0 28q2 8 5 15t6 11l2 3h356l37 168h-356q-4 11 0 29q1 8 4 15t5 10l3 3h336l-305 783q9 6 34 6q13 0 22.5 -1.5t13.5 -3.5l3 -1l291 -750l635 750q10 6 37 6q12 0 21.5 -1.5t12.5 -3.5l3 -1l-662 -783h336q2 -10 0 -28q-2 -8 -5 -15t-5 -11l-2 -3h-357 l-36 -168h356q4 -11 0 -29q-2 -8 -5 -15t-5 -10l-2 -3h-357l-67 -324q-8 -6 -35 -6q-12 0 -19.5 1.5t-9.5 2.5l-2 2l68 324h-357z" />
<glyph unicode="&#xa6;" horiz-adv-x="497" d="M-2 -397l190 903q12 6 37 6q11 0 19.5 -1.5t11.5 -2.5l2 -2l-190 -903q-12 -6 -37 -6q-11 0 -19.5 1.5t-11.5 3.5zM238 729l190 903q12 6 37 6q11 0 19.5 -1.5t11.5 -2.5l2 -2l-191 -903q-12 -6 -37 -6q-11 0 -19 1.5t-11 3.5z" />
<glyph unicode="&#xa7;" horiz-adv-x="991" d="M33 29q3 35 30 59q140 -41 267 -41q169 0 255.5 46t108.5 147q8 40 -6.5 71t-46 52t-74 38.5t-91 32.5t-96.5 31t-90 37.5t-72 48.5t-42.5 68t-1.5 92q10 49 37 92t63.5 73t66 48.5t60.5 33.5q-139 73 -108 213q24 120 123 181t258 61q74 0 140 -10.5t95 -21.5l29 -11 q0 -15 -9.5 -31t-21.5 -24q-114 37 -229 37q-153 0 -223.5 -46t-89.5 -132q-9 -41 4.5 -73.5t42.5 -54.5t69.5 -40.5t85.5 -34t90.5 -32t85 -38t67.5 -48t39.5 -66.5t0.5 -89q-32 -152 -211 -243q48 -22 78.5 -48t45.5 -69t3 -98q-16 -74 -55 -126t-98.5 -80.5t-127.5 -41 t-153 -12.5q-80 0 -154.5 12t-109.5 24zM248 719q-8 -39 2 -70t28.5 -50.5t59 -39t69.5 -29t84 -26t82 -25.5q176 87 205 211q7 37 -3.5 67t-30 49.5t-56.5 39t-67.5 30.5t-80 28t-77.5 28q-31 -14 -61 -31.5t-63.5 -44t-58 -62.5t-32.5 -75z" />
<glyph unicode="&#xa8;" horiz-adv-x="931" d="M217 1257l19 86q18 7 51 7q15 0 26.5 -2t16.5 -4l4 -1l-19 -86q-16 -6 -49 -6q-15 0 -27 1.5t-17 3.5zM506 1257l18 86q18 7 51 7q15 0 27 -2t16 -4l5 -1l-19 -86q-16 -6 -49 -6q-15 0 -27 1.5t-17 3.5z" />
<glyph unicode="&#xa9;" horiz-adv-x="1652" d="M156 696q40 187 165.5 344t302.5 248.5t363 91.5q112 0 209.5 -35t167.5 -97t117 -147.5t57 -187.5t-12 -217q-39 -186 -164 -344t-302.5 -250t-363.5 -92t-324.5 92t-196.5 250t-19 344zM203 497.5q10 -93.5 53 -172t107.5 -136t154 -89.5t191.5 -32q127 0 253.5 50 t228 134t176 200t101.5 244q36 170 -17 314.5t-179.5 228.5t-296.5 84t-332.5 -84t-278 -228.5t-151.5 -314.5q-20 -105 -10 -198.5zM506 711q87 407 428 407q60 0 108.5 -11t67.5 -23l18 -11q-4 -28 -30 -45q-74 37 -166 37q-153 0 -239 -83t-126 -271q-38 -175 15.5 -265 t199.5 -90q44 0 92 9t74 17l25 9q16 -10 12 -43q-9 -5 -27 -13t-76.5 -21t-121.5 -13q-170 0 -233 105.5t-21 304.5z" />
<glyph unicode="&#xaa;" horiz-adv-x="737" d="M100 457q-2 8 2 22l9 21h450v-21l-10 -22h-451zM168 797q41 190 268 190q98 0 185 -12l20 94q20 98 -8.5 137t-122.5 39q-44 0 -91 -8.5t-72 -16.5l-25 -8q-6 6 -8 19t1 22q105 37 211 37q209 0 164 -209l-96 -456q-4 -4 -16 -4l-19 4l12 100q-92 -119 -241 -119 q-89 0 -135.5 52t-26.5 139zM217 797q-17 -73 15.5 -109.5t103.5 -36.5q93 0 167 58.5t95 156.5l14 68q-155 10 -176 10q-98 0 -151 -36t-68 -111z" />
<glyph unicode="&#xab;" horiz-adv-x="995" d="M100 524q-4 11 0 29q2 8 5 15.5t5 10.5l3 3l522 460q10 -6 14.5 -21t1.5 -30l-491 -438l305 -440q-10 -39 -39 -52zM430 526q-4 9 0 27l10 27l471 417q23 -11 15 -49l-437 -395l269 -397q-6 -37 -35 -50z" />
<glyph unicode="&#xac;" horiz-adv-x="1220" d="M178 838q-4 10 0 30q2 9 5 16.5t5 11.5l2 3h902l-109 -512q-13 -6 -33 -6q-10 0 -17 1.5t-9 3.5l-2 1l96 451h-840z" />
<glyph unicode="&#xad;" horiz-adv-x="561" />
<glyph unicode="&#xae;" horiz-adv-x="1105" d="M203 965q37 173 187 296t323 123t269.5 -123t59.5 -296t-187 -296.5t-323 -123.5t-269.5 123.5t-59.5 296.5zM240 965q-34 -160 54.5 -272.5t246.5 -112.5q160 0 295.5 112.5t169.5 272.5t-54 272.5t-247 112.5q-158 0 -294.5 -112.5t-170.5 -272.5zM434 743l98 463h177 q142 0 114 -133q-19 -97 -114 -123l73 -205q-6 -6 -20 -6l-23 4l-73 203h-152l-43 -203q-6 -4 -18 -4zM522 981h142q55 0 83 23t37 69q11 51 -6.5 74.5t-72.5 23.5h-142z" />
<glyph unicode="&#xaf;" horiz-adv-x="833" d="M72 1323q7 22 16 33h580q6 -12 0 -31q-3 -21 -15 -35h-579q-5 13 -2 33z" />
<glyph unicode="&#xb0;" horiz-adv-x="741" d="M258 1264q20 97 101 170t196 73q113 0 160.5 -70.5t27.5 -166.5q-22 -98 -98.5 -169t-189.5 -71q-80 0 -130.5 35t-65 86.5t-1.5 112.5zM299 1266q-16 -82 24 -139.5t138 -57.5q95 0 158.5 58t82.5 141q16 83 -23 141.5t-134 58.5t-161 -60t-85 -142z" />
<glyph unicode="&#xb1;" horiz-adv-x="1050" d="M119 305q-6 8 0 31q2 10 5 18t5 10l2 3h676q4 -8 0 -31l-12 -31h-676zM221 793q-4 7 0 30q3 10 6.5 18t6.5 11l2 2h307l51 246q10 6 33 6q10 0 17 -1.5t9 -2.5l2 -2l-51 -246h307q4 -8 -2 -31q-2 -10 -5 -17.5t-5 -9.5l-2 -3h-307l-51 -246q-10 -6 -33 -6 q-10 0 -17.5 1.5t-9.5 3.5l-2 1l51 246h-307z" />
<glyph unicode="&#xb2;" horiz-adv-x="616" d="M109 709q-2 37 8 84q14 65 53.5 114t89 75.5t106.5 53t105.5 48t86 60t48.5 89.5q12 63 -20.5 103t-132.5 40q-35 0 -74.5 -5t-61.5 -10l-22 -5q-11 21 -2 41q72 24 174 24q120 0 163.5 -50.5t24.5 -133.5q-12 -55 -44 -97.5t-75 -68.5t-92 -48t-97 -44.5t-88.5 -50 t-68 -71t-32.5 -101.5h391q6 -9 2 -25q-3 -11 -10 -22h-432z" />
<glyph unicode="&#xb3;" horiz-adv-x="624" d="M111 725q4 26 20 37q68 -21 156 -21q67 0 115.5 13t75.5 36.5t40.5 48.5t20.5 58q18 80 -25 119t-125 39h-88q-4 24 10 45h88q76 0 125.5 37t63.5 102q13 67 -23.5 102t-120.5 35q-43 0 -85.5 -4.5t-63.5 -9.5l-21 -4q-11 18 -2 39q77 24 181 24q109 0 156 -46.5 t28 -133.5q-14 -60 -45 -98.5t-88 -63.5q57 -24 79 -64t5 -118q-43 -199 -309 -199q-44 0 -86 7t-62 13z" />
<glyph unicode="&#xb4;" horiz-adv-x="458" d="M41 1346l303 307q44 0 59 -35l-319 -301q-36 3 -43 29z" />
<glyph unicode="&#xb5;" horiz-adv-x="1183" d="M8.5 -493q-0.5 11 1 53.5t6 93t18 136t34.5 181.5l233 1100q10 6 35 6q7 0 13 -0.5t9 -1.5t5 -2t3 -1l1 -1l-164 -776q-55 -256 211 -256q121 0 235 79t182 187l162 766q10 6 35 6q7 0 13 -0.5t9 -1.5t5 -2t3 -1l1 -1l-225 -1065q-10 -6 -35 -6q-7 0 -13 0.5t-9 1.5t-5 2 t-3 2h-1l39 182q-87 -100 -195 -154t-225 -54q-174 0 -233 104q-26 -131 -43 -238.5t-22 -167.5t-6 -102t1 -56l2 -14q-32 -26 -76 -16q-1 6 -1.5 17z" />
<glyph unicode="&#xb6;" horiz-adv-x="897" d="M53 -459l324 1520q-85 3 -119.5 57t-19.5 129q19 75 79.5 130t145.5 55h55l-403 -1891q-8 -6 -31 -6q-7 0 -13 0.5t-9 1.5t-5 2t-3 1zM377 -459l401 1884q10 7 33 7q10 0 17.5 -2t9.5 -4l2 -1l-402 -1884q-7 -6 -30 -6q-10 0 -18 1.5t-10 3.5z" />
<glyph unicode="&#xb7;" horiz-adv-x="444" d="M154 539l18 86q16 6 49 6q15 0 27 -1.5t17 -3.5l5 -1l-18 -86q-18 -7 -51 -7q-15 0 -26.5 2t-16.5 4z" />
<glyph unicode="&#xb8;" horiz-adv-x="606" d="M-291 -385q8 27 33 45q59 -37 149 -37q78 0 127 36.5t64 107.5q12 60 -20.5 91t-104.5 31h-63l-11 17l68 174l55 -4l-51 -129q117 0 165 -46.5t30 -133.5q-44 -199 -273 -199q-45 0 -87 12t-62 24z" />
<glyph unicode="&#xb9;" horiz-adv-x="495" d="M201 1257q71 18 147 61t127 89q8 4 25 4q18 0 22 -4l-147 -694q-8 -4 -23 -4q-16 0 -24 4l114 544q4 17 11 44.5t10 39.5q-120 -89 -260 -124q-13 13 -2 40z" />
<glyph unicode="&#xba;" horiz-adv-x="774" d="M119 457q-2 8 2 22l8 21h463q2 -7 0 -21l-10 -22h-463zM199 948q35 177 113 259.5t210 82.5t179 -82t12 -260q-33 -178 -112.5 -261t-211.5 -83t-178 82t-12 262zM246 719.5q33 -70.5 145 -70.5q110 0 174.5 70.5t98.5 228.5q34 155 -1 226t-145 71q-111 0 -173.5 -70 t-96.5 -227q-35 -158 -2 -228.5z" />
<glyph unicode="&#xbb;" horiz-adv-x="993" d="M37 156l436 397l-268 395q7 35 35 49l295 -417q1 -9 -3 -27l-8 -27l-473 -420q-21 12 -14 50zM313 113l490 440l-303 438q8 38 37 51l325 -460q4 -11 0 -29q-2 -8 -5 -15.5t-5 -10.5l-2 -3l-522 -463q-25 14 -15 52z" />
<glyph unicode="&#xbc;" horiz-adv-x="1300" d="M90 -16l1106 1448q9 6 27 6q8 0 14 -1.5t8 -2.5l2 -2l-1104 -1448q-8 -4 -26 -4zM217 1257q71 18 147.5 61t127.5 89q8 4 24 4q19 0 23 -4l-148 -694q-8 -4 -22 -4q-17 0 -25 4l115 544q5 19 11.5 47t8.5 37q-120 -89 -260 -124q-13 13 -2 40zM594 204.5q-1 3.5 0 8.5 l8 16l473 469q9 4 27 4l22 -4l-96 -452h88q4 -9 0 -23l-8 -24h-88l-43 -195q-7 -4 -23 -4l-24 4l43 195h-377v1q-1 1 -2 4.5zM674 246h307l82 383z" />
<glyph unicode="&#xbd;" horiz-adv-x="1419" d="M90 -16l1106 1448q9 6 27 6q8 0 14 -1.5t8 -2.5l2 -2l-1104 -1448q-8 -4 -26 -4zM217 1257q71 18 147.5 61t127.5 89q8 4 24 4q19 0 23 -4l-148 -694q-8 -4 -22 -4q-17 0 -25 4l115 544q5 19 11.5 47t8.5 37q-120 -89 -260 -124q-13 13 -2 40zM741 0q1 37 11 84 q14 65 53.5 114t89 75.5t106.5 53t105 48t85.5 60t47.5 89.5q14 62 -20 103t-134 41q-35 0 -74 -5t-61 -11l-22 -5q-9 17 -2 41q74 25 176 25q120 0 162.5 -50.5t25.5 -134.5q-12 -55 -44.5 -97.5t-75.5 -68.5t-92.5 -48t-97.5 -44.5t-88 -50t-67 -71t-32 -101.5h391 q3 -10 0 -24q-4 -17 -10 -23h-433z" />
<glyph unicode="&#xbe;" horiz-adv-x="1415" d="M133 725q4 25 21 37q67 -21 155 -21q67 0 115.5 13t75.5 36.5t40.5 48.5t20.5 58q18 80 -24.5 119t-124.5 39h-88q-4 24 10 45h88q76 0 125 37t63 102q13 67 -23.5 102t-119.5 35q-43 0 -85.5 -4.5t-63.5 -9.5l-21 -4q-11 18 -2 39q76 24 180 24q109 0 156 -46.5 t28 -133.5q-14 -60 -45 -98.5t-88 -63.5q57 -24 79 -64t5 -118q-43 -199 -309 -199q-44 0 -86 7t-62 13zM205 -16l1106 1448q8 6 26 6q5 0 9.5 -0.5t7 -1.5t4.5 -2t3 -2h1l-1104 -1448q-9 -4 -27 -4zM709 204.5q-1 3.5 0 8.5l8 16l473 469q9 4 27 4l22 -4l-96 -452h88 q4 -9 0 -23l-8 -24h-88l-43 -195q-7 -4 -23 -4l-25 4l43 195h-376l-1 1q0 1 -1 4.5zM788 246h308l82 383z" />
<glyph unicode="&#xbf;" horiz-adv-x="845" d="M-41 -127.5q-1 46.5 8 96.5q17 83 52.5 149t79.5 111t94 84.5t100.5 79.5t95 86.5t80.5 116t55 156.5q13 8 33 8q8 0 14.5 -2t9.5 -4l3 -2q-20 -96 -57 -172.5t-81 -125.5t-93 -90t-97.5 -78t-90.5 -77.5t-76 -100.5t-50 -135q-14 -51 -5.5 -98t33 -82.5t80 -56.5 t136.5 -21q77 0 151 13t109 26l35 13q22 -16 10 -52q-15 -7 -43 -17.5t-112.5 -28t-168.5 -17.5q-76 0 -134.5 17t-93 46.5t-55.5 70t-22 87zM551 973l18 86q16 6 49 6q15 0 27.5 -1.5t17.5 -3.5l5 -1l-19 -86q-18 -6 -51 -6q-15 0 -26.5 1.5t-15.5 3.5z" />
<glyph unicode="&#xc0;" horiz-adv-x="1298" d="M-90 6l889 1462q10 7 30 7q8 0 14.5 -1.5t9.5 -3.5l3 -2l270 -1462q-12 -6 -39 -6q-10 0 -17.5 1.5t-9.5 2.5l-3 2l-82 440h-723l-268 -440q-16 -6 -43 -6q-12 0 -19.5 1.5t-9.5 2.5zM291 512h672l-142 780q-4 23 -6 42.5t-2 27.5v8h-4q-14 -29 -43 -78zM705 1851 q31 35 73 35l174 -307q-20 -26 -55 -29z" />
<glyph unicode="&#xc1;" horiz-adv-x="1298" d="M-90 6l889 1462q10 7 30 7q8 0 14.5 -1.5t9.5 -3.5l3 -2l270 -1462q-12 -6 -39 -6q-8 0 -15.5 1.5t-11.5 2.5l-3 2l-82 440h-723l-268 -440q-12 -6 -43 -6q-12 0 -19.5 1.5t-9.5 2.5zM291 512h672l-142 780q-4 23 -6 42.5t-2 27.5v8h-4q-14 -29 -43 -78zM764 1581 l305 307q45 0 57 -35l-319 -301q-36 3 -43 29z" />
<glyph unicode="&#xc2;" horiz-adv-x="1298" d="M-90 6l889 1462q10 7 30 7q8 0 14.5 -1.5t9.5 -3.5l3 -2l270 -1462q-12 -6 -39 -6q-10 0 -17.5 1.5t-9.5 2.5l-3 2l-82 440h-723l-268 -440q-16 -6 -43 -6q-12 0 -19.5 1.5t-9.5 2.5zM291 512h672l-142 780q-4 23 -6 42.5t-2 27.5v8h-4q-14 -29 -43 -78zM580 1622 l299 207h53l207 -207q-14 -36 -37 -41l-209 184l-283 -186q-30 13 -30 43z" />
<glyph unicode="&#xc3;" horiz-adv-x="1298" d="M-90 6l889 1462q10 7 30 7q8 0 14.5 -1.5t9.5 -3.5l3 -2l270 -1462q-12 -6 -39 -6q-8 0 -15.5 1.5t-11.5 2.5l-3 2l-82 440h-723l-268 -440q-12 -6 -43 -6q-12 0 -19.5 1.5t-9.5 2.5zM291 512h672l-142 780q-4 23 -6 42.5t-2 27.5v8h-4q-14 -29 -43 -78zM610 1620 q2 4 6 10t18.5 21.5t31.5 27.5t45 21.5t59 9.5q46 0 108.5 -37t100.5 -37q25 0 48 15t33 30l11 15q37 4 49 -23q-5 -13 -14 -26t-26.5 -30.5t-47 -28.5t-65.5 -11q-47 0 -112 37t-103 37q-25 0 -48.5 -15.5t-33.5 -31.5l-11 -15q-16 -1 -30 9t-19 22z" />
<glyph unicode="&#xc4;" horiz-adv-x="1298" d="M-90 6l889 1462q10 7 30 7q8 0 14.5 -1.5t9.5 -3.5l3 -2l270 -1462q-12 -6 -39 -6q-8 0 -15.5 1.5t-11.5 2.5l-3 2l-82 440h-723l-268 -440q-12 -6 -43 -6q-12 0 -19.5 1.5t-9.5 2.5zM291 512h672l-142 780q-4 23 -6 42.5t-2 27.5v8h-4q-14 -29 -43 -78zM657 1583l19 86 q18 6 51 6q15 0 26.5 -1.5t16.5 -3.5l4 -1l-18 -86q-16 -6 -49 -6q-15 0 -27.5 1.5t-17.5 3.5zM946 1583l19 86q18 6 51 6q15 0 26.5 -1.5t15.5 -3.5l5 -1l-19 -86q-16 -6 -49 -6q-15 0 -27 1.5t-17 3.5z" />
<glyph unicode="&#xc5;" horiz-adv-x="1298" d="M-90 6l864 1421q-77 14 -115.5 69.5t-23.5 143.5q19 100 96 156.5t170 56.5q94 0 154 -56.5t41 -156.5q-17 -91 -81 -147.5t-151 -67.5l262 -1419q-12 -6 -39 -6q-10 0 -17.5 1.5t-9.5 2.5l-3 2l-82 440h-723l-268 -440q-16 -6 -43 -6q-12 0 -19.5 1.5t-9.5 2.5zM291 512 h672l-142 780q-4 23 -6 42.5t-2 27.5v8h-4q-14 -29 -43 -78zM700 1640q-13 -65 19 -111t110 -46q80 0 134 46.5t67 110.5q14 64 -20 109t-115 45q-79 0 -130.5 -45t-64.5 -109z" />
<glyph unicode="&#xc6;" horiz-adv-x="1732" d="M-100 6l1198 1469h686q5 -12 0 -32.5t-15 -33.5h-602l-133 -629h500q10 -34 -14 -65h-500l-137 -649h622q5 -13 0.5 -33t-14.5 -33h-692l94 420h-578l-338 -414q-18 -6 -40 -6q-28 0 -37 6zM367 485h538l191 891z" />
<glyph unicode="&#xc7;" horiz-adv-x="1130" d="M174 748q82 378 253.5 562.5t442.5 184.5q99 0 180.5 -16.5t113.5 -32.5l32 -16q2 -15 -10 -31q-5 -8 -11.5 -14.5t-10.5 -8.5l-3 -2q-12 6 -35 16t-99 26t-159 16q-473 0 -622 -697q-33 -158 -36.5 -277.5t19.5 -197.5t73 -126.5t115.5 -68.5t155.5 -20t175 14t125 29 l40 14q11 -4 15 -22q2 -9 1.5 -16.5t-1.5 -11.5l-2 -5q-6 -3 -16.5 -7.5t-46.5 -16t-76.5 -20.5t-104.5 -16t-131 -7l-31 -82q115 0 162 -51.5t27 -137.5q-21 -97 -86 -139.5t-181 -42.5q-45 0 -87 11.5t-61 23.5l-20 12q9 29 31 45q62 -37 152 -37q159 0 188 137 q13 60 -18.5 90.5t-104.5 30.5h-63l-10 17l47 125q-475 37 -322 766z" />
<glyph unicode="&#xc8;" horiz-adv-x="1136" d="M88 0l313 1475h789q3 -12 0 -33q-7 -23 -14 -33h-719l-133 -629h616q3 -12 0 -30q-7 -22 -14 -33h-617l-137 -651h739q3 -14 0 -31q-6 -22 -14 -35h-809zM645 1851q31 35 74 35l174 -307q-20 -26 -55 -29z" />
<glyph unicode="&#xc9;" horiz-adv-x="1136" d="M88 0l313 1475h789q3 -12 0 -33q-7 -23 -14 -33h-719l-133 -629h616q3 -12 0 -30q-7 -22 -14 -33h-617l-137 -651h739q3 -14 0 -31q-6 -22 -14 -35h-809zM659 1583l306 307q44 0 59 -35l-322 -301q-33 3 -43 29z" />
<glyph unicode="&#xca;" horiz-adv-x="1136" d="M88 0l313 1475h789q3 -12 0 -33q-7 -23 -14 -33h-719l-133 -629h616q3 -12 0 -30q-7 -22 -14 -33h-617l-137 -651h739q3 -14 0 -31q-6 -22 -14 -35h-809zM537 1622l299 207h53l207 -207q-15 -36 -35 -41l-209 184l-283 -186q-32 14 -32 43z" />
<glyph unicode="&#xcb;" horiz-adv-x="1136" d="M88 0l313 1475h789q3 -12 0 -33q-7 -23 -14 -33h-719l-133 -629h616q3 -12 0 -30q-7 -22 -14 -33h-617l-137 -651h739q3 -14 0 -31q-6 -22 -14 -35h-809zM627 1593l18 86q18 7 51 7q15 0 26.5 -2t15.5 -4l5 -1l-18 -86q-16 -6 -49 -6q-15 0 -27 1.5t-17 3.5zM915 1593 l19 86q18 7 51 7q15 0 26.5 -2t16.5 -4l4 -1l-18 -86q-16 -6 -49 -6q-15 0 -27.5 1.5t-17.5 3.5z" />
<glyph unicode="&#xcc;" horiz-adv-x="512" d="M90 6l309 1462q12 7 37 7q11 0 19.5 -1.5t10.5 -3.5l3 -2l-309 -1462q-12 -6 -37 -6q-11 0 -19.5 1.5t-11.5 2.5zM324 1851q31 35 73 35l174 -307q-20 -26 -55 -29z" />
<glyph unicode="&#xcd;" horiz-adv-x="512" d="M90 6l309 1462q12 7 37 7q11 0 19.5 -1.5t10.5 -3.5l3 -2l-309 -1462q-12 -6 -37 -6q-11 0 -19.5 1.5t-11.5 2.5zM317 1583l306 307q44 0 59 -35l-322 -301q-33 3 -43 29z" />
<glyph unicode="&#xce;" horiz-adv-x="512" d="M90 6l309 1462q12 7 37 7q11 0 19.5 -1.5t10.5 -3.5l3 -2l-309 -1462q-12 -6 -37 -6q-11 0 -19.5 1.5t-11.5 2.5zM186 1622l299 207h54l206 -207q-14 -36 -38 -41l-205 184l-289 -186q-27 12 -27 43z" />
<glyph unicode="&#xcf;" horiz-adv-x="512" d="M90 6l309 1462q12 7 37 7q11 0 19.5 -1.5t10.5 -3.5l3 -2l-309 -1462q-12 -6 -37 -6q-11 0 -19.5 1.5t-11.5 2.5zM266 1583l19 86q18 6 51 6q15 0 26.5 -1.5t15.5 -3.5l5 -1l-18 -86q-17 -6 -50 -6q-15 0 -27 1.5t-17 3.5zM555 1583l18 86q19 6 52 6q15 0 26.5 -1.5 t16.5 -3.5l4 -1l-19 -86q-16 -6 -49 -6q-15 0 -27 1.5t-17 3.5z" />
<glyph unicode="&#xd0;" horiz-adv-x="1359" d="M70 700q-4 11 0 31q2 9 5 16.5t5 10.5l2 4h178l152 713h374q122 0 209.5 -22t151.5 -73.5t93 -136t27.5 -210.5t-38.5 -296q-45 -213 -109 -356t-155.5 -227t-202.5 -119t-264 -35h-400l150 700h-178zM182 66h310q135 0 233.5 30t183 104.5t144.5 206.5t102 330 q34 160 37 276t-21.5 192.5t-81 121.5t-131.5 63.5t-182 18.5h-309l-137 -647h356q4 -11 0 -31l-12 -31h-357z" />
<glyph unicode="&#xd1;" horiz-adv-x="1421" d="M90 6l309 1462q16 7 43 7q10 0 18.5 -1.5t11.5 -3.5l3 -2l483 -1187q18 -44 34 -90t23 -71l7 -24h4q12 99 43 246l242 1126q12 7 37 7q10 0 17.5 -1.5t10.5 -3.5l2 -2l-309 -1462q-14 -6 -41 -6q-10 0 -18.5 1.5t-11.5 2.5l-3 2l-487 1204q-20 49 -35 92t-19 62l-5 18h-5 q-8 -73 -49 -266l-237 -1110q-12 -6 -37 -6q-10 0 -18 1.5t-11 2.5zM686 1612q2 4 5 10.5t15.5 23.5t27.5 30t40.5 23.5t54.5 10.5q51 0 120 -37t106 -37q25 0 48 15t33 30l11 15q37 4 49 -23l-5 -10t-15.5 -22.5t-27.5 -29t-40.5 -22.5t-54.5 -10q-51 0 -120 36t-106 36 q-25 0 -48 -15.5t-33 -31.5l-11 -15q-17 -1 -30.5 5.5t-18.5 17.5z" />
<glyph unicode="&#xd2;" horiz-adv-x="1386" d="M174 737q159 758 698 758q262 0 365.5 -186t22.5 -572q-80 -387 -258 -572t-439 -185q-262 0 -365.5 185t-23.5 572zM248 737q-154 -696 321 -696q463 0 617 696q157 697 -314 697q-228 0 -385 -166t-239 -531zM793 1851q31 35 73 35l174 -307q-20 -26 -55 -29z" />
<glyph unicode="&#xd3;" horiz-adv-x="1386" d="M174 737q159 758 698 758q262 0 365.5 -186t22.5 -572q-80 -387 -258 -572t-439 -185q-262 0 -365.5 185t-23.5 572zM248 737q-154 -696 321 -696q463 0 617 696q157 697 -314 697q-228 0 -385 -166t-239 -531zM868 1583l306 307q44 0 59 -35l-322 -301q-33 3 -43 29z " />
<glyph unicode="&#xd4;" horiz-adv-x="1386" d="M174 737q159 758 698 758q262 0 365.5 -186t22.5 -572q-80 -387 -258 -572t-439 -185q-262 0 -365.5 185t-23.5 572zM248 737q-154 -696 321 -696q463 0 617 696q157 697 -314 697q-228 0 -385 -166t-239 -531zM629 1622l299 207h53l207 -207q-14 -35 -41 -41l-205 184 l-287 -186q-26 12 -26 43z" />
<glyph unicode="&#xd5;" horiz-adv-x="1386" d="M174 737q159 758 698 758q262 0 365.5 -186t22.5 -572q-80 -387 -258 -572t-439 -185q-262 0 -365.5 185t-23.5 572zM248 737q-154 -696 321 -696q463 0 617 696q157 697 -314 697q-228 0 -385 -166t-239 -531zM674 1632q2 4 5 10.5t15.5 24t27.5 30.5t40.5 23.5 t54.5 10.5q51 0 120 -37t105 -37q25 0 48.5 14.5t33.5 29.5l11 15q38 4 49 -22q-2 -4 -5 -10.5t-15.5 -23t-27.5 -29.5t-41 -23.5t-55 -10.5q-51 0 -119.5 37t-105.5 37q-25 0 -48 -15.5t-33 -30.5l-11 -15q-38 -3 -49 22z" />
<glyph unicode="&#xd6;" horiz-adv-x="1386" d="M174 737q159 758 698 758q262 0 365.5 -186t22.5 -572q-80 -387 -258 -572t-439 -185q-262 0 -365.5 185t-23.5 572zM248 737q-154 -696 321 -696q463 0 617 696q157 697 -314 697q-228 0 -385 -166t-239 -531zM700 1604l19 86q18 6 51 6q15 0 26.5 -1.5t15.5 -2.5l5 -2 l-18 -86q-16 -7 -49 -7q-15 0 -27.5 1.5t-17.5 3.5zM989 1604l19 86q18 6 51 6q15 0 26.5 -1.5t16.5 -2.5l4 -2l-19 -86q-16 -7 -49 -7q-15 0 -27 1.5t-17 3.5z" />
<glyph unicode="&#xd7;" horiz-adv-x="923" d="M117 356l284 236l-184 235q9 15 29 29q8 7 16.5 12.5t12.5 7.5l4 1l186 -234l285 234q14 -5 24 -21q5 -6 8.5 -13.5t4.5 -11.5l1 -4l-284 -235l184 -236q-8 -14 -26 -28q-8 -7 -16.5 -13t-12.5 -8l-4 -2l-187 236l-284 -236q-15 7 -25 23q-6 6 -10 13t-5 11z" />
<glyph unicode="&#xd8;" horiz-adv-x="1386" d="M41 -90l174 227q-124 188 -41 600q159 758 698 758q199 0 304 -102l131 170q16 8 41 8q9 0 15.5 -1t10.5 -2t6.5 -2t3.5 -2v-1l-167 -220q129 -186 43 -606q-80 -387 -258 -572t-439 -185q-204 0 -309 108l-137 -178q-14 -6 -41 -6q-11 0 -20 1.5t-12 2.5zM248 737 q-80 -368 14 -538l873 1138q-87 97 -263 97q-228 0 -385 -166t-239 -531zM297 145q88 -104 272 -104q463 0 617 696q85 373 -15 549z" />
<glyph unicode="&#xd9;" horiz-adv-x="1361" d="M174 455l215 1013q14 7 37 7q11 0 19.5 -1.5t10.5 -3.5l3 -2l-217 -1022q-40 -193 44 -299t275 -106q190 0 319 106.5t169 298.5l217 1022q14 7 34 7q10 0 18.5 -1.5t11.5 -3.5l3 -2l-215 -1013q-49 -227 -197 -351t-362 -124q-217 0 -324 126t-61 349zM727 1851 q29 33 68 33l174 -307q-18 -25 -49 -27z" />
<glyph unicode="&#xda;" horiz-adv-x="1361" d="M174 455l215 1013q14 7 37 7q11 0 19.5 -1.5t10.5 -3.5l3 -2l-217 -1022q-40 -193 44 -299t275 -106q190 0 319 106.5t169 298.5l217 1022q14 7 34 7q10 0 18.5 -1.5t11.5 -3.5l3 -2l-215 -1013q-49 -227 -197 -351t-362 -124q-217 0 -324 126t-61 349zM762 1583l305 307 q44 0 59 -35l-321 -301q-33 3 -43 29z" />
<glyph unicode="&#xdb;" horiz-adv-x="1361" d="M174 455l215 1013q14 7 37 7q11 0 19.5 -1.5t10.5 -3.5l3 -2l-217 -1022q-40 -193 44 -299t275 -106q190 0 319 106.5t169 298.5l217 1022q14 7 34 7q10 0 18.5 -1.5t11.5 -3.5l3 -2l-215 -1013q-49 -227 -198 -351t-363 -124q-217 0 -323 126t-60 349zM616 1622l299 207 h54l207 -207q-15 -36 -35 -41l-207 186l-285 -188q-33 15 -33 43z" />
<glyph unicode="&#xdc;" horiz-adv-x="1361" d="M174 455l215 1013q14 7 37 7q11 0 19.5 -1.5t10.5 -3.5l3 -2l-217 -1022q-40 -193 44 -299t275 -106q190 0 319 106.5t169 298.5l217 1022q14 7 34 7q10 0 18.5 -1.5t11.5 -3.5l3 -2l-215 -1013q-49 -227 -198 -351t-363 -124q-217 0 -323 126t-60 349zM686 1624l19 86 q18 6 51 6q15 0 26.5 -1.5t15.5 -2.5l5 -2l-19 -86q-18 -6 -51 -6q-15 0 -26.5 1.5t-16.5 2.5zM975 1624l18 86q18 6 51 6q15 0 27 -1.5t17 -2.5l4 -2l-19 -86q-18 -6 -51 -6q-15 0 -26.5 1.5t-15.5 2.5z" />
<glyph unicode="&#xdd;" horiz-adv-x="1241" d="M227 1468q16 7 45 7q11 0 20 -1.5t12 -3.5l3 -2l324 -768l663 768q12 7 45 7q15 0 25 -1.5t13 -3.5l3 -2l-727 -843l-131 -619q-14 -6 -37 -6q-10 0 -18 1.5t-11 2.5l-3 2l131 617zM680 1554l305 308q44 0 59 -35l-321 -301q-34 3 -43 28z" />
<glyph unicode="&#xde;" horiz-adv-x="1228" d="M90 6l309 1462q10 7 37 7q12 0 20 -1.5t10 -3.5l3 -2l-63 -299h415q187 0 273 -116t47 -303q-39 -186 -162 -292t-309 -106h-437l-73 -346q-10 -6 -37 -6q-8 0 -14 0.5t-9.5 1.5t-5.5 2t-3 2h-1zM246 418h428q153 0 257 90.5t138 249.5q34 164 -30.5 255t-217.5 91h-428z " />
<glyph unicode="&#xdf;" horiz-adv-x="1165" d="M57 6l240 1133q83 397 483 397q76 0 134 -19.5t91.5 -53.5t54 -78.5t20.5 -94.5t-9 -102q-11 -52 -32 -101t-37 -73l-15 -23q-11 0 -29 -2t-65 -14.5t-86 -32.5t-76 -63.5t-49 -100.5q-10 -47 5.5 -83.5t47 -60t71 -49t78 -50t68 -63t41 -87.5t-3.5 -125 q-27 -128 -126 -204t-255 -76q-63 0 -112 8.5t-66 17.5l-18 8q8 38 30 52q25 -9 77 -17t91 -8q136 0 212.5 64t97.5 161q13 62 0 109.5t-43.5 78t-69 56t-77.5 50t-69.5 53t-43.5 73t-1 102.5q14 69 54 121t86 77t90.5 40t73.5 18l30 3q33 61 49 141q8 45 9 87t-14.5 78.5 t-43 63.5t-74.5 42.5t-110 15.5q-175 0 -272 -86t-132 -250l-239 -1133q-10 -6 -35 -6q-7 0 -13 0.5t-9 1.5t-5 2t-3 2h-1z" />
<glyph unicode="&#xe0;" d="M92.5 275q-3.5 107 26.5 264q32 154 82.5 263.5t118 173.5t146 93t175.5 29q118 0 197.5 -56t101.5 -149l47 184q4 6 29 6q11 0 18 -1.5t8 -3.5l2 -1l-227 -1071q-11 -6 -29 -6q-8 0 -14 1.5t-8 2.5l-2 2l27 178q-141 -204 -388 -204q-93 0 -158 28.5t-107 94 t-45.5 172.5zM185.5 158.5q56.5 -117.5 238.5 -117.5q78 0 149.5 33.5t123 87.5t87 118t50.5 130l59 258q10 52 10 103.5t-18.5 99.5t-47.5 84.5t-77 58.5t-107 22q-188 0 -296.5 -116.5t-168.5 -380.5q-59 -263 -2.5 -380.5zM565 1540q29 33 66 33l174 -307 q-15 -25 -49 -27z" />
<glyph unicode="&#xe1;" d="M92.5 275q-3.5 107 26.5 264q32 154 82.5 263.5t118 173.5t146 93t175.5 29q118 0 197.5 -56t101.5 -149l47 184q4 6 29 6q11 0 18 -1.5t8 -3.5l2 -1l-227 -1071q-11 -6 -29 -6q-8 0 -14 1.5t-8 2.5l-2 2l27 178q-141 -204 -388 -204q-93 0 -158 28.5t-107 94 t-45.5 172.5zM185.5 158.5q56.5 -117.5 238.5 -117.5q78 0 149.5 33.5t123 87.5t87 118t50.5 130l59 258q10 52 10 103.5t-18.5 99.5t-47.5 84.5t-77 58.5t-107 22q-188 0 -296.5 -116.5t-168.5 -380.5q-59 -263 -2.5 -380.5zM557 1270l305 307q43 0 58 -35l-320 -301 q-36 3 -43 29z" />
<glyph unicode="&#xe2;" d="M92.5 275q-3.5 107 26.5 264q32 154 82.5 263.5t118 173.5t146 93t175.5 29q118 0 197.5 -56t101.5 -149l47 184q4 6 29 6q11 0 18 -1.5t8 -3.5l2 -1l-227 -1071q-11 -6 -29 -6q-8 0 -14 1.5t-8 2.5l-2 2l27 178q-141 -204 -388 -204q-93 0 -158 28.5t-107 94 t-45.5 172.5zM185.5 158.5q56.5 -117.5 238.5 -117.5q78 0 149.5 33.5t123 87.5t87 118t50.5 130l59 258q10 52 10 103.5t-18.5 99.5t-47.5 84.5t-77 58.5t-107 22q-188 0 -296.5 -116.5t-168.5 -380.5q-59 -263 -2.5 -380.5zM438 1274l295 203h51l201 -203q-6 -12 -8.5 -18 t-10 -12.5t-16.5 -8.5l-198 180l-283 -182q-31 14 -31 41z" />
<glyph unicode="&#xe3;" d="M92.5 275q-3.5 107 26.5 264q32 154 82.5 263.5t118 173.5t146 93t175.5 29q118 0 197.5 -56t101.5 -149l47 184q4 6 29 6q11 0 18 -1.5t8 -3.5l2 -1l-227 -1071q-11 -6 -29 -6q-8 0 -14 1.5t-8 2.5l-2 2l27 178q-141 -204 -388 -204q-93 0 -158 28.5t-107 94 t-45.5 172.5zM185.5 158.5q56.5 -117.5 238.5 -117.5q78 0 149.5 33.5t123 87.5t87 118t50.5 130l59 258q10 52 10 103.5t-18.5 99.5t-47.5 84.5t-77 58.5t-107 22q-188 0 -296.5 -116.5t-168.5 -380.5q-59 -263 -2.5 -380.5zM494 1343q2 4 5 10.5t16 24t28 30.5t41 23.5 t55 10.5q51 0 119 -37t104 -37q25 0 48 15t34 29l10 15q39 4 50 -22q-2 -4 -5.5 -10t-16.5 -22.5t-29 -29t-42 -22.5t-55 -10q-52 0 -118 35.5t-103 35.5q-25 0 -48 -15t-33 -31l-11 -15q-38 -3 -49 22z" />
<glyph unicode="&#xe4;" d="M92.5 275q-3.5 107 26.5 264q32 154 82.5 263.5t118 173.5t146 93t175.5 29q118 0 197.5 -56t101.5 -149l47 184q4 6 29 6q11 0 18 -1.5t8 -3.5l2 -1l-227 -1071q-11 -6 -29 -6q-8 0 -14 1.5t-8 2.5l-2 2l27 178q-141 -204 -388 -204q-93 0 -158 28.5t-107 94 t-45.5 172.5zM185.5 158.5q56.5 -117.5 238.5 -117.5q78 0 149.5 33.5t123 87.5t87 118t50.5 130l59 258q10 52 10 103.5t-18.5 99.5t-47.5 84.5t-77 58.5t-107 22q-188 0 -296.5 -116.5t-168.5 -380.5q-59 -263 -2.5 -380.5zM522 1309l19 86q16 6 49 6q15 0 27 -1.5 t17 -3.5l5 -1l-18 -86q-19 -6 -52 -6q-15 0 -26.5 1.5t-16.5 3.5zM811 1309l18 86q17 6 50 6q15 0 27 -1.5t17 -3.5l5 -1l-19 -86q-18 -6 -51 -6q-15 0 -26.5 1.5t-15.5 3.5z" />
<glyph unicode="&#xe5;" d="M92.5 275q-3.5 107 26.5 264q32 154 82.5 263.5t118 173.5t146 93t175.5 29q118 0 197.5 -56t101.5 -149l47 184q4 6 29 6q11 0 18 -1.5t8 -3.5l2 -1l-227 -1071q-11 -6 -29 -6q-8 0 -14 1.5t-8 2.5l-2 2l27 178q-141 -204 -388 -204q-93 0 -158 28.5t-107 94 t-45.5 172.5zM185.5 158.5q56.5 -117.5 238.5 -117.5q78 0 149.5 33.5t123 87.5t87 118t50.5 130l59 258q10 52 10 103.5t-18.5 99.5t-47.5 84.5t-77 58.5t-107 22q-188 0 -296.5 -116.5t-168.5 -380.5q-59 -263 -2.5 -380.5zM506 1425q19 99 97.5 156t172.5 57 q60 0 107.5 -23t72.5 -73t11 -117q-21 -101 -99.5 -159t-177.5 -58q-100 0 -152.5 58t-31.5 159zM571 1425q-15 -65 16.5 -111t110.5 -46q80 0 134 46.5t69 110.5t-19 109t-114 45q-78 0 -130 -45t-67 -109z" />
<glyph unicode="&#xe6;" horiz-adv-x="1646" d="M92.5 275q-3.5 107 26.5 264q32 152 84 263t118.5 174t139.5 92.5t157 29.5q85 0 140.5 -25.5t84 -68.5t46.5 -113l41 186q3 6 28 6l29 -6l-43 -196q70 106 161 161.5t193 55.5q165 0 228 -104t28 -273q-10 -48 -26 -94.5t-26 -68.5l-11 -23h-621q-43 -250 8.5 -370 t204.5 -120q71 0 135 20t92 40l29 20q28 -16 25 -51q-5 -4 -13.5 -10t-38.5 -22.5t-62.5 -29t-84 -22.5t-104.5 -10q-222 0 -260 221l-41 -195q-11 -6 -29 -6q-8 0 -14 1.5t-8 2.5l-2 2l32 174q-65 -101 -148.5 -150.5t-209.5 -49.5q-84 0 -144 28.5t-100.5 94t-44 172.5z M188 539q-55 -259 1 -378.5t221 -119.5q63 0 119 22t97 58.5t73.5 85t53 99.5t31.5 104l56 258q11 49 12 99t-11 99t-37.5 86.5t-71.5 60.5t-109 23q-166 0 -273 -119.5t-162 -377.5zM885 596h563q19 39 39 135q16 61 11 116t-24.5 97t-68 67t-119.5 25q-135 0 -241 -106.5 t-160 -333.5z" />
<glyph unicode="&#xe7;" horiz-adv-x="905" d="M119 557q56 269 194.5 405t343.5 136q69 0 126 -12t79 -24l23 -11q-7 -40 -37 -58q-8 5 -22.5 11.5t-64 18t-104.5 11.5q-187 0 -303.5 -124t-169.5 -371q-53 -248 14.5 -371t258.5 -123q58 0 113.5 12.5t81.5 24.5l26 12q20 -14 16 -55q-11 -7 -32.5 -16.5t-91 -26 t-142.5 -16.5h-16l-37 -91q108 0 156.5 -52t29.5 -138q-20 -97 -84.5 -142.5t-179.5 -45.5q-45 0 -87 11.5t-62 23.5l-19 12q9 29 31 45q61 -37 151 -37q159 0 189 143q13 60 -19 91.5t-104 31.5h-64l-10 16l53 138q-164 25 -226.5 171.5t-10.5 399.5z" />
<glyph unicode="&#xe8;" horiz-adv-x="1036" d="M113 545q61 281 198.5 417t329.5 136q178 0 255 -105t42 -272q-12 -56 -28.5 -107t-27.5 -74l-10 -24h-694q-44 -248 20 -358.5t244 -110.5q76 0 146 20.5t102 40.5l33 21q28 -18 25 -57q-5 -4 -14 -10t-41 -22t-67.5 -28t-92 -22t-115.5 -10q-202 0 -282.5 145 t-22.5 420zM190 578h639q25 57 45 153q16 61 8.5 116t-31.5 97t-78.5 67t-133.5 25q-161 0 -277.5 -113t-171.5 -345zM543 1528q29 33 71 33l172 -301q-18 -24 -55 -27z" />
<glyph unicode="&#xe9;" horiz-adv-x="1036" d="M113 545q61 281 198.5 417t329.5 136q178 0 255 -105t42 -272q-12 -56 -28.5 -107t-27.5 -74l-10 -24h-694q-44 -248 20 -358.5t244 -110.5q76 0 146 20.5t102 40.5l33 21q28 -18 25 -57q-5 -4 -14 -10t-41 -22t-67.5 -28t-92 -22t-115.5 -10q-202 0 -282.5 145 t-22.5 420zM190 578h639q25 57 45 153q16 61 8.5 116t-31.5 97t-78.5 67t-133.5 25q-161 0 -277.5 -113t-171.5 -345zM541 1260l297 301q43 0 57 -33l-313 -295q-35 3 -41 27z" />
<glyph unicode="&#xea;" horiz-adv-x="1036" d="M113 545q61 281 198.5 417t329.5 136q178 0 255 -105t42 -272q-12 -56 -28.5 -107t-27.5 -74l-10 -24h-694q-44 -248 20 -358.5t244 -110.5q76 0 146 20.5t102 40.5l33 21q28 -18 25 -57q-5 -4 -14 -10t-41 -22t-67.5 -28t-92 -22t-115.5 -10q-202 0 -282.5 145 t-22.5 420zM190 578h639q25 57 45 153q16 61 8.5 116t-31.5 97t-78.5 67t-133.5 25q-161 0 -277.5 -113t-171.5 -345zM414 1274l291 203h51l205 -203q-5 -11 -8.5 -17t-10.5 -12t-16 -8l-203 180l-279 -182q-30 13 -30 39z" />
<glyph unicode="&#xeb;" horiz-adv-x="1036" d="M113 545q61 281 198.5 417t329.5 136q178 0 255 -105t42 -272q-12 -56 -28.5 -107t-27.5 -74l-10 -24h-694q-44 -248 20 -358.5t244 -110.5q76 0 146 20.5t102 40.5l33 21q28 -18 25 -57q-5 -4 -14 -10t-41 -22t-67.5 -28t-92 -22t-115.5 -10q-202 0 -282.5 145 t-22.5 420zM190 578h639q25 57 45 153q16 61 8.5 116t-31.5 97t-78.5 67t-133.5 25q-161 0 -277.5 -113t-171.5 -345zM489 1300l17 86q18 7 51 7q15 0 26.5 -1.5t16.5 -3.5l4 -2l-16 -86q-18 -6 -51 -6q-15 0 -27 1.5t-16 2.5zM778 1300l17 86q18 7 51 7q15 0 26.5 -1.5 t15.5 -3.5l5 -2l-16 -86q-19 -6 -52 -6q-15 0 -26.5 1.5t-16.5 2.5z" />
<glyph unicode="&#xec;" horiz-adv-x="454" d="M63 6l226 1065q10 6 35 6q11 0 18.5 -1.5t9.5 -3.5l2 -1l-225 -1065q-10 -6 -35 -6q-7 0 -13 0.5t-9 1.5t-5 2t-3 2h-1zM219 1554q29 33 66 33l174 -307q-19 -25 -47 -27z" />
<glyph unicode="&#xed;" horiz-adv-x="454" d="M63 6l226 1065q10 6 35 6q11 0 18.5 -1.5t9.5 -3.5l2 -1l-225 -1065q-10 -6 -35 -6q-7 0 -13 0.5t-9 1.5t-5 2t-3 2h-1zM246 1278l303 307q44 0 59 -35l-319 -301q-36 3 -43 29z" />
<glyph unicode="&#xee;" horiz-adv-x="454" d="M63 6l226 1065q10 6 35 6q11 0 18.5 -1.5t9.5 -3.5l2 -1l-225 -1065q-10 -6 -35 -6q-7 0 -13 0.5t-9 1.5t-5 2t-3 2h-1zM94 1274l291 203h51l209 -203q-15 -34 -41 -39l-203 180l-278 -182q-29 13 -29 41z" />
<glyph unicode="&#xef;" horiz-adv-x="454" d="M63 6l226 1065q10 6 35 6q11 0 18.5 -1.5t9.5 -3.5l2 -1l-225 -1065q-10 -6 -35 -6q-7 0 -13 0.5t-9 1.5t-5 2t-3 2h-1zM160 1239l16 86q18 6 51 6q15 0 26.5 -1.5t16.5 -3.5l4 -1l-16 -86q-18 -6 -51 -6q-15 0 -26.5 1.5t-16.5 3.5zM449 1239l16 86q18 6 51 6 q15 0 26.5 -1.5t15.5 -3.5l5 -1l-16 -86q-18 -6 -51 -6q-15 0 -26.5 1.5t-15.5 3.5z" />
<glyph unicode="&#xf0;" d="M111 516q112 537 503 537q141 0 232 -63t106 -175q9 177 -31.5 294t-132.5 210l-272 -152q-28 15 -24 54l251 139q-109 87 -268 121q0 33 25 55q185 -38 307 -139l170 94q28 -16 22 -53l-147 -82q237 -247 135 -727q-38 -183 -92 -309.5t-125.5 -200.5t-154.5 -106.5 t-189 -32.5q-203 0 -288.5 130t-26.5 406zM156 328.5q-1 -81.5 17.5 -136t55.5 -89t86 -49.5t113 -15q81 0 148.5 24.5t127.5 78.5t106 148t75 226q19 90 22 162.5t-10 124t-37.5 88.5t-62.5 58.5t-82.5 31.5t-100.5 10q-81 0 -145.5 -24t-120.5 -78t-98 -147t-70 -226 q-23 -106 -24 -187.5z" />
<glyph unicode="&#xf1;" horiz-adv-x="1126" d="M57 6l226 1065q11 6 34 6q10 0 18 -1.5t11 -3.5l2 -1l-39 -180q181 207 422 207q145 0 213 -82.5t37 -220.5l-166 -789q-12 -6 -35 -6q-10 0 -17.5 1.5t-10.5 2.5l-2 2l163 772q28 134 -22 197t-180 63q-111 0 -230.5 -73t-195.5 -195l-162 -764q-12 -6 -35 -6 q-10 0 -18 1.5t-10 2.5zM463 1266q2 4 5 10.5t16 23t28 29t41 23t55 10.5q52 0 119 -36t104 -36q25 0 48.5 15t34.5 30l10 15q37 4 49 -23l-5 -10t-15.5 -22.5t-27.5 -29t-41 -22.5t-55 -10q-51 0 -120 36t-105 36q-25 0 -48 -15.5t-34 -31.5l-10 -15q-17 -1 -30.5 5.5 t-18.5 17.5z" />
<glyph unicode="&#xf2;" horiz-adv-x="1099" d="M117 539q58 295 189 427t335 132q205 0 285 -132.5t22 -426.5q-58 -295 -189 -427t-335 -132q-205 0 -285 132.5t-22 426.5zM159.5 341q-2.5 -85 14 -142t52.5 -92.5t85 -50.5t115 -15q83 0 149.5 24.5t125.5 81t103.5 154.5t74.5 238q24 113 26 198t-14.5 141.5 t-52.5 92t-84.5 50.5t-114.5 15q-83 0 -150 -24.5t-126 -80.5t-103.5 -154t-73.5 -238q-24 -113 -26.5 -198zM479 1538q27 39 68 39l192 -287q-15 -27 -51 -33z" />
<glyph unicode="&#xf3;" horiz-adv-x="1099" d="M117 539q58 295 189 427t335 132q205 0 285 -132.5t22 -426.5q-58 -295 -189 -427t-335 -132q-205 0 -285 132.5t-22 426.5zM159.5 341q-2.5 -85 14 -142t52.5 -92.5t85 -50.5t115 -15q83 0 149.5 24.5t125.5 81t103.5 154.5t74.5 238q24 113 26 198t-14.5 141.5 t-52.5 92t-84.5 50.5t-114.5 15q-83 0 -150 -24.5t-126 -80.5t-103.5 -154t-73.5 -238q-24 -113 -26.5 -198zM532 1278l304 307q44 0 59 -35l-320 -301q-36 3 -43 29z" />
<glyph unicode="&#xf4;" horiz-adv-x="1099" d="M117 539q58 295 189 427t335 132q205 0 285 -132.5t22 -426.5q-58 -295 -189 -427t-335 -132q-205 0 -285 132.5t-22 426.5zM159.5 341q-2.5 -85 14 -142t52.5 -92.5t85 -50.5t115 -15q83 0 149.5 24.5t125.5 81t103.5 154.5t74.5 238q24 113 26 198t-14.5 141.5 t-52.5 92t-84.5 50.5t-114.5 15q-83 0 -150 -24.5t-126 -80.5t-103.5 -154t-73.5 -238q-24 -113 -26.5 -198zM414 1274l291 203h51l205 -203q-6 -12 -8.5 -18t-10 -12.5t-16.5 -8.5l-203 180l-279 -182q-30 13 -30 41z" />
<glyph unicode="&#xf5;" horiz-adv-x="1099" d="M117 539q58 295 189 427t335 132q205 0 285 -132.5t22 -426.5q-58 -295 -189 -427t-335 -132q-205 0 -285 132.5t-22 426.5zM159.5 341q-2.5 -85 14 -142t52.5 -92.5t85 -50.5t115 -15q83 0 149.5 24.5t125.5 81t103.5 154.5t74.5 238q24 113 26 198t-14.5 141.5 t-52.5 92t-84.5 50.5t-114.5 15q-83 0 -150 -24.5t-126 -80.5t-103.5 -154t-73.5 -238q-24 -113 -26.5 -198zM440 1315q2 4 5.5 10.5t17 23.5t29.5 30t42.5 23.5t55.5 10.5q52 0 117 -37t102 -37q25 0 48 15t33 30l11 15q37 4 49 -23q-2 -4 -5.5 -10.5t-16.5 -23t-28.5 -29 t-41.5 -23t-55 -10.5q-41 0 -80 18.5t-74 37t-67 18.5q-25 0 -48.5 -15.5t-33.5 -30.5l-11 -16q-17 -1 -30.5 5.5t-18.5 17.5z" />
<glyph unicode="&#xf6;" horiz-adv-x="1099" d="M117 539q58 295 189 427t335 132q205 0 285 -132.5t22 -426.5q-58 -295 -189 -427t-335 -132q-205 0 -285 132.5t-22 426.5zM159.5 341q-2.5 -85 14 -142t52.5 -92.5t85 -50.5t115 -15q83 0 149.5 24.5t125.5 81t103.5 154.5t74.5 238q24 113 26 198t-14.5 141.5 t-52.5 92t-84.5 50.5t-114.5 15q-83 0 -150 -24.5t-126 -80.5t-103.5 -154t-73.5 -238q-24 -113 -26.5 -198zM492 1300l16 86q18 7 51 7q15 0 26.5 -1.5t16.5 -3.5l4 -2l-16 -86q-18 -6 -51 -6q-15 0 -26.5 1.5t-16.5 2.5zM780 1300l17 86q18 7 51 7q15 0 26.5 -1.5 t15.5 -3.5l5 -2l-16 -86q-19 -6 -52 -6q-15 0 -26.5 1.5t-16.5 2.5z" />
<glyph unicode="&#xf7;" horiz-adv-x="1153" d="M170 563q-4 8 2 31q2 10 5 18t5 10l2 3h781q4 -8 0 -31q-3 -10 -6.5 -18t-6.5 -10l-2 -3h-780zM440 221l19 86q16 6 49 6q15 0 27 -1.5t17 -3.5l5 -1l-18 -86q-19 -6 -52 -6q-15 0 -26.5 1.5t-16.5 3.5zM580 881l18 86q18 6 51 6q15 0 26.5 -1.5t16.5 -3.5l4 -1l-18 -86 q-16 -7 -49 -7q-15 0 -27 2t-17 4z" />
<glyph unicode="&#xf8;" horiz-adv-x="1095" d="M8 -88l139 182q-91 136 -32 445q58 295 189 427t335 132q145 0 229 -66l101 131q10 6 41 6q12 0 20 -1.5t10 -3.5l2 -1l-133 -174q99 -138 37 -450q-58 -295 -189 -427t-335 -132q-153 0 -234 69l-106 -137q-10 -6 -41 -6q-8 0 -14 0.5t-9.5 1.5t-5.5 2t-3 2h-1zM184 539 q-59 -266 6 -389l637 831q-63 57 -190 57q-83 0 -150 -25t-126 -81.5t-103.5 -154.5t-73.5 -238zM227 102q66 -63 197 -63q83 0 149.5 25t125.5 81.5t103.5 155t74.5 238.5q58 271 -11 395z" />
<glyph unicode="&#xf9;" horiz-adv-x="1128" d="M109 293l167 778q12 6 35 6q10 0 18 -1.5t11 -3.5l2 -1l-164 -772q-57 -262 207 -262q109 0 225.5 72.5t196.5 197.5l162 764q12 6 35 6q10 0 17.5 -1.5t10.5 -3.5l2 -1l-225 -1065q-12 -6 -35 -6q-10 0 -18 1.5t-10 2.5l-3 2l37 180q-183 -206 -409 -206 q-147 0 -220.5 84t-41.5 229zM561 1538q26 33 66 33l161 -281q-20 -23 -51 -26z" />
<glyph unicode="&#xfa;" horiz-adv-x="1128" d="M109 293l167 778q12 6 35 6q10 0 18 -1.5t11 -3.5l2 -1l-164 -772q-57 -262 207 -262q109 0 225.5 72.5t196.5 197.5l162 764q12 6 35 6q10 0 17.5 -1.5t10.5 -3.5l2 -1l-225 -1065q-12 -6 -35 -6q-10 0 -18 1.5t-10 2.5l-3 2l37 180q-183 -206 -409 -206 q-147 0 -220.5 84t-41.5 229zM563 1278l303 307q45 0 60 -35l-320 -301q-36 3 -43 29z" />
<glyph unicode="&#xfb;" horiz-adv-x="1128" d="M109 293l167 778q12 6 35 6q10 0 18 -1.5t11 -3.5l2 -1l-164 -772q-57 -262 207 -262q109 0 225.5 72.5t196.5 197.5l162 764q12 6 35 6q10 0 17.5 -1.5t10.5 -3.5l2 -1l-225 -1065q-12 -6 -35 -6q-10 0 -18 1.5t-10 2.5l-3 2l37 180q-183 -206 -409 -206 q-147 0 -220.5 84t-41.5 229zM424 1274l291 203h51l205 -203q-15 -34 -41 -39l-197 180l-284 -182q-25 11 -25 41z" />
<glyph unicode="&#xfc;" horiz-adv-x="1128" d="M109 293l167 778q12 6 35 6q10 0 18 -1.5t11 -3.5l2 -1l-164 -772q-57 -262 207 -262q109 0 225.5 72.5t196.5 197.5l162 764q12 6 35 6q10 0 17.5 -1.5t10.5 -3.5l2 -1l-225 -1065q-12 -6 -35 -6q-10 0 -18 1.5t-10 2.5l-3 2l37 180q-183 -206 -409 -206 q-147 0 -220.5 84t-41.5 229zM496 1300l16 86q18 7 51 7q15 0 26.5 -1.5t16.5 -3.5l4 -2l-16 -86q-18 -6 -51 -6q-15 0 -26.5 1.5t-16.5 2.5zM784 1300l17 86q18 7 51 7q15 0 26.5 -1.5t15.5 -3.5l5 -2l-16 -86q-19 -6 -52 -6q-15 0 -26.5 1.5t-16.5 2.5z" />
<glyph unicode="&#xfd;" horiz-adv-x="1124" d="M14 -463q3 38 35 55q96 -38 227 -38q89 0 158 21t129.5 71t105 140.5t72.5 221.5l37 178q-183 -206 -416 -206q-145 0 -215 82.5t-41 220.5l168 788q12 6 35 6q10 0 18 -1.5t11 -3.5l2 -1l-164 -772q-56 -260 209 -260q109 0 224.5 72t195.5 196l162 764q11 6 34 6 q10 0 18 -1.5t11 -3.5l2 -1l-227 -1065q-62 -264 -188.5 -391t-354.5 -127q-72 0 -134 12t-88 24zM590 1257l305 308q44 0 59 -35l-321 -301q-34 3 -43 28z" />
<glyph unicode="&#xfe;" d="M-53 -506l434 2036q8 6 33 6q11 0 19 -1.5t11 -2.5l2 -2l-135 -631q71 97 160 148t215 51q77 0 135.5 -18t101.5 -59t64.5 -104.5t20.5 -159t-27 -218.5q-33 -154 -81.5 -263t-114 -173.5t-142.5 -93.5t-174 -29q-250 0 -311 198l-146 -684q-7 -6 -32 -6q-11 0 -19.5 1.5 t-10.5 2.5zM198.5 306.5q-0.5 -51.5 18 -99.5t47.5 -85t78.5 -59t112.5 -22q188 0 294 117t162 381q57 263 1 380t-244 117q-77 0 -147 -32t-120 -84t-85 -114t-50 -126l-59 -270q-8 -52 -8.5 -103.5z" />
<glyph unicode="&#xff;" horiz-adv-x="1124" d="M14 -463q3 38 35 55q96 -38 227 -38q89 0 158 21t129.5 71t105 140.5t72.5 221.5l37 178q-183 -206 -416 -206q-145 0 -215 82.5t-41 220.5l168 788q12 6 35 6q10 0 18 -1.5t11 -3.5l2 -1l-164 -772q-56 -260 209 -260q109 0 224.5 72t195.5 196l162 764q11 6 34 6 q10 0 18 -1.5t11 -3.5l2 -1l-227 -1065q-62 -264 -188.5 -391t-354.5 -127q-72 0 -134 12t-88 24zM514 1319l18 86q17 6 50 6q15 0 27 -1.5t17 -3.5l5 -1l-19 -86q-18 -6 -51 -6q-15 0 -26.5 1.5t-16.5 3.5zM803 1319l18 86q16 6 49 6q15 0 27.5 -1.5t17.5 -3.5l5 -1 l-19 -86q-18 -6 -51 -6q-15 0 -26.5 1.5t-15.5 3.5z" />
<glyph unicode="&#x152;" horiz-adv-x="1691" d="M172 737q84 387 270 572.5t455 185.5q77 0 170 -20h674q3 -12 0 -33q-6 -21 -15 -33h-616l-133 -629h514q3 -12 0 -30q-7 -22 -14 -33h-514l-138 -651h637q3 -14 0 -31q-6 -22 -14 -35h-696q-82 -20 -177 -20q-270 0 -377.5 185.5t-25.5 571.5zM211 416.5 q2 -132.5 49 -216t127.5 -121.5t200.5 -38q85 0 168 27l284 1341q-73 25 -155 25q-488 0 -639 -697q-37 -188 -35 -320.5z" />
<glyph unicode="&#x153;" horiz-adv-x="1691" d="M87 280.5q-2 106.5 28 258.5q63 295 193 427t329 132q141 0 211.5 -68t79.5 -219q147 287 405 287q157 0 226 -105.5t34 -271.5q-12 -56 -28.5 -107t-26.5 -74l-10 -24h-631q-44 -251 6.5 -361t212.5 -110q67 0 134 20t100 40l34 20q28 -16 25 -51q-5 -4 -14 -10 t-40.5 -22.5t-65.5 -29t-88.5 -22.5t-110.5 -10q-258 0 -279 286q-74 -152 -172 -219t-240 -67q-98 0 -164.5 30t-106 97t-41.5 173.5zM155 300q-1 -96 31.5 -154t85.5 -82.5t134 -24.5q161 0 265 116t167 388q44 181 28.5 291t-72.5 157t-161 47q-81 0 -147 -25t-124.5 -81 t-103.5 -154.5t-74 -238.5q-28 -143 -29 -239zM909 578h578q25 57 45 153q16 61 10 116t-27 97t-71 67t-123 25q-143 0 -250 -113t-162 -345z" />
<glyph unicode="&#x178;" horiz-adv-x="1241" d="M227 1468q16 7 45 7q10 0 18.5 -1.5t11.5 -3.5l3 -2l324 -768l663 768q12 7 47 7q15 0 25 -1.5t13 -3.5l3 -2l-727 -843l-131 -619q-14 -6 -37 -6q-10 0 -18 1.5t-11 2.5l-3 2l131 617zM627 1606l18 86q18 6 51 6q15 0 26.5 -1.5t15.5 -2.5l5 -2l-18 -86q-16 -7 -49 -7 q-15 0 -27 1.5t-17 3.5zM915 1606l19 86q18 6 51 6q15 0 26.5 -1.5t16.5 -2.5l4 -2l-18 -86q-16 -7 -49 -7q-15 0 -27.5 1.5t-17.5 3.5z" />
<glyph unicode="&#x2c6;" horiz-adv-x="811" d="M66 1192l296 207h54l209 -207q-14 -35 -43 -41l-207 184l-285 -186q-27 12 -24 43z" />
<glyph unicode="&#x2dc;" horiz-adv-x="669" d="M76 1298q2 4 7 10.5t21 24t33.5 30.5t45.5 23.5t57 10.5q41 0 75.5 -18.5t64.5 -37t62 -18.5q25 0 48.5 14.5t33.5 29.5l11 15q38 3 49 -22q-2 -4 -7 -10.5t-21 -23t-33.5 -29t-45.5 -23t-57 -10.5q-52 0 -109 36.5t-94 36.5q-25 0 -48.5 -15.5t-34.5 -30.5l-11 -15 q-17 -1 -30.5 5t-16.5 17z" />
<glyph unicode="&#x2000;" horiz-adv-x="945" />
<glyph unicode="&#x2001;" horiz-adv-x="1890" />
<glyph unicode="&#x2002;" horiz-adv-x="945" />
<glyph unicode="&#x2003;" horiz-adv-x="1890" />
<glyph unicode="&#x2004;" horiz-adv-x="630" />
<glyph unicode="&#x2005;" horiz-adv-x="472" />
<glyph unicode="&#x2006;" horiz-adv-x="315" />
<glyph unicode="&#x2007;" horiz-adv-x="315" />
<glyph unicode="&#x2008;" horiz-adv-x="236" />
<glyph unicode="&#x2009;" horiz-adv-x="378" />
<glyph unicode="&#x200a;" horiz-adv-x="105" />
<glyph unicode="&#x2010;" horiz-adv-x="727" d="M162 563q-4 8 2 31q2 10 5 18t5 10l2 3h369q4 -8 0 -31q-3 -10 -6.5 -18t-6.5 -10l-2 -3h-368z" />
<glyph unicode="&#x2011;" horiz-adv-x="727" d="M162 563q-4 8 2 31q2 10 5 18t5 10l2 3h369q4 -8 0 -31q-3 -10 -6.5 -18t-6.5 -10l-2 -3h-368z" />
<glyph unicode="&#x2012;" horiz-adv-x="727" d="M162 563q-4 8 2 31q2 10 5 18t5 10l2 3h369q4 -8 0 -31q-3 -10 -6.5 -18t-6.5 -10l-2 -3h-368z" />
<glyph unicode="&#x2013;" horiz-adv-x="1144" d="M166 563q-4 8 2 31q2 10 5 18t5 10l2 3h778q4 -8 0 -31q-3 -10 -6.5 -18t-5.5 -10l-2 -3h-778z" />
<glyph unicode="&#x2014;" horiz-adv-x="1656" d="M166 563q-4 8 2 31q2 10 5 18t5 10l2 3h1290q4 -8 0 -31q-3 -10 -6.5 -18t-5.5 -10l-2 -3h-1290z" />
<glyph unicode="&#x2018;" horiz-adv-x="413" d="M264 1190l15 65q9 40 27 77.5t37 62t37.5 43.5t29.5 28l12 9l27 -25q-3 -2 -8 -6.5t-19 -20.5t-27 -34t-27.5 -47t-23.5 -60l37 -6l-19 -86q-16 -6 -49 -6q-15 0 -27 1.5t-17 2.5z" />
<glyph unicode="&#x2019;" horiz-adv-x="407" d="M260 1208q8 6 20.5 18.5t40.5 56.5t44 93q-11 0 -20.5 1.5t-12.5 2.5l-4 2l18 86q18 7 51 7q15 0 26.5 -1.5t16.5 -3.5l4 -2l-12 -65q-9 -40 -27 -77.5t-37 -62t-37.5 -43.5t-30.5 -28l-11 -8z" />
<glyph unicode="&#x201a;" horiz-adv-x="399" d="M-39 -168q3 2 7.5 6.5t18 20.5t25.5 34t26.5 47t24.5 60q-11 0 -19.5 1.5t-11.5 2.5l-3 2l18 86q16 6 49 6q15 0 27 -1.5t17 -2.5l5 -2l-14 -65q-9 -40 -27 -77.5t-37 -62t-37.5 -43.5t-29.5 -28l-12 -9z" />
<glyph unicode="&#x201c;" horiz-adv-x="618" d="M264 1190l15 65q9 40 27 77.5t37 62t37.5 43.5t29.5 28l12 9l27 -25q-3 -2 -8 -6.5t-19 -20.5t-27 -34t-27.5 -47t-23.5 -60l37 -6l-19 -86q-16 -6 -49 -6q-15 0 -27 1.5t-17 2.5zM469 1190l14 65q9 40 27 77.5t37.5 62t37.5 43.5t30 28l12 9l26 -25q-8 -6 -20.5 -18.5 t-40.5 -56.5t-43 -93l37 -6l-19 -86q-16 -6 -49 -6q-15 0 -27 1.5t-17 2.5z" />
<glyph unicode="&#x201d;" horiz-adv-x="612" d="M260 1208q8 6 20.5 18.5t40.5 56.5t44 93q-11 0 -20.5 1.5t-12.5 2.5l-4 2l18 86q18 7 51 7q15 0 26.5 -1.5t16.5 -3.5l4 -2l-12 -65q-9 -40 -27 -77.5t-37 -62t-37.5 -43.5t-30.5 -28l-11 -8zM465 1208q3 2 8 6.5t18.5 20.5t26 34t27 47t24.5 60q-11 0 -20.5 1.5 t-12.5 2.5l-4 2l19 86q18 7 51 7q15 0 26.5 -1.5t15.5 -3.5l5 -2l-12 -65q-9 -40 -27 -77.5t-37 -62t-37.5 -43.5t-29.5 -28l-12 -8z" />
<glyph unicode="&#x201e;" horiz-adv-x="610" d="M-39 -168q3 2 7.5 6.5t18 20.5t25.5 34t26.5 47t24.5 60q-11 0 -19.5 1.5t-11.5 2.5l-3 2l18 86q16 6 49 6q15 0 27 -1.5t17 -2.5l5 -2l-14 -65q-9 -40 -27 -77.5t-37 -62t-37.5 -43.5t-29.5 -28l-12 -9zM172 -168q3 2 7.5 6.5t18 20.5t25.5 34t26.5 47t24.5 60 q-11 0 -19.5 1.5t-11.5 2.5l-3 2l18 86q16 6 49 6q15 0 27 -1.5t17 -2.5l5 -2l-14 -65q-9 -40 -27 -77.5t-37 -62t-37.5 -43.5t-30.5 -28l-11 -9z" />
<glyph unicode="&#x2022;" horiz-adv-x="571" d="M211 578q6 29 27.5 46t48.5 17q28 0 42.5 -17t8.5 -46q-6 -28 -27 -45t-49 -17q-27 0 -42 17.5t-9 44.5z" />
<glyph unicode="&#x2026;" horiz-adv-x="1024" d="M33 6l18 86q16 6 49 6q15 0 27.5 -1.5t17.5 -2.5l5 -2l-19 -86q-18 -6 -51 -6q-15 0 -26.5 1.5t-15.5 2.5zM336 6l18 86q16 6 49 6q15 0 27.5 -1.5t17.5 -2.5l5 -2l-19 -86q-18 -6 -51 -6q-15 0 -26.5 1.5t-16.5 2.5zM639 6l18 86q17 6 50 6q15 0 27 -1.5t17 -2.5l5 -2 l-19 -86q-18 -6 -51 -6q-15 0 -26.5 1.5t-15.5 2.5z" />
<glyph unicode="&#x202f;" horiz-adv-x="378" />
<glyph unicode="&#x2039;" horiz-adv-x="698" d="M100 524q-4 11 0 29q2 8 5 15.5t5 10.5l3 3l522 460q10 -6 14.5 -21t1.5 -30l-491 -438l305 -440q-10 -39 -39 -52z" />
<glyph unicode="&#x203a;" horiz-adv-x="694" d="M14 113l490 440l-303 438q8 38 37 51l325 -460q4 -11 0 -29q-2 -8 -5 -15.5t-5 -10.5l-2 -3l-522 -463q-25 14 -15 52z" />
<glyph unicode="&#x205f;" horiz-adv-x="472" />
<glyph unicode="&#x20ac;" horiz-adv-x="1189" d="M92 498q-6 8 4 28q4 10 8.5 17.5t7.5 9.5l3 2h153q11 73 23 131q18 84 33 137h-164q-4 9 4 29q4 10 8.5 17.5t7.5 9.5l2 2h160q85 257 227.5 384.5t350.5 127.5q92 0 163 -15.5t96 -31.5l25 -15q2 -12 -10 -28q-5 -7 -11 -12.5t-9 -6.5l-3 -2q-10 6 -29.5 14.5t-85 22.5 t-138.5 14q-174 0 -299.5 -103.5t-206.5 -348.5h571q4 -6 -4 -29q-4 -10 -8.5 -17.5t-6.5 -9.5l-3 -2h-568q-2 -9 -14.5 -59.5t-18.5 -79.5q-17 -80 -22 -129h493q4 -4 -4 -29q-4 -10 -8.5 -17t-6.5 -9l-3 -2h-479q-14 -129 0.5 -219t58 -141.5t105.5 -74t149 -22.5 q79 0 153.5 12.5t109.5 25.5l34 13q10 -4 12 -20q2 -9 1.5 -15.5t-1.5 -10.5l-2 -3q-13 -7 -38 -17.5t-110 -28t-181 -17.5q-211 0 -300 127.5t-61 390.5h-168z" />
<glyph unicode="&#x2122;" horiz-adv-x="1286" d="M254 1432q-7 25 8 43h416q9 -19 -8 -43h-185l-116 -541q-7 -6 -23 -6q-6 0 -11 1.5t-7 3.5l-2 1l116 541h-188zM668 891l123 577q8 7 26 7q8 0 13.5 -1.5t7.5 -3.5l2 -2l110 -378l277 378q8 7 26 7q8 0 13.5 -1.5t7.5 -3.5l2 -2l-123 -577q-6 -6 -18 -6q-6 0 -11.5 1.5 t-7.5 3.5l-2 1l111 514l-262 -356q-9 -7 -25 -7q-7 0 -12 2t-6 4l-2 1l-103 356l-110 -514q-7 -6 -19 -6q-5 0 -9.5 1.5t-6.5 3.5z" />
<glyph unicode="&#x25fc;" horiz-adv-x="1075" d="M0 0v1075h1075v-1075h-1075z" />
</font>
</defs>
</svg>
