<?xml version="1.0" standalone="no"?>
<!DOCTYPE svg PUBLIC "-//W3C//DTD SVG 1.1//EN" "http://www.w3.org/Graphics/SVG/1.1/DTD/svg11.dtd" >
<svg xmlns="http://www.w3.org/2000/svg">
<metadata></metadata>
<defs>
<font id="globerheavy_italic" horiz-adv-x="1120" >
<font-face units-per-em="2048" ascent="1536" descent="-512" />
<missing-glyph horiz-adv-x="378" />
<glyph unicode="&#xfb01;" horiz-adv-x="1253" d="M45 16l170 801h-131q-4 53 14 139q8 36 19 70t17 50l7 16h131l25 108q35 166 162 251t364 85q144 0 271.5 -21t183.5 -42l55 -21q-39 -136 -153 -242q-18 5 -49.5 13t-126.5 21t-185 13q-76 0 -111 -21t-46 -71l-17 -73h430q53 0 98.5 -4t64.5 -8l19 -5l-225 -1059 q-69 -16 -188 -16q-55 0 -100.5 4t-63.5 8l-18 4l169 801h-243l-170 -801q-70 -16 -191 -16q-53 0 -98.5 4t-64.5 8z" />
<glyph unicode="&#xfb02;" horiz-adv-x="1251" d="M43 16l170 801h-131q0 60 16 135q15 77 41 140h131l25 108q35 166 162 251t364 85q118 0 246.5 -21t198.5 -42l69 -21l-305 -1436q-69 -16 -188 -16q-55 0 -100.5 4t-63.5 8l-19 4l263 1237q-16 0 -50.5 2t-54.5 2q-76 0 -111.5 -21t-46.5 -71l-16 -73h129 q3 -55 -14 -138q-16 -79 -43 -137h-129l-170 -801q-70 -16 -191 -16q-53 0 -98.5 4t-64.5 8z" />
<glyph horiz-adv-x="0" />
<glyph horiz-adv-x="682" />
<glyph unicode=" "  horiz-adv-x="378" />
<glyph unicode="&#x09;" horiz-adv-x="378" />
<glyph unicode="&#xa0;" horiz-adv-x="378" />
<glyph unicode="!" horiz-adv-x="632" d="M2 16l74 349q65 16 188 16q53 0 99 -4t66 -8l20 -4l-74 -349q-72 -16 -191 -16q-54 0 -99.5 4t-64.5 8zM123 467l168 991q74 17 205 17q56 0 105.5 -4.5t70.5 -8.5l22 -4l-254 -991q-59 -18 -159 -18q-44 0 -83.5 4.5t-57.5 8.5z" />
<glyph unicode="&#x22;" horiz-adv-x="837" d="M184 981l52 477q63 17 172 17q46 0 87.5 -4.5t59.5 -8.5l18 -4l-149 -477q-47 -14 -125 -14q-34 0 -62.5 3.5t-40.5 7.5zM559 981l49 477q63 17 174 17q46 0 87.5 -4.5t60.5 -8.5l18 -4l-151 -477q-47 -14 -123 -14q-34 0 -62.5 3.5t-40.5 7.5z" />
<glyph unicode="#" horiz-adv-x="1419" d="M-23 201q-5 49 13 137q9 41 20 75.5t18 48.5l7 15h231l150 301h-146q0 71 13 140q17 76 45 137h223l100 202q71 19 146 19q85 0 147 -19l-100 -202h164l100 202q74 19 154 19t139 -19l-101 -202h144q6 -59 -8 -129q-14 -63 -50 -148h-221l-151 -301h137q10 -47 -10 -137 q-8 -38 -19.5 -73t-19.5 -51l-8 -15h-213l-90 -183q-65 -18 -146 -18q-85 0 -147 18l90 183h-164l-90 -183q-68 -18 -152 -18q-82 0 -141 18l90 183h-154zM557 477h166l149 301h-165z" />
<glyph unicode="$" horiz-adv-x="1185" d="M-47 98q12 64 53 140q16 34 38 65.5t36 46.5l14 15q20 -6 55 -16t135.5 -26t192.5 -16q217 0 238 96q7 33 -17.5 57.5t-69.5 39.5t-102.5 32t-118 35t-115.5 49t-94 74t-54.5 109t3.5 155q34 163 156.5 269.5t317.5 138.5l32 237q60 17 152 17q44 0 79.5 -4t49.5 -8 l14 -5l-67 -229q84 -6 163 -22t116 -28l38 -13q-10 -60 -49 -136q-18 -33 -41 -63.5t-37 -44.5l-14 -14q-148 34 -283 34q-233 0 -254 -96q-6 -30 19 -53t71 -37.5t105 -32t120 -36.5t116.5 -51.5t94.5 -77.5t54 -113.5t-4 -159.5q-38 -179 -167 -285.5t-339 -134.5 l-35 -254q-53 -16 -147 -16q-41 0 -78 4t-54 8l-16 4l72 250q-102 8 -196.5 32t-138.5 44z" />
<glyph unicode="%" horiz-adv-x="1585" d="M131 -6l1094 1429q47 15 141 15q41 0 75 -4t48 -8l14 -3l-1093 -1429q-48 -14 -142 -14q-41 0 -75 3.5t-48 6.5zM141 1061q75 360 391 360q319 0 242 -360q-77 -359 -393 -359q-317 0 -240 359zM378.5 950q-0.5 -37 9.5 -47t34 -10q23 0 36 10t27.5 46.5t30.5 111.5 q16 74 17.5 111.5t-7.5 48t-32 10.5q-24 0 -38 -10.5t-29.5 -48t-31.5 -111.5t-16.5 -111zM844 338q75 360 391 360q319 0 242 -360q-76 -358 -394 -358q-154 0 -216.5 85.5t-22.5 272.5zM1081 227q-1 -37 9 -47t34 -10q23 0 36.5 10t28 47t30.5 111t17 111.5t-8 48 t-32 10.5q-35 0 -55 -31t-43 -139q-16 -74 -17 -111z" />
<glyph unicode="&#x26;" horiz-adv-x="1345" d="M-18 334q13 64 45.5 124.5t71.5 105.5t88.5 86.5t90.5 68t84 49.5q-31 161 -4 295q35 162 153 256t314 94q172 0 254.5 -72t53.5 -206q-15 -68 -53 -129.5t-95.5 -113.5t-115.5 -91.5t-134 -81.5q59 -115 160 -219q77 101 109 157q75 -5 135.5 -40t85.5 -89 q-48 -75 -142 -176q88 -58 199 -106q-33 -87 -104 -155.5t-146 -92.5q-127 50 -227 121q-216 -139 -453 -139q-95 0 -169.5 21t-127.5 62.5t-72.5 111t-0.5 159.5zM326 381q-13 -69 22 -107t103 -38q80 0 170 40q-116 125 -183 271q-93 -81 -112 -166zM666 930 q65 43 102.5 90t50.5 108q8 34 -5 55t-46 21q-76 0 -98 -106q-16 -81 -4 -168z" />
<glyph unicode="'" horiz-adv-x="462" d="M184 981l49 477q64 17 175 17q46 0 87.5 -4.5t59.5 -8.5l18 -4l-151 -477q-47 -14 -123 -14q-34 0 -62.5 3.5t-40.5 7.5z" />
<glyph unicode="(" horiz-adv-x="612" d="M24 337q6 163 39 318t94.5 316t125.5 279.5t123.5 214.5t97.5 146l37 50q67 4 137 -35q31 -19 52.5 -43t27.5 -39l6 -14q-11 -13 -29 -38.5t-69 -111.5t-96.5 -180.5t-97.5 -242.5t-85 -302t-44.5 -300.5t-4.5 -246t18 -176.5t23 -114l12 -37q-3 -6 -11 -17t-40 -37 t-74 -44q-40 -16 -78 -24.5t-56 -8.5h-17q-7 18 -18 52t-34 141.5t-34 219t-5 274.5z" />
<glyph unicode=")" horiz-adv-x="614" d="M-139 -219q11 13 29 38.5t69 111t96.5 180t97.5 242.5t85 302t44.5 300.5t4.5 246t-18.5 177t-23.5 114.5l-12 37q4 6 12.5 16t41.5 35.5t73 44.5q38 17 75.5 26t56.5 9h18q7 -18 17.5 -52t33.5 -141.5t34.5 -219t5 -275t-39.5 -318.5t-94.5 -316t-125.5 -279 t-123 -214.5t-96 -145.5l-38 -50q-65 -4 -139 33q-35 18 -56 42.5t-25 40.5z" />
<glyph unicode="*" horiz-adv-x="659" d="M176 1208q23 105 86 162l129 -41l31 141q91 28 172 -2l-29 -139l150 41q36 -56 12 -162l-141 -41l59 -125q-76 -72 -164 -96l-59 119l-109 -119q-39 11 -72 38t-51 58l109 121z" />
<glyph unicode="+" horiz-adv-x="917" d="M31 465q-4 47 14 129q7 36 17.5 68.5t17.5 46.5l6 14h264l56 264q51 14 133 14q36 0 67.5 -3.5t44.5 -7.5l13 -3l-56 -264h264q6 -47 -10 -129q-8 -36 -19 -68.5t-19 -46.5l-7 -14h-264l-55 -264q-51 -17 -133 -17q-36 0 -67.5 4t-44.5 8l-13 5l55 264h-264z" />
<glyph unicode="," horiz-adv-x="544" d="M-51 -231q10 10 26 28.5t51 78.5t52 124q-31 2 -61 6t-44 7l-14 3l74 349q71 16 188 16q49 0 94.5 -4t66.5 -8l21 -4l-57 -267q-15 -74 -50 -145t-74 -119t-76 -85.5t-61 -54.5l-24 -18z" />
<glyph unicode="-" horiz-adv-x="698" d="M74 465q-4 47 14 129q7 36 17.5 68.5t16.5 46.5l7 14h479q6 -47 -10 -129q-8 -36 -19 -68.5t-19 -46.5l-7 -14h-479z" />
<glyph unicode="." horiz-adv-x="544" d="M-41 16l74 349q65 16 188 16q53 0 98.5 -4t64.5 -8l19 -4l-73 -349q-70 -16 -189 -16q-55 0 -100.5 4t-63.5 8z" />
<glyph unicode="/" horiz-adv-x="1130" d="M-115 -78l1020 1596q84 18 193 18q50 0 97 -4.5t69 -9.5l22 -4l-1020 -1596q-83 -18 -192 -18q-50 0 -97.5 4.5t-69.5 9.5z" />
<glyph unicode="0" horiz-adv-x="1286" d="M86 696q81 377 261 554t466 177q287 0 393.5 -175.5t24.5 -555.5q-80 -380 -261 -555.5t-468 -175.5t-391.5 175.5t-24.5 555.5zM454 474q-9 -86 3 -133t37.5 -64t70.5 -17q61 0 102 33t80 129t76 274q38 180 40.5 276t-24 128.5t-87.5 32.5t-101.5 -32.5t-80.5 -129 t-78 -275.5q-29 -136 -38 -222z" />
<glyph unicode="1" horiz-adv-x="886" d="M105 961q-12 78 14 169q128 36 223.5 98t181.5 161q80 18 197 18q51 0 98 -4.5t69 -8.5l21 -5l-291 -1371q-77 -18 -194 -18q-51 0 -98 4.5t-68 9.5l-22 4l170 799q15 73 30 135q-116 -80 -274 -114q-45 45 -57 123z" />
<glyph unicode="2" d="M-53 0q-6 76 12 166q13 63 38 120.5t52.5 101t71.5 88.5t77.5 74t90 67.5t89 58t93.5 55.5q146 87 204.5 145t72.5 128q13 64 -27 95t-131 31q-65 0 -140.5 -15t-117.5 -29l-43 -15q-44 38 -57.5 110.5t8.5 147.5q8 4 23.5 10.5t65 23.5t102 30t131 23.5t155.5 10.5 q242 0 353 -106t69 -309q-35 -165 -141 -272.5t-318 -215.5q-27 -14 -70 -32.5t-71.5 -31.5t-59 -30.5t-51 -39.5t-29.5 -48q-6 -24 -4 -33h553q13 -74 -4 -155q-20 -92 -61 -154h-936z" />
<glyph unicode="3" horiz-adv-x="1097" d="M-74 55q15 68 57.5 142t90.5 114q141 -39 286 -39q121 0 176.5 38.5t73.5 123.5q18 82 -15 121t-136 39h-201q-8 60 8.5 139.5t48.5 136.5h201q149 0 176 134q15 72 -21.5 104.5t-129.5 32.5q-68 0 -133.5 -9.5t-97.5 -19.5l-31 -10q-43 37 -61 108t-1 140 q22 9 60.5 21.5t150 34t213.5 21.5q244 0 359.5 -96t76.5 -282q-49 -226 -254 -310q106 -43 146 -133t12 -221q-21 -98 -69.5 -172t-128.5 -127t-196.5 -79.5t-269.5 -26.5q-71 0 -137.5 7.5t-110.5 19t-78 22.5t-49 19z" />
<glyph unicode="4" horiz-adv-x="1218" d="M-23 295q-9 51 11 145q8 42 21 78.5t21 51.5l9 16l754 803q75 18 194 18q53 0 98 -4.5t63 -8.5l19 -5l-170 -803h156q6 -52 -12 -146q-9 -42 -21 -78t-20 -52l-8 -15h-156l-59 -277q-68 -18 -177 -18q-51 0 -94.5 4.5t-61.5 9.5l-18 4l60 277h-609zM391 586h256l74 350z " />
<glyph unicode="5" horiz-adv-x="1089" d="M-76 53q32 158 133 256q143 -37 299 -37q117 0 176.5 40.5t77.5 121.5q19 88 -21.5 129t-164.5 41q-131 0 -291 -10l172 813h819q6 -66 -11.5 -148.5t-51.5 -148.5h-457l-47 -227q59 0 143 -15q371 -55 291 -434q-47 -221 -221 -337.5t-455 -116.5q-71 0 -137 7.5 t-110 18t-78 21.5t-50 19z" />
<glyph unicode="6" horiz-adv-x="1136" d="M47 532q87 405 357 628t683 247q6 -64 -11 -146t-50 -141q-166 -15 -279 -73.5t-184 -167.5q90 16 146 16q96 0 169 -27.5t123 -85t63 -146.5t-11 -212q-48 -224 -205.5 -334t-403.5 -110q-245 0 -351 136.5t-46 415.5zM406.5 356q6.5 -61 29.5 -84.5t66 -23.5 q63 0 107.5 43.5t64.5 132.5q22 108 -4.5 153.5t-96.5 45.5q-58 0 -131 -25q-11 -40 -18 -74q-24 -107 -17.5 -168z" />
<glyph unicode="7" horiz-adv-x="1042" d="M35 12q27 128 71.5 240.5t97.5 196.5t111.5 157.5t119.5 137t115 119t105 119t84 124.5h-585q-6 64 14 154q8 39 20 76t20 54l9 17h944q0 -83 -22 -176q-22 -97 -68 -185.5t-104 -159.5t-124.5 -141.5t-133.5 -146t-126.5 -158t-109 -193t-76.5 -235.5q-59 -12 -182 -12 q-127 0 -180 12z" />
<glyph unicode="8" horiz-adv-x="1193" d="M6 348q46 217 307 352q-163 138 -118 349q36 171 188 274.5t381 103.5q223 0 329.5 -94.5t71.5 -261.5q-39 -189 -237 -315q94 -67 136 -159t13 -228q-40 -189 -206.5 -296.5t-424.5 -107.5q-243 0 -361 99.5t-79 283.5zM369 369q-12 -62 23 -97.5t120 -35.5 q77 0 127.5 35.5t62.5 95.5q6 32 -3.5 59.5t-38 52.5t-56 42t-74.5 42q-137 -85 -161 -194zM561 1061q-11 -56 26.5 -95t117.5 -81q96 70 116 164q12 58 -16.5 89t-93.5 31q-60 0 -99.5 -29.5t-50.5 -78.5z" />
<glyph unicode="9" horiz-adv-x="1134" d="M82 0q-6 67 11 147.5t50 139.5q164 13 275 71t186 168q-60 -14 -143 -14q-96 0 -169 27t-123 83.5t-63 145t11 211.5q46 224 204.5 336t403.5 112q246 0 351.5 -135.5t45.5 -414.5q-87 -404 -357.5 -628.5t-682.5 -248.5zM498 979q-24 -109 2 -153t96 -44q62 0 129 23 q18 57 23 80q17 80 19 135t-11.5 84.5t-34.5 42t-53 12.5q-62 0 -107 -45t-63 -135z" />
<glyph unicode=":" horiz-adv-x="559" d="M-35 16l74 349q65 16 188 16q53 0 98.5 -4t64.5 -8l20 -4l-74 -349q-70 -16 -189 -16q-54 0 -99.5 4t-63.5 8zM113 713l73 348q68 16 191 16q53 0 98 -4t63 -8l19 -4l-74 -348q-69 -17 -188 -17q-54 0 -99.5 4t-63.5 8z" />
<glyph unicode=";" horiz-adv-x="563" d="M-45 -231q10 10 26 28.5t51 78.5t52 124q-30 2 -60 6t-44 7l-15 3l74 349q69 16 188 16q50 0 96.5 -4t67.5 -8l21 -4l-58 -267q-15 -74 -50 -145t-74 -119t-75.5 -85.5t-60.5 -54.5l-24 -18zM113 713l73 348q68 16 191 16q53 0 98.5 -4t64.5 -8l19 -4l-74 -348 q-71 -17 -190 -17q-54 0 -99.5 4t-63.5 8z" />
<glyph unicode="&#x3c;" horiz-adv-x="851" d="M27 455q-2 57 16 141q8 38 18.5 72t17.5 48l7 15l745 293q6 -43 -12 -131q-8 -37 -19 -70t-18 -47l-6 -14l-432 -170l361 -168q3 -43 -13 -129q-8 -38 -18.5 -71.5t-17.5 -47.5l-7 -14z" />
<glyph unicode="=" horiz-adv-x="1044" d="M39 258q-1 59 14.5 133t40.5 127h815q3 -53 -13.5 -128t-41.5 -132h-815zM125 668q0 61 15.5 134.5t39.5 125.5h815q4 -53 -12 -128t-43 -132h-815z" />
<glyph unicode="&#x3e;" horiz-adv-x="851" d="M6 162q-4 47 14 133q7 38 17.5 70.5t16.5 45.5l7 13l431 168l-359 170q-4 47 14 131q8 39 18 72t17 46l6 13l623 -293q4 -49 -14 -135q-8 -37 -19 -72.5t-18 -51.5l-8 -17z" />
<glyph unicode="?" horiz-adv-x="950" d="M76 16l74 349q63 16 186 16q53 0 99 -4t65 -8l20 -4l-74 -349q-71 -16 -190 -16q-54 0 -99 4t-63 8zM191 1194.5q-14 69.5 8 144.5q19 8 52.5 20.5t136.5 33t204 20.5q58 0 107.5 -5t96 -16.5t81.5 -30.5t64 -47t43 -65t18 -85.5t-11 -108.5q-16 -75 -48 -134 t-71.5 -96.5t-84 -67.5t-87.5 -55t-80 -51t-64.5 -63t-37.5 -84q-56 -25 -160 -25q-44 0 -82 6.5t-54 12.5l-15 6q18 83 47.5 147t63.5 102.5t70.5 67.5t71.5 49.5t65 40t51.5 48t29.5 65.5q13 60 -19 84.5t-110 24.5q-53 0 -108.5 -12t-84.5 -24l-30 -12q-49 40 -63 109.5z " />
<glyph unicode="@" horiz-adv-x="1857" d="M40 206.5q-36 154.5 5 364.5q42 193 143 351t243.5 263.5t320.5 162.5t374 57q389 0 564 -212t98 -572q-44 -212 -184.5 -329.5t-321.5 -117.5q-222 0 -278 113q-96 -113 -287 -113q-152 0 -215.5 92t-18.5 303q45 213 147.5 305.5t254.5 92.5q139 0 205 -60l10 49 q47 21 151 21q45 0 79.5 -5.5t46.5 -10.5l12 -5l-99 -462q-21 -107 56 -107q60 0 100 52.5t67 178.5q57 266 -55.5 415t-380.5 149q-286 0 -477 -157.5t-254 -453.5q-21 -111 -19 -197.5t31 -152t72.5 -111t106.5 -74t132.5 -41.5t149.5 -13q289 0 529 124q35 -18 53 -65.5 t12 -97.5q-329 -193 -672 -193q-173 0 -315.5 49.5t-246 151t-139.5 256zM783.5 415.5q15.5 -40.5 82.5 -40.5q106 0 140 133l28 137q19 121 -86 121q-68 0 -100 -40t-57 -157q-23 -113 -7.5 -153.5z" />
<glyph unicode="A" horiz-adv-x="1400" d="M-127 18l754 1438q92 19 256 19q76 0 137 -4.5t84 -9.5l24 -5l142 -1438q-72 -18 -205 -18q-54 0 -99.5 4.5t-63.5 9.5l-19 4l-25 271h-473l-139 -271q-74 -18 -193 -18q-51 0 -96 4.5t-65 9.5zM522 557h312l-29 328q-5 60 -5 122.5t2 94.5l3 33h-8q-33 -117 -103 -250z " />
<glyph unicode="B" horiz-adv-x="1298" d="M-12 0l313 1475h627q216 1 310 -105q66 -74 67 -192q0 -51 -13 -111q-45 -207 -233 -307q148 -73 147 -241q0 -45 -10 -97q-45 -213 -192 -317.5t-381 -104.5h-635zM434 272h172q83 0 133 40t70 128q6 32 6 58q-1 46 -21 71q-32 39 -116 39h-172zM565 885h166 q67 0 112 42t60 117q7 30 7 55q0 39 -16 64q-26 41 -95 41h-166z" />
<glyph unicode="C" horiz-adv-x="1175" d="M88 737q79 372 294.5 568t539.5 196q73 0 139 -8.5t108 -21t73 -25t44 -20.5l14 -9q-31 -157 -165 -258q-95 41 -220 41q-106 0 -181 -41t-134 -145t-96 -279q-23 -106 -26 -185q-1 -14 -1 -28q-1 -62 11 -104q14 -52 46 -83.5t77 -45t108 -13.5q59 0 122.5 11.5 t97.5 22.5l34 12q46 -46 62 -117q7 -32 7 -66q0 -40 -10 -82l-18 -9t-53.5 -20.5t-88 -25.5t-121.5 -20t-155 -9q-322 0 -454 196q-83 123 -83 315q0 114 29 253z" />
<glyph unicode="D" horiz-adv-x="1374" d="M-12 0l313 1475h530q131 0 228 -26t166.5 -81.5t102.5 -141.5q34 -86 36 -208q0 -8 1 -16q0 -116 -34 -265q-83 -389 -282.5 -563t-530.5 -174h-530zM440 295h138q90 0 149 34.5t108.5 132.5t86.5 275q29 135 33 223q1 13 1 24q0 70 -20 112q-24 48 -64 66t-108 18h-137z " />
<glyph unicode="E" horiz-adv-x="1155" d="M-12 0l313 1475h946q2 -18 2 -38q0 -44 -10 -100q-22 -97 -53 -151h-557l-64 -299h455q1 -19 1 -37q0 -54 -9 -102q-15 -69 -51 -144h-455l-68 -315h578q2 -19 2 -39q0 -49 -12 -103q-20 -96 -52 -147h-966z" />
<glyph unicode="F" horiz-adv-x="1118" d="M-8 18l309 1457h926q2 -17 2 -37q0 -47 -12 -107q-17 -84 -52 -145h-536l-70 -326h475q4 -18 4 -41q0 -42 -12 -100q-22 -97 -53 -148h-475l-117 -553q-84 -18 -201 -18q-51 0 -98 4.5t-68 9.5z" />
<glyph unicode="G" horiz-adv-x="1310" d="M96 770q156 725 850 725q81 0 154.5 -9.5t120.5 -23t82 -27t50 -23.5l15 -9q-42 -158 -164 -262q-14 6 -39 15t-98 24.5t-141 15.5q-82 0 -148 -22.5t-124 -74.5t-101.5 -143t-71.5 -221q-25 -132 -27 -219q-1 -7 -1 -13q0 -78 29 -126q30 -52 80.5 -73t131.5 -21l105 2 l63 305h-203q-3 16 -3 36q0 44 14 107q9 43 21.5 79.5t20.5 51.5l9 15h555l-172 -807q-7 -4 -21 -10t-61 -22t-98.5 -28t-133 -22t-165.5 -10q-336 0 -472 208q-86 132 -86 330q0 115 29 252z" />
<glyph unicode="H" horiz-adv-x="1402" d="M-10 18l305 1438q82 19 197 19q52 0 100 -4.5t70 -9.5l22 -5l-117 -547h385l117 547q86 19 199 19q51 0 99 -4.5t71 -9.5l22 -5l-305 -1438q-84 -18 -199 -18q-55 0 -103 4.5t-69 9.5l-20 4l123 584h-385l-123 -584q-86 -18 -199 -18q-55 0 -102.5 4.5t-67.5 9.5z" />
<glyph unicode="I" horiz-adv-x="626" d="M-10 18l305 1438q82 19 197 19q52 0 100 -4.5t70 -9.5l22 -5l-305 -1438q-86 -18 -199 -18q-55 0 -102.5 4.5t-67.5 9.5z" />
<glyph unicode="J" horiz-adv-x="980" d="M-100 55q12 71 55 149t100 126q84 -35 178 -35q91 0 143.5 42t74.5 146l206 973q76 19 199 19q52 0 99.5 -4.5t69.5 -9.5l22 -5l-222 -1042q-44 -210 -193 -322t-376 -112q-67 0 -128.5 7.5t-101 19t-69.5 22.5t-43 19z" />
<glyph unicode="K" horiz-adv-x="1316" d="M-10 18l305 1438q78 19 201 19q55 0 102 -4.5t66 -9.5l20 -5l-117 -551h66l405 551q101 19 215 19q101 0 205 -19l-520 -688l274 -750q-98 -18 -227 -18q-61 0 -109 4.5t-66 9.5l-17 4l-203 609h-82l-129 -609q-66 -18 -199 -18q-55 0 -102.5 4.5t-67.5 9.5z" />
<glyph unicode="L" horiz-adv-x="1103" d="M-12 0l309 1456q82 19 197 19q52 0 100 -4.5t70 -9.5l22 -5l-244 -1151h562q1 -13 1 -27q0 -52 -14 -126q-18 -78 -53 -152h-950z" />
<glyph unicode="M" horiz-adv-x="1703" d="M-10 18l305 1438q114 19 246 19q65 0 122 -4.5t81 -9.5l24 -5l59 -377q28 -187 28 -331q0 -30 -1 -58h10q31 106 109 250q53 98 299 516q85 19 235 19q58 0 138 -6t116 -13l-305 -1438q-71 -18 -186 -18q-53 0 -98.5 4.5t-65.5 9.5l-19 4l87 410q36 168 93 366t79 257 h-13q-1 -2 -44.5 -91t-92 -183.5t-90.5 -166.5l-191 -327q-55 -17 -159 -17q-46 0 -83.5 4t-52.5 8l-14 5l-49 315q-24 146 -39 453h-12q-3 -63 -26.5 -252t-59.5 -355l-90 -426q-66 -18 -172 -18q-47 0 -89 4.5t-61 9.5z" />
<glyph unicode="N" horiz-adv-x="1443" d="M-10 18l305 1438q88 19 262 19q76 0 137 -4.5t84 -9.5l23 -5l119 -665q14 -88 21 -193.5t7 -167.5v-61h8q27 219 76 446l135 641q74 19 174 19q47 0 87 -4.5t56 -9.5l17 -5l-305 -1438q-82 -18 -256 -18q-72 0 -134.5 4.5t-89.5 9.5l-26 4l-127 674q-16 91 -23.5 187.5 t-7.5 146.5v51h-10q-14 -176 -63 -407l-137 -652q-62 -18 -175 -18q-49 0 -88.5 4.5t-54.5 9.5z" />
<glyph unicode="O" horiz-adv-x="1417" d="M96 766q82 383 283.5 559t509.5 176q303 1 433 -203q79 -123 79 -317q0 -125 -33 -279q-42 -197 -115.5 -339t-176.5 -227t-226.5 -124t-276.5 -39q-305 0 -433 200q-77 121 -77 313q0 125 33 280zM468 504q-1 -18 -1 -35q1 -68 17 -109q20 -51 55.5 -71.5t93.5 -20.5 q59 0 104 20.5t86.5 71.5t75.5 144t64 233q29 141 35 234q1 20 2 37q0 66 -16 108q-20 52 -56.5 72t-96.5 20q-58 0 -102 -20.5t-85.5 -72t-76.5 -145t-65 -233.5q-29 -139 -34 -233z" />
<glyph unicode="P" horiz-adv-x="1245" d="M-8 18l309 1457h584q235 -1 337 -139q68 -93 69 -228q0 -67 -17 -145q-96 -449 -594 -449h-195l-104 -496q-76 -18 -197 -18q-56 0 -104 4.5t-68 9.5zM549 809h137q78 0 130.5 47t72.5 139q8 35 8 64q-1 47 -21 76q-32 47 -110 47h-137z" />
<glyph unicode="Q" horiz-adv-x="1417" d="M96 766q82 383 283.5 559t509.5 176q304 0 433 -203q79 -124 79 -317q0 -125 -33 -279q-82 -395 -303 -575q108 -65 235 -88q-29 -104 -96.5 -183t-136.5 -110q-97 37 -168.5 103t-114.5 145q-99 -21 -211 -21q-305 0 -433 200q-77 121 -77 313q0 125 33 280zM468 504 q-1 -18 -1 -35q0 -68 17 -109q20 -51 55.5 -71.5t93.5 -20.5q59 0 104 20.5t86.5 71.5t75.5 144t64 233q30 141 35 234q2 20 2 37q0 67 -16 108q-21 51 -57 71.5t-96 20.5q-58 0 -102 -20.5t-85.5 -72t-76.5 -145t-65 -233.5q-29 -139 -34 -233z" />
<glyph unicode="R" horiz-adv-x="1310" d="M-8 18l309 1457h588q102 0 180.5 -26.5t126 -73t75.5 -110t29 -137.5v-10q0 -70 -14 -147q-29 -136 -101.5 -220t-203.5 -139l188 -594q-84 -18 -219 -18q-53 0 -101 4.5t-69 9.5l-22 4l-156 535h-108l-113 -535q-82 -18 -197 -18q-56 0 -104 4.5t-68 9.5zM557 844h141 q159 0 195 170q7 31 7 57q0 113 -130 113h-141z" />
<glyph unicode="S" horiz-adv-x="1198" d="M-59 82q18 78 59.5 157.5t93.5 131.5q18 -7 50.5 -17.5t132.5 -27.5t198 -17q206 0 230 117q5 23 -2.5 42t-21.5 33t-41.5 28t-52.5 23.5t-65 22.5q-34 11 -62.5 22t-63 27.5t-62 34t-56.5 42t-49.5 51t-37.5 60.5q-17 36 -25 74q-8 36 -8 80v6q0 48 12 101 q91 428 653 428q124 0 232 -18.5t154 -36.5l46 -19q-15 -79 -54.5 -152.5t-96.5 -127.5q-129 39 -283 39q-228 0 -256 -121q-5 -27 8 -47.5t45.5 -37t66 -29t86 -31t89.5 -35.5q53 -23 93 -47.5t74 -55.5t55 -67t32 -80q10 -39 10 -86v-13q-2 -54 -16 -118 q-51 -232 -212.5 -338.5t-457.5 -106.5q-89 0 -172.5 11t-140 27.5t-100 32.5t-63.5 27z" />
<glyph unicode="T" horiz-adv-x="1181" d="M158 1153q-2 18 -2 39q0 52 14 119q9 44 22.5 85t23.5 60l9 19h1096q1 -15 1 -32q0 -56 -15 -128q-8 -41 -21.5 -81.5t-23.5 -60.5l-9 -20h-348l-241 -1135q-86 -18 -199 -18q-55 0 -102.5 4.5t-68.5 9.5l-20 4l242 1135h-358z" />
<glyph unicode="U" horiz-adv-x="1384" d="M84 510l201 946q75 19 196 19q55 0 103 -4.5t69 -9.5l21 -5l-203 -952q-8 -36 -8 -66q0 -54 26 -87q40 -52 138 -52q193 0 237 205l203 952q74 19 195 19q54 0 101.5 -4.5t68.5 -9.5l20 -5l-201 -946q-55 -254 -243 -395.5t-455 -141.5q-268 0 -396 142q-90 99 -90 253 q0 66 17 142z" />
<glyph unicode="V" horiz-adv-x="1390" d="M180 1450q90 25 215 25q52 0 94.5 -5.5t58.5 -10.5l17 -5l62 -754q6 -97 6 -186.5t-3 -130.5l-3 -41h8q51 139 162 360l381 752q69 21 196 21q56 0 103 -5.5t67 -10.5l19 -5l-736 -1436q-104 -18 -264 -18q-73 0 -137 4.5t-92 9.5l-27 4z" />
<glyph unicode="W" horiz-adv-x="2043" d="M193 1456q79 19 202 19q52 0 95.5 -4.5t61.5 -9.5l17 -5v-764q-2 -79 -8 -167t-11 -137l-5 -48h8q45 170 117 350l305 766q79 19 237 19q68 0 126 -4.5t82 -9.5l24 -5l-23 -764q-4 -84 -13.5 -172t-17.5 -134l-8 -46h9q49 157 129 350l325 766q67 19 178 19 q47 0 91.5 -4.5t65.5 -9.5l20 -5l-625 -1438q-88 -18 -250 -18q-76 0 -139.5 4.5t-89.5 9.5l-25 4l25 730q4 99 15 196t19 144l9 47h-11q-36 -168 -122 -387l-291 -730q-103 -18 -260 -18q-158 0 -250 18z" />
<glyph unicode="X" horiz-adv-x="1325" d="M-143 18l585 770l-237 668q79 19 235 19q58 0 105.5 -4.5t65.5 -9.5l18 -5l143 -373l287 373q100 19 223 19q81 0 197 -19l-539 -713l274 -723q-76 -20 -217 -20q-64 0 -113 4.5t-66 9.5l-17 4l-185 441l-337 -441q-103 -18 -207 -18q-120 0 -215 18z" />
<glyph unicode="Y" horiz-adv-x="1347" d="M176 1456q85 19 232 19q56 0 104 -4.5t68 -9.5l20 -5l150 -491l362 491q96 19 217 19q56 0 106.5 -4.5t72.5 -9.5l22 -5l-680 -903l-113 -535q-71 -18 -198 -18q-60 0 -107.5 4.5t-65.5 9.5l-18 4l115 537z" />
<glyph unicode="Z" horiz-adv-x="1275" d="M-74 0q-1 13 -1 27q0 53 14 131q17 77 53 151l831 858h-592v18q0 57 15 140q19 85 51 150h1061q3 -20 3 -43q0 -46 -11 -105q-18 -81 -58 -160l-846 -858h691q0 -78 -17 -153q-20 -90 -49 -156h-1145z" />
<glyph unicode="[" horiz-adv-x="716" d="M-66 -348l426 2007h521q3 -47 -13 -131q-8 -38 -19 -70.5t-17 -45.5l-7 -13h-170l-315 -1487h170q4 -45 -14 -131q-7 -37 -17.5 -69.5t-16.5 -45.5l-7 -14h-521z" />
<glyph unicode="\" horiz-adv-x="1126" d="M219 1518q86 18 199 18q48 0 94 -4.5t68 -9.5l22 -4l344 -1596q-83 -18 -196 -18q-48 0 -95 4.5t-69 9.5l-23 4z" />
<glyph unicode="]" horiz-adv-x="716" d="M-152 -348q-3 45 13 129q8 38 18.5 71t17.5 46l7 14h172l315 1487h-172q-4 43 14 129q7 37 17.5 70t17.5 47l6 14h523l-426 -2007h-523z" />
<glyph unicode="^" horiz-adv-x="1150" d="M111 897l501 563q62 15 146 15q37 0 72.5 -3.5t51.5 -7.5l17 -4l262 -563q-65 -14 -157 -14q-42 0 -82 3.5t-59 7.5l-19 3l-144 309l-274 -309q-70 -14 -164 -14q-41 0 -78.5 3.5t-55.5 7.5z" />
<glyph unicode="_" horiz-adv-x="1095" d="M-106 -266q-6 30 10 112q8 36 18 64.5t16 38.5l5 10h929q10 -31 -8 -113q-7 -36 -17.5 -64t-16.5 -38l-7 -10h-929z" />
<glyph unicode="`" horiz-adv-x="487" d="M10 1577q51 60 150.5 95t187.5 26l129 -324q-74 -76 -227 -102z" />
<glyph unicode="a" horiz-adv-x="1150" d="M51 590q36 150 83 251.5t109 161t134.5 84.5t167.5 25q91 0 146 -29t83 -88l35 82q57 15 172 15q50 0 94 -4t63 -8l19 -5l-225 -1059q-74 -16 -178 -16q-47 0 -87.5 4t-57.5 8l-17 4v82q-115 -118 -277 -118q-187 0 -261 154q-38 78 -38 195q0 113 35 261zM410 320 q17 -58 90 -58q52 0 87.5 34.5t51.5 90.5l66 311q1 14 1 26q0 41 -15 69q-20 36 -70 36q-72 0 -115 -61.5t-80 -228.5q-22 -106 -21 -167q-1 -32 5 -52z" />
<glyph unicode="b" horiz-adv-x="1146" d="M-39 16l320 1504q73 16 186 16q51 0 97 -4t66 -8l21 -4l-108 -512q110 104 270 104q181 0 251 -142q36 -73 37 -190q0 -109 -32 -256q-33 -156 -82.5 -264t-114.5 -168.5t-137 -86t-162 -25.5q-158 0 -229 100l-12 -64q-76 -16 -191 -16q-50 0 -95 4t-65 8zM414 410 q-5 -25 -5 -45q-1 -37 15 -63q24 -40 74 -40q70 0 111 59t75 224q24 118 24 182q0 28 -5 45q-15 57 -85 57q-48 0 -88.5 -40.5t-58.5 -112.5z" />
<glyph unicode="c" horiz-adv-x="915" d="M35 539q61 290 214 431.5t402 141.5q95 0 173.5 -17.5t109.5 -34.5l31 -18q-20 -71 -63.5 -138t-98.5 -111q-49 30 -135 30q-100 0 -155 -63t-89 -215q-15 -72 -14 -124q0 -55 16 -85q32 -60 135 -60q41 0 81 8t60 16l19 9q35 -42 49 -109q9 -43 9 -89q0 -25 -3 -52 q-6 -3 -16 -8.5t-46 -19t-75 -24t-101 -19t-126 -8.5q-249 0 -344 134q-57 81 -57 220q0 90 24 205z" />
<glyph unicode="d" horiz-adv-x="1150" d="M47 567q32 154 79.5 261t111.5 168.5t138 88.5t169 27q153 0 227 -104l107 510q75 18 190 18q50 0 95.5 -4t65.5 -8l21 -4l-319 -1504q-74 -16 -178 -16q-47 0 -87.5 4t-57.5 8l-17 4v82q-115 -118 -287 -118q-180 0 -251 142q-37 75 -37 195q0 107 30 250zM409 322 q18 -60 91 -60q52 0 87.5 34.5t51.5 90.5l66 311q1 14 1 26q0 41 -15 69q-20 36 -70 36q-72 0 -116 -62t-81 -228q-21 -102 -21 -163q0 -33 6 -54z" />
<glyph unicode="e" horiz-adv-x="1034" d="M43 578q60 278 211 406t389 128q204 0 303 -112q69 -78 69 -204q0 -56 -14 -122q-14 -62 -31 -120.5t-28 -85.5l-10 -28h-533q-4 -23 -4 -42q0 -58 32 -86q42 -36 128 -36q52 0 104.5 12.5t79.5 25.5l27 12q35 -34 54 -106q12 -44 12 -87q0 -27 -5 -53q-5 -4 -15 -11 t-45.5 -24t-76 -30t-106.5 -24t-138 -11q-262 0 -364 152q-63 94 -63 243q0 91 24 203zM440 651h226q5 16 14 62q6 28 6 51q0 31 -10 52q-18 38 -68 38q-54 0 -96 -44t-72 -159z" />
<glyph unicode="f" horiz-adv-x="755" d="M43 16l170 801h-131q0 70 14 133q8 46 41 127h131l27 123q35 167 146 251.5t325 84.5q83 0 154 -16t101 -32l30 -15q-44 -142 -156 -242q-39 26 -131 26q-85 0 -105 -92l-18 -88h184q1 -11 1 -25q0 -40 -11 -102q-17 -75 -45 -133h-184l-170 -801q-70 -16 -191 -16 q-53 0 -98.5 4t-64.5 8z" />
<glyph unicode="g" horiz-adv-x="1150" d="M-84 -428q35 140 139 238q11 -5 29.5 -13t74 -21.5t107.5 -13.5q42 0 73.5 4.5t69 22t65 48t52.5 85.5t41 131l6 29q-108 -102 -266 -102q-182 0 -256 142q-39 74 -39 193q0 107 31 248q63 290 188 419.5t306 129.5q170 0 235 -100l14 63q74 17 189 17q51 0 96.5 -4 t65.5 -8l20 -5l-219 -1022q-118 -565 -649 -565q-102 0 -195 21t-136 42zM408 398q-2 -16 -2 -30q0 -33 8 -54q10 -30 30 -41t54 -11q52 0 91.5 42t53.5 102l59 274q4 24 4 45q0 39 -14 65q-20 39 -74 39q-47 0 -77 -20.5t-58 -85t-53 -184.5q-18 -86 -22 -141z" />
<glyph unicode="h" d="M-39 16l320 1504q65 16 188 16q53 0 98.5 -4t64.5 -8l19 -4l-108 -504q131 96 288 96q151 0 209 -95q37 -61 37 -147q0 -49 -12 -106l-158 -748q-67 -16 -190 -16q-56 0 -101.5 4t-63.5 8l-17 4l151 713q3 16 3 30q0 70 -81 70q-54 0 -112 -38l-164 -775 q-70 -16 -189 -16q-54 0 -99.5 4t-63.5 8z" />
<glyph unicode="i" horiz-adv-x="557" d="M-37 16l225 1059q66 17 189 17q53 0 99 -4t66 -8l19 -5l-225 -1059q-72 -16 -191 -16q-54 0 -99.5 4t-63.5 8zM219 1229l68 317q67 17 190 17q53 0 98.5 -4.5t64.5 -8.5l19 -4l-67 -317q-70 -17 -189 -17q-54 0 -100 4t-65 8z" />
<glyph unicode="j" horiz-adv-x="557" d="M-356 -465q0 37 8 80q11 52 31 97.5t35 65.5l14 19q34 -8 69 -8q57 0 90.5 29t47.5 100l247 1157q70 17 189 17q50 0 96 -4t67 -8l21 -5l-268 -1255q-70 -332 -426 -332q-65 0 -120.5 12t-78.5 24zM217 1223l68 317q67 16 190 16q53 0 98.5 -4t64.5 -8l19 -4l-67 -317 q-72 -17 -191 -17q-54 0 -99.5 4t-63.5 8z" />
<glyph unicode="k" horiz-adv-x="1093" d="M-37 18l320 1506q71 12 190 12q49 0 94 -3t65 -6l21 -3l-174 -824h41l260 375q58 17 181 17q54 0 103 -4t71 -8l22 -5l-342 -500l160 -557q-80 -20 -211 -20q-53 0 -98 5t-64 10l-18 5l-115 420h-47l-88 -420q-64 -18 -187 -18q-54 0 -100 4.5t-65 9.5z" />
<glyph unicode="l" horiz-adv-x="555" d="M-37 16l320 1504q65 16 188 16q53 0 98.5 -4t64.5 -8l19 -4l-319 -1504q-70 -16 -189 -16q-54 0 -99.5 4t-63.5 8z" />
<glyph unicode="m" horiz-adv-x="1675" d="M-39 16l225 1059q66 17 189 17q52 0 93 -4t56 -8l15 -5v-78q149 115 288 115q89 0 145 -30.5t85 -94.5q149 125 336 125q147 0 205 -90q37 -58 36 -143q0 -49 -12 -107l-160 -756q-77 -16 -190 -16q-53 0 -98 4t-64 8l-18 4l149 711q5 20 5 37q0 65 -77 65 q-55 0 -108 -41l-164 -772q-77 -16 -188 -16q-53 0 -98.5 4t-64.5 8l-20 4l150 711q5 20 5 37q0 65 -77 65q-55 0 -108 -38l-164 -775q-76 -16 -189 -16q-53 0 -98.5 4t-64.5 8z" />
<glyph unicode="n" d="M-39 16l225 1059q66 17 189 17q53 0 94 -4t55 -8l15 -5v-78q157 115 292 115q154 0 213 -87q37 -54 37 -138q0 -51 -14 -113l-160 -758q-67 -16 -190 -16q-56 0 -101.5 4t-63.5 8l-17 4l151 713q3 16 3 30q0 70 -81 70q-53 0 -112 -41l-164 -772q-70 -16 -189 -16 q-54 0 -99.5 4t-63.5 8z" />
<glyph unicode="o" horiz-adv-x="1132" d="M39 575q32 151 89.5 257t138.5 166.5t177 87t218 26.5q243 0 349 -151q66 -94 66 -246q0 -92 -24 -205q-32 -151 -88.5 -255.5t-137.5 -164t-176 -85t-217 -25.5q-242 0 -350 148q-68 94 -68 247q0 90 23 200zM394 370q3 -64 25 -88t68 -24q67 0 110 62t77 225 q23 116 23 179q0 30 -5 49q-16 58 -84 58q-69 0 -113 -61t-79 -225q-22 -99 -22 -160v-15z" />
<glyph unicode="p" horiz-adv-x="1159" d="M-135 -442l323 1517q74 17 187 17q51 0 93.5 -4t59.5 -8l17 -3l-2 -73q111 108 278 108q83 0 143.5 -31.5t101 -101.5t44.5 -183v-22q0 -106 -29 -252q-33 -154 -84 -262t-117 -168t-138.5 -86t-161.5 -26q-164 0 -232 104l-112 -526q-76 -17 -191 -17q-50 0 -95 4.5 t-65 8.5zM420 424q-5 -28 -5 -52q0 -35 11 -62q18 -48 74 -48q44 0 73.5 18.5t59 82.5t55.5 184q23 117 23 180q0 29 -5 47q-16 55 -85 55q-48 0 -88 -37.5t-58 -103.5z" />
<glyph unicode="q" horiz-adv-x="1155" d="M49 573q33 153 82 260t114 167t138 86t164 26q150 0 225 -115l27 80q63 15 178 15q51 0 97 -4t66 -8l21 -5l-323 -1517q-74 -17 -189 -17q-51 0 -96.5 4.5t-65.5 8.5l-20 4l111 524q-110 -102 -271 -102q-180 0 -251 146q-37 76 -37 196q0 108 30 251zM412 404 q-2 -17 -2 -32q0 -33 8 -55q10 -31 30 -43t54 -12q52 0 92.5 46t56.5 112l56 262q6 28 6 50q0 35 -14 58q-23 39 -76 39q-46 0 -76.5 -22t-59 -85t-53.5 -177q-18 -86 -22 -141z" />
<glyph unicode="r" horiz-adv-x="854" d="M-39 16l225 1059q70 17 189 17q54 0 91 -4t48 -8l10 -5l-8 -106q116 141 270 141q92 0 168 -57q-29 -94 -76 -163.5t-122 -127.5q-37 37 -105 37q-84 0 -170 -80l-149 -703q-76 -16 -189 -16q-53 0 -98.5 4t-64.5 8z" />
<glyph unicode="s" horiz-adv-x="933" d="M-70 66q28 145 131 237q122 -45 263 -45q76 0 111.5 16.5t43.5 51.5q3 16 -4 29t-29.5 25t-40.5 19t-57.5 20t-60.5 21q-201 74 -201 255q0 40 10 85q36 167 157 249.5t339 82.5q105 0 192.5 -16.5t122.5 -32.5l35 -16q-25 -155 -129 -238q-109 33 -240 33 q-126 0 -143 -68q-3 -16 6 -29.5t33 -24.5t47.5 -19t64 -21t66.5 -23q46 -18 81.5 -44.5t65.5 -68.5q30 -43 36 -98q2 -18 2 -39q0 -41 -9 -92q-36 -170 -159 -252.5t-353 -82.5q-70 0 -135 9t-107.5 21.5t-75.5 25t-48 21.5z" />
<glyph unicode="t" horiz-adv-x="804" d="M66 817q-1 10 -1 21q0 45 13 108q8 37 19 70t17 47l7 14h141l39 189q77 32 183 46q64 8 124 9q40 0 78 -4l-51 -240h199v-14q0 -45 -15 -115q-7 -35 -17.5 -67.5t-17.5 -48.5l-6 -15h-198l-91 -424q-7 -32 -8 -55q0 -36 17 -54q27 -30 98 -30q22 0 45.5 2.5t36.5 5.5 l12 2q9 -22 9 -56q0 -37 -11 -89q-6 -32 -16 -61t-16 -42l-7 -12q-105 -24 -219 -24q-218 0 -290 92q-43 56 -44 159q0 68 19 156l92 430h-141z" />
<glyph unicode="u" d="M25 338l157 737q66 17 189 17q55 0 101 -4t64 -8l19 -5l-154 -715q-3 -16 -3 -29q0 -69 81 -69q63 0 117 60l162 753q67 17 186 17q54 0 100 -4t65 -8l19 -5l-225 -1059q-67 -16 -190 -16q-53 0 -94 4t-55 8l-15 4v82q-121 -118 -285 -118q-152 0 -213 98q-39 62 -39 150 q0 51 13 110z" />
<glyph unicode="v" horiz-adv-x="1095" d="M96 1075q82 17 195 17q52 0 96 -4t62 -8l18 -5l27 -368q4 -66 4 -124q0 -35 -2 -65q-4 -84 -10 -137l-7 -53h8q52 176 156 381l188 366q79 17 181 17q48 0 92 -4t64 -8l20 -5l-537 -1059q-90 -16 -235 -16q-67 0 -123.5 4t-79.5 8l-23 4z" />
<glyph unicode="w" horiz-adv-x="1644" d="M109 1075q69 17 180 17q52 0 92 -4t54 -8l14 -5l14 -366q0 -182 -25 -377h6q63 214 136 377l163 366q85 17 191 17q50 0 95.5 -4t66.5 -8l20 -5l8 -364q0 -171 -30 -379h8q61 214 137 377l168 366q58 17 160 17q47 0 87 -4t56 -8l16 -5l-469 -1059q-88 -16 -225 -16 q-138 0 -217 16l-4 324q0 200 49 438h-8q-66 -266 -137 -438l-137 -324q-99 -16 -220 -16q-132 0 -225 16z" />
<glyph unicode="x" horiz-adv-x="1103" d="M-147 16l458 566l-196 493q90 17 207 17q55 0 101 -4t65 -8l18 -5l104 -237l195 237q81 17 190 17q51 0 100 -4t72 -8l23 -5l-428 -524l231 -535q-92 -16 -209 -16q-54 0 -99.5 4t-64.5 8l-18 4l-133 291l-236 -291q-92 -16 -196 -16q-50 0 -96 4t-67 8z" />
<glyph unicode="y" d="M-115 -428q35 138 140 238q11 -5 29.5 -13t74 -21.5t107.5 -13.5h5q35 0 53 0.5t49.5 6t50 15t43.5 29.5t41 49t32.5 73.5t26.5 101.5l4 22q-115 -84 -287 -84q-60 0 -107 20.5t-75 55.5t-44 81q-16 44 -16 93v6q1 52 11 107l157 737q66 17 189 17q55 0 101 -4t64 -8 l19 -5l-154 -715q-3 -16 -3 -29q0 -69 81 -69q57 0 113 41l166 772q67 17 186 17q54 0 100 -4t65 -8l19 -5l-221 -1038q-124 -549 -647 -549q-102 0 -195 21t-135 42z" />
<glyph unicode="z" horiz-adv-x="993" d="M-66 0v17q0 54 15 128q12 54 45 138l555 526h-424q-1 10 -1 22q0 51 15 119q7 37 18.5 72.5t18.5 52.5l8 17h832v-21q0 -54 -12 -113q-17 -85 -48 -149l-557 -526h445q4 -18 4 -41q0 -42 -12 -101q-9 -39 -22 -74.5t-22 -50.5l-8 -16h-850z" />
<glyph unicode="{" horiz-adv-x="815" d="M6 551q-3 51 14 137q13 62 43 131h60q56 0 92 30.5t47 82.5l90 426q28 137 124 219t239 82h264q5 -44 -14 -133q-14 -67 -43 -135h-84q-56 0 -92 -30.5t-48 -84.5l-71 -344q-37 -173 -170 -246q103 -73 63 -248l-71 -344q-11 -54 11.5 -84t78.5 -30h84q3 -56 -17 -140 q-17 -82 -41 -129h-264q-143 0 -203 82t-32 219l90 426q11 52 -11.5 82.5t-78.5 30.5h-60z" />
<glyph unicode="|" horiz-adv-x="659" d="M-78 -387l422 1989q78 16 197 16q50 0 97 -4t69 -8l22 -4l-422 -1989q-83 -16 -196 -16q-53 0 -100 4t-68 8z" />
<glyph unicode="}" horiz-adv-x="817" d="M-137 -289q-4 63 10 129q18 78 47 140h84q56 0 92 30.5t47 83.5l72 344q41 177 168 248q-99 70 -61 246l71 344q12 53 -11 84t-79 31h-84q-3 60 12 135q17 78 45 133h263q144 0 205 -82t32 -219l-90 -426q-11 -52 11.5 -82.5t78.5 -30.5h58q3 -56 -13 -131 q-17 -84 -45 -137h-57q-56 0 -92 -30.5t-47 -82.5l-91 -426q-28 -137 -124 -219t-240 -82h-262z" />
<glyph unicode="~" horiz-adv-x="1048" d="M53 596q4 6 12.5 16.5t37.5 36.5t61.5 46t85 36.5t108.5 16.5q58 0 106.5 -16.5t77 -36t69 -36t83.5 -16.5q41 0 78.5 17.5t54.5 35.5l17 17q57 -22 91 -70.5t34 -110.5q-4 -6 -12.5 -16.5t-37.5 -36.5t-61.5 -45.5t-84.5 -36t-107 -16.5q-59 0 -108.5 16.5t-79 35.5 t-69.5 35.5t-81 16.5q-42 0 -79.5 -17.5t-54.5 -34.5l-16 -17q-122 51 -125 180z" />
<glyph unicode="&#xa1;" horiz-adv-x="608" d="M-113 -397l254 991q58 14 158 14q44 0 83.5 -3.5t57.5 -6.5l17 -4l-168 -991q-72 -17 -205 -17q-56 0 -105.5 4t-70.5 8zM133 696l74 348q69 17 188 17q54 0 99.5 -4.5t64.5 -8.5l19 -4l-74 -348q-66 -16 -189 -16q-53 0 -98.5 4t-64.5 8z" />
<glyph unicode="&#xa2;" horiz-adv-x="960" d="M47 539q54 250 173 388.5t308 172.5l23 184q78 21 166 21q43 0 83 -5.5t58 -10.5l19 -5l-58 -188q48 -9 87.5 -22.5t55.5 -22.5l15 -9q-42 -144 -162 -237q-49 29 -135 29q-99 0 -155.5 -67.5t-90.5 -221.5q-31 -149 0 -215t133 -66q41 0 81.5 8t60.5 16l20 9 q72 -84 59 -238q-73 -43 -202 -63l-27 -203q-72 -20 -168 -20q-39 0 -78.5 5t-59.5 10l-20 5l62 197q-177 31 -239 165.5t-9 383.5z" />
<glyph unicode="&#xa3;" horiz-adv-x="1116" d="M-31 0l64 303q171 136 200 262h-163q-4 53 12 127q7 35 17.5 65.5t16.5 44.5l7 13h106q-11 108 9 211q21 101 77.5 178t135.5 122t169.5 67t190.5 22q127 0 213.5 -19.5t165.5 -56.5q-15 -73 -57 -137t-101 -110q-109 41 -203 41q-186 0 -225 -175q-11 -66 -8 -143h350 q4 -43 -12 -119q-7 -34 -17.5 -66.5t-16.5 -48.5l-7 -16h-309q-31 -154 -172 -262h557q7 -55 -13 -147q-8 -41 -21 -80t-21 -58l-9 -18h-936z" />
<glyph unicode="&#xa4;" horiz-adv-x="1234" d="M-28 174l1 16l174 146q-35 97 -8 219q22 108 101 219l-113 146q2 7 7.5 18.5t29.5 43t57 58.5q35 30 68.5 47t50.5 19l16 2l113 -143q116 55 233 55t207 -55l176 143q2 0 6.5 -0.5t17 -4t25 -10t28.5 -20.5t30 -33q22 -27 32 -57t10 -47l-1 -16l-174 -146q34 -98 10 -219 q-26 -114 -102 -221l112 -144q-2 -7 -7 -18.5t-28.5 -44t-56.5 -59.5q-35 -31 -69 -47.5t-51 -17.5l-17 -1l-115 143q-116 -55 -231 -55q-119 0 -209 55l-174 -143q-7 0 -18 2.5t-39.5 20.5t-51.5 47q-21 27 -30.5 56.5t-9.5 45.5zM406 555q-19 -84 26 -141.5t129 -57.5 q85 0 154 57t88 142q17 85 -28 142t-130 57q-84 0 -153 -57.5t-86 -141.5z" />
<glyph unicode="&#xa5;" horiz-adv-x="1316" d="M115 236q0 56 12 114q12 55 35 101h284l23 110h-285q0 43 11 107q12 58 36 108h179l-209 602q82 23 205 23q52 0 99 -5.5t68 -10.5l21 -5l137 -411l334 415q77 17 190 17q45 0 90.5 -4.5t68.5 -8.5l22 -4l-486 -608h170q0 -50 -12 -106q-12 -59 -35 -109h-278l-23 -110 h279q3 -41 -11 -101q-13 -64 -36 -114h-279l-45 -218q-90 -18 -168 -18q-34 0 -73.5 4.5t-62.5 9.5l-22 4l45 218h-284z" />
<glyph unicode="&#xa6;" horiz-adv-x="647" d="M-88 -401l194 911q78 16 197 16q50 0 97.5 -4t69.5 -8l22 -4l-195 -911q-82 -17 -195 -17q-53 0 -100.5 4t-68.5 8zM152 725l190 891q76 16 195 16q50 0 97.5 -4t69.5 -8l23 -4l-190 -891q-82 -16 -195 -16q-53 0 -100.5 4t-68.5 8z" />
<glyph unicode="&#xa7;" horiz-adv-x="1009" d="M-35 47q11 67 46 132.5t85 101.5q119 -37 238 -43q169 -8 184 59q4 19 -15 32.5t-53.5 20.5t-78.5 16t-89.5 19.5t-87 30t-71.5 48.5t-42 74.5t1 108.5q32 143 176 232q-89 78 -57 233q31 148 159.5 224.5t323.5 76.5q188 0 334 -61q-11 -59 -45.5 -121t-81.5 -103 q-88 24 -168 31q-173 16 -188 -63q-5 -23 19 -37.5t65.5 -23t91.5 -17.5t98.5 -27.5t86 -46.5t53.5 -80t1 -123q-31 -139 -172 -217q121 -78 86 -248q-16 -77 -65 -135.5t-121.5 -93t-158 -51t-183.5 -16.5q-92 0 -184.5 16.5t-139.5 33.5zM412 713q-6 -25 4.5 -43.5 t36.5 -31t51.5 -20.5t64.5 -18q6 -1 9 -2q34 31 47 82q4 24 -2.5 41t-34.5 31.5t-40.5 19t-58.5 18.5q-19 6 -28 9q-40 -40 -49 -86z" />
<glyph unicode="&#xa8;" horiz-adv-x="931" d="M33 1245l57 271q60 14 164 14q44 0 82.5 -3.5t55.5 -6.5l16 -4l-58 -271q-60 -14 -160 -14q-45 0 -84.5 3.5t-55.5 7.5zM467 1245l57 271q58 14 162 14q45 0 84 -3.5t56 -6.5l16 -4l-58 -271q-59 -14 -161 -14q-45 0 -84 3.5t-55 7.5z" />
<glyph unicode="&#xa9;" horiz-adv-x="1611" d="M60 497q-8 95 16 199q32 153 120.5 291t209.5 237.5t271.5 158.5t303.5 59q122 0 228.5 -38t182 -105.5t126.5 -161t62 -205t-13 -236.5q-32 -153 -120 -291t-209 -237.5t-271 -158t-303 -58.5q-102 0 -193.5 26.5t-162.5 74.5t-126 116t-84.5 151t-37.5 178zM313 696 q-29 -141 13 -258.5t144.5 -185.5t242.5 -68t271.5 68t223.5 186t121 258q30 140 -12 258t-144.5 186t-242.5 68q-213 0 -392 -149t-225 -363zM465 705q43 201 158 304t295 103q67 0 125 -16.5t83 -32.5l25 -16q-31 -114 -131 -170q-41 28 -107 28q-69 0 -114.5 -46.5 t-69.5 -156.5q-23 -107 3 -148.5t97 -41.5q33 0 64 6t46 12l15 5q38 -22 54 -68.5t8 -101.5q-13 -8 -36.5 -19.5t-94.5 -31t-140 -19.5q-179 0 -250.5 106t-29.5 304z" />
<glyph unicode="&#xaa;" horiz-adv-x="724" d="M8 315q-3 40 8 93t31 92h569q4 -37 -7.5 -91.5t-30.5 -93.5h-570zM98 823q24 105 102.5 156t192.5 51l92 -4l7 23q5 28 -7 41.5t-49 13.5q-38 0 -80.5 -8t-65.5 -16l-24 -7q-45 74 -30 162q15 6 41.5 15t101 24.5t141.5 15.5q145 0 195.5 -57.5t23.5 -177.5l-90 -424 q-42 -17 -112 -17q-27 0 -53 4t-38 8l-12 5l-6 45q-72 -72 -176 -72q-93 0 -135 56.5t-19 162.5zM346 823q-11 -61 33 -61q51 0 70 86l8 35q-16 2 -45 2q-52 0 -66 -62z" />
<glyph unicode="&#xab;" horiz-adv-x="1142" d="M31 410q-10 49 6 135q9 40 22 75.5t22 51.5l9 16l518 375q33 -39 46 -99.5t5 -127.5l-321 -285l201 -283q-49 -145 -148 -227zM526 420q-14 47 2 125q8 37 21.5 71t22.5 49l10 15l495 358q59 -78 43 -211l-301 -276l185 -275q-42 -126 -134 -210z" />
<glyph unicode="&#xac;" horiz-adv-x="1222" d="M84 639q-10 59 8 143q9 40 22 76.5t22 53.5l9 16h1041l-129 -611q-54 -22 -148 -22q-43 0 -78.5 5.5t-50.5 11.5l-14 5l68 322h-750z" />
<glyph unicode="&#xad;" horiz-adv-x="550" />
<glyph unicode="&#xae;" horiz-adv-x="1071" d="M143 965q27 127 112 234t205 169t247 62t221 -62t133 -169t12 -234t-111.5 -234t-204.5 -169t-247 -62t-221 62t-133.5 169t-12.5 234zM276 965q-29 -138 48.5 -235t214.5 -97q138 0 255 97t146 235t-46.5 234.5t-213.5 96.5q-137 0 -256 -97t-148 -234zM387 750l96 456 h219q73 0 110.5 -40t23.5 -105q-9 -46 -41 -82t-78 -51l67 -172q-28 -17 -77 -17q-17 0 -32.5 2.5t-22.5 5.5l-7 3l-67 165h-19l-35 -165q-28 -11 -69 -11q-20 0 -37 2.5t-24 5.5zM582 1020h57q47 0 55 41q4 23 -5 32t-34 9h-57z" />
<glyph unicode="&#xaf;" horiz-adv-x="833" d="M14 1270q-2 51 11 113t34 104h691q4 -43 -9.5 -106.5t-35.5 -110.5h-691z" />
<glyph unicode="&#xb0;" horiz-adv-x="735" d="M168 1210q27 129 134.5 224.5t258.5 95.5q102 0 166.5 -46t84 -115t1.5 -150q-27 -127 -130.5 -219.5t-254.5 -92.5q-156 0 -221.5 89t-38.5 214zM401 1214q-7 -35 11 -60.5t61 -25.5q41 0 70 26.5t35 62.5q8 36 -9 63t-57 27q-43 0 -73 -27.5t-38 -65.5z" />
<glyph unicode="&#xb1;" horiz-adv-x="1001" d="M18 178q-3 47 15 129q7 36 17.5 68.5t17.5 46.5l6 14h786q6 -47 -10 -129q-8 -36 -19 -68.5t-19 -46.5l-7 -14h-787zM129 694q-4 47 12 129q8 36 18.5 68.5t17.5 46.5l7 14h265l38 189q52 14 134 14q36 0 67 -3.5t44 -7.5l13 -3l-38 -189h264q5 -47 -13 -129 q-7 -36 -18 -68.5t-18 -46.5l-7 -14h-264l-41 -188q-49 -17 -131 -17q-36 0 -68 4.5t-45 8.5l-14 4l41 188h-264z" />
<glyph unicode="&#xb2;" horiz-adv-x="624" d="M66 709q-4 46 10 112q16 74 59.5 128.5t96 83.5t103 51t88 46.5t44.5 55.5q6 26 -16 38.5t-64 12.5q-59 0 -141 -20q-19 31 -21 77t15 92q108 35 239 35q130 0 191.5 -51.5t38.5 -157.5q-14 -65 -46 -110t-75.5 -71t-86.5 -43.5t-91 -39.5t-78 -47h274q6 -46 -6 -98 q-7 -41 -33 -94h-501z" />
<glyph unicode="&#xb3;" horiz-adv-x="626" d="M53 745q8 37 32.5 79t53.5 67q66 -21 140 -21q60 0 88 14.5t36 47.5q6 34 -8.5 46.5t-66.5 12.5h-99q-5 35 5 84t30 82h98q38 0 55 10t23 35q5 27 -11 38t-64 11q-32 0 -66 -4t-52 -8l-18 -4q-46 49 -26 145q106 41 239 41q149 0 210 -48.5t42 -141.5q-25 -111 -131 -152 q108 -46 84 -168q-24 -104 -104 -158.5t-250 -54.5q-71 0 -131 12t-84 24z" />
<glyph unicode="&#xb4;" horiz-adv-x="458" d="M-35 1374l264 324q92 9 177.5 -26.5t109.5 -94.5l-369 -305q-140 24 -182 102z" />
<glyph unicode="&#xb5;" horiz-adv-x="1210" d="M-82 -498q0 128 74 469l235 1104q76 17 189 17q53 0 99 -4t65 -8l20 -5l-151 -710q-11 -53 6.5 -78t66.5 -25q57 0 115 41l166 772q73 17 186 17q53 0 99 -4t66 -8l20 -5l-226 -1059q-71 -16 -190 -16q-50 0 -95 4t-65 8l-20 4l10 56q-83 -92 -211 -92q-44 0 -84 20 q-7 -121 2.5 -228t22.5 -154l14 -46q-56 -41 -130 -62.5t-144 -20.5t-140 13z" />
<glyph unicode="&#xb6;" horiz-adv-x="1490" d="M90.5 788q-2.5 62 13.5 125q23 100 77 192t132 165.5t187 117.5t231 44h295l-401 -1885q-66 -12 -160 -12q-43 0 -81.5 3t-55.5 6l-17 3l181 852q-81 1 -148.5 22.5t-113 57.5t-78.5 85t-46 105.5t-15.5 118.5zM788 -453l398 1872q62 13 160 13q42 0 80 -3t56 -7l17 -3 l-397 -1872q-66 -12 -160 -12q-44 0 -82.5 3t-55.5 6z" />
<glyph unicode="&#xb7;" horiz-adv-x="522" d="M55 430l64 307q59 17 170 17q48 0 88.5 -4t56.5 -8l17 -5l-64 -307q-61 -16 -170 -16q-48 0 -88.5 4t-56.5 8z" />
<glyph unicode="&#xb8;" horiz-adv-x="606" d="M-344 -412q6 34 29.5 74.5t50.5 58.5q55 -25 135 -28q128 -4 143 67q15 64 -63 64h-133l-23 33l99 252l184 -37l-45 -111q222 0 176 -209q-23 -104 -109.5 -158.5t-214.5 -54.5q-67 0 -124 12.5t-81 24.5z" />
<glyph unicode="&#xb9;" horiz-adv-x="542" d="M142 1183q-5 49 8 97q141 36 233 119q48 10 127 10q68 0 113 -10l-146 -682q-58 -10 -119 -10q-78 0 -129 10l74 342q9 47 25 98q-76 -46 -162 -55q-19 32 -24 81z" />
<glyph unicode="&#xba;" horiz-adv-x="749" d="M23 315q-4 26 8 93q16 64 30 92h570q4 -45 -8 -90q-9 -49 -31 -95h-569zM129 950q36 176 131.5 258t255.5 82t222 -81t24 -259q-38 -179 -135 -262.5t-256 -83.5q-160 0 -220 83t-22 263zM368.5 819.5q6.5 -26.5 41.5 -26.5q33 0 52.5 29t41.5 128q14 67 14.5 101.5 t-9 44.5t-32.5 10q-35 0 -54 -29t-40 -127q-21 -104 -14.5 -130.5z" />
<glyph unicode="&#xbb;" horiz-adv-x="1140" d="M-8 276l301 275l-184 276q19 62 55 118t80 93l342 -358q10 -51 -8 -135q-7 -35 -19 -66t-21 -45l-8 -14l-493 -354q-57 79 -45 210zM453 268l319 283l-199 285q20 65 59.5 126t86.5 101l358 -375q12 -53 -8 -143q-7 -38 -20 -72t-22 -49l-9 -14l-516 -369q-61 87 -49 227 z" />
<glyph unicode="&#xbc;" horiz-adv-x="1449" d="M68 -6l1093 1429q48 15 142 15q42 0 76 -4t47 -8l14 -3l-1096 -1429q-55 -14 -141 -14q-36 0 -70 3.5t-49 6.5zM174.5 1183q-5.5 49 7.5 97q143 36 234 119q48 10 127 10q67 0 112 -10l-145 -682q-58 -10 -119 -10q-78 0 -129 10l74 342q10 54 24 98q-76 -46 -161 -55 q-19 32 -24.5 81zM666 137q0 37 6 78q11 44 24 70l406 405q52 12 115 12q59 0 108 -12l-84 -393h76q2 -30 -8 -80q-7 -34 -27 -80h-76l-26 -127q-56 -10 -111 -10q-59 0 -108 10l26 127h-321zM913 297h109l31 145z" />
<glyph unicode="&#xbd;" horiz-adv-x="1529" d="M68 -6l1093 1429q48 15 142 15q42 0 76 -4t47 -8l14 -3l-1096 -1429q-55 -14 -141 -14q-36 0 -70 3.5t-49 6.5zM174.5 1183q-5.5 49 7.5 97q143 36 234 119q48 10 127 10q67 0 112 -10l-145 -682q-58 -10 -119 -10q-78 0 -129 10l74 342q10 54 24 98q-76 -46 -161 -55 q-19 32 -24.5 81zM801 0q-2 47 12 113q13 63 46.5 112t74 76t86 51t83.5 39.5t66 37.5t33 48q11 51 -74 51q-72 0 -145 -20q-19 31 -21 77.5t13 92.5q111 35 242 35q130 0 190 -51.5t37 -157.5q-14 -65 -46 -110t-75.5 -71t-86 -43.5t-90.5 -39.5t-77 -47h274q5 -37 -6 -99 q-14 -58 -34 -94h-502z" />
<glyph unicode="&#xbe;" horiz-adv-x="1503" d="M80 745q8 37 32.5 79t53.5 67q65 -21 139 -21q60 0 88.5 14.5t36.5 47.5q6 34 -9 46.5t-67 12.5h-98q-5 35 5 84t30 82h98q38 0 55 10t23 35q5 27 -11.5 38t-64.5 11q-32 0 -65.5 -4t-51.5 -8l-18 -4q-46 50 -27 145q107 41 240 41q149 0 210 -48.5t42 -141.5 q-25 -111 -131 -152q108 -46 84 -168q-11 -50 -34 -87t-63.5 -66.5t-105 -44.5t-152.5 -15q-71 0 -131 12t-84 24zM127 -6l1094 1429q47 15 141 15q42 0 76 -4t48 -8l13 -3l-1096 -1429q-55 -14 -141 -14q-36 0 -70 3.5t-50 6.5zM725 137q0 37 6 80q9 37 25 68l405 405 q53 12 115 12q58 0 108 -12l-84 -393h76q2 -30 -8 -80q-7 -34 -27 -80h-75l-27 -127q-56 -10 -111 -10q-59 0 -108 10l27 127h-322zM973 297h108l31 145z" />
<glyph unicode="&#xbf;" horiz-adv-x="940" d="M-94 -98.5q-4 48.5 10 108.5q16 75 48 134t71.5 96.5t84 67.5t87.5 55t80 51t64.5 63.5t37.5 85.5q56 19 160 19q44 0 82 -5t53 -9l16 -5q-17 -83 -46.5 -147.5t-63 -103t-70.5 -68t-72 -49.5t-65 -40t-52 -48.5t-30 -65.5q-12 -59 20 -84t109 -25q53 0 108.5 12t85.5 24 l29 12q49 -41 63 -109.5t-9 -144.5q-19 -8 -52.5 -20.5t-136 -33t-203.5 -20.5q-57 0 -106.5 5t-96 16.5t-81.5 30.5t-64 47t-43 65t-18 85.5zM389 700l74 349q67 16 186 16q54 0 100 -4t65 -8l20 -4l-74 -349q-68 -16 -191 -16q-53 0 -98 4t-63 8z" />
<glyph unicode="&#xc0;" horiz-adv-x="1398" d="M-127 18l752 1438q94 19 256 19q76 0 138 -4.5t85 -9.5l24 -5l140 -1438q-72 -18 -203 -18q-55 0 -101 4.5t-64 9.5l-19 4l-25 271h-471l-139 -271q-76 -18 -193 -18q-52 0 -97 4.5t-64 9.5zM522 557h312l-31 328q-4 69 -3.5 124.5t2.5 90.5l3 35h-8q-35 -117 -103 -250z M641 1839q51 60 151 95t187 24l129 -322q-78 -81 -227 -102z" />
<glyph unicode="&#xc1;" horiz-adv-x="1398" d="M-127 18l752 1438q92 19 256 19q76 0 137.5 -4.5t85.5 -9.5l24 -5l140 -1438q-72 -18 -203 -18q-55 0 -101 4.5t-64 9.5l-19 4l-25 271h-471l-141 -271q-74 -18 -191 -18q-52 0 -97 4.5t-64 9.5zM522 557h312l-31 328q-5 69 -4.5 124.5t3.5 90.5l3 35h-8 q-35 -117 -103 -250zM758 1636l266 324q93 9 177.5 -26t109.5 -95l-369 -305q-142 26 -184 102z" />
<glyph unicode="&#xc2;" horiz-adv-x="1398" d="M-127 18l752 1438q92 19 256 19q76 0 137.5 -4.5t85.5 -9.5l24 -5l140 -1438q-72 -18 -203 -18q-55 0 -101 4.5t-64 9.5l-19 4l-25 271h-471l-141 -271q-74 -18 -191 -18q-52 0 -97 4.5t-64 9.5zM522 557h312l-31 328q-5 69 -4.5 124.5t3.5 90.5l3 35h-8 q-35 -117 -103 -250zM524 1700l408 297h94l283 -297q-76 -117 -195 -164l-203 143l-260 -141q-98 46 -127 162z" />
<glyph unicode="&#xc3;" horiz-adv-x="1400" d="M-127 18l754 1438q92 19 254 19q76 0 138 -4.5t85 -9.5l24 -5l142 -1438q-72 -18 -205 -18q-54 0 -99.5 4.5t-63.5 9.5l-19 4l-27 271h-471l-139 -271q-74 -18 -193 -18q-51 0 -96 4.5t-65 9.5zM522 557h312l-29 328q-5 60 -5 122.5t2 94.5l3 33h-8q-33 -117 -103 -250z M524 1665q32 65 109.5 122t167.5 58q47 1 85.5 -11.5t61.5 -28.5t57 -29.5t72 -12.5q31 1 60.5 15t42.5 28l14 13q46 -19 78.5 -52.5t46.5 -74.5q-46 -60 -115 -106.5t-155 -47.5q-47 -1 -86.5 11t-62 26t-56.5 26t-72 11q-32 -1 -63 -16.5t-45 -30.5l-15 -15 q-99 27 -125 115z" />
<glyph unicode="&#xc4;" horiz-adv-x="1398" d="M-127 18l752 1438q94 19 256 19q76 0 138 -4.5t85 -9.5l24 -5l140 -1438q-72 -18 -203 -18q-55 0 -101 4.5t-64 9.5l-19 4l-25 271h-471l-139 -271q-76 -18 -193 -18q-52 0 -97 4.5t-64 9.5zM508 1563l57 272q58 14 162 14q44 0 83 -3.5t56 -7.5l17 -3l-58 -272 q-61 -15 -161 -15q-45 0 -84 4t-56 8zM522 557h312l-31 328q-4 69 -3.5 124.5t2.5 90.5l3 35h-8q-35 -117 -103 -250zM942 1563l57 272q56 14 160 14q45 0 84.5 -3.5t56.5 -7.5l17 -3l-57 -272q-62 -15 -164 -15q-45 0 -83.5 4t-54.5 8z" />
<glyph unicode="&#xc5;" horiz-adv-x="1404" d="M-129 18l745 1389q-58 70 -34 184q31 141 143 220t246 79q132 0 213 -79t51 -220q-24 -113 -115 -184l156 -1389q-78 -18 -209 -18q-55 0 -101 4.5t-64 9.5l-19 4l-25 271h-471l-139 -271q-76 -18 -193 -18q-52 0 -98 4.5t-66 9.5zM524 557h312l-33 311q-6 60 -6 123 t3 96l3 33h-8q-33 -119 -105 -252zM809 1591q-8 -38 11.5 -65t66.5 -27q46 0 77.5 27.5t39.5 64.5q8 38 -11.5 65t-66.5 27q-46 0 -77.5 -27.5t-39.5 -64.5z" />
<glyph unicode="&#xc6;" horiz-adv-x="1890" d="M-150 20l1199 1455h933q10 -60 -8 -141t-51 -140h-489l-66 -309h387q9 -60 -8 -141t-51 -140h-387l-70 -321h510q9 -62 -7.5 -143.5t-51.5 -139.5h-873l64 303h-396l-225 -283q-78 -20 -211 -20q-143 0 -199 20zM715 586h227l80 383z" />
<glyph unicode="&#xc7;" horiz-adv-x="1175" d="M88 737q79 369 293.5 563.5t538.5 194.5q73 0 139 -9t108 -21.5t73 -25t44 -21.5l14 -9q-8 -63 -57 -141q-24 -37 -50.5 -65.5t-40.5 -38.5l-15 -9q-99 39 -222 39q-79 0 -139 -21.5t-112 -73t-90.5 -141.5t-67.5 -223q-23 -107 -26 -185t10 -129.5t46 -82t77 -43 t108 -12.5q58 0 122 11.5t99 22.5l35 11q5 -4 12 -11.5t23 -38.5t24 -69q8 -35 8 -70.5t-4 -54.5l-4 -18q-14 -8 -41.5 -20t-122 -35t-200.5 -29l-25 -62q222 0 176 -209q-23 -105 -109 -159t-214 -54q-68 0 -125.5 12t-80.5 24l-24 13q5 34 28.5 75t51.5 59q53 -26 135 -29 q129 -4 144 67q6 33 -9.5 48.5t-56.5 15.5h-133l-20 33l67 172q-258 35 -357.5 226t-29.5 523z" />
<glyph unicode="&#xc8;" horiz-adv-x="1153" d="M-12 0l313 1475h944q9 -46 -8 -138q-25 -108 -53 -151h-555l-64 -299h453q7 -61 -8 -139q-17 -79 -52 -144h-452l-68 -315h576q7 -65 -10 -142q-20 -96 -52 -147h-964zM506 1839q49 59 150 94.5t188 24.5l129 -322q-78 -81 -228 -102z" />
<glyph unicode="&#xc9;" horiz-adv-x="1153" d="M-12 0l313 1475h944q9 -46 -8 -138q-25 -108 -53 -151h-555l-64 -299h453q7 -61 -8 -139q-17 -79 -52 -144h-452l-68 -315h576q7 -65 -10 -142q-20 -96 -52 -147h-964zM592 1636l264 324q93 9 178.5 -26.5t110.5 -94.5l-369 -303q-141 21 -184 100z" />
<glyph unicode="&#xca;" horiz-adv-x="1155" d="M-12 0l313 1475h946q7 -55 -8 -138q-22 -97 -53 -151h-557l-64 -299h455q4 -75 -8 -139q-15 -69 -51 -144h-455l-68 -315h578q7 -65 -10 -142q-20 -96 -52 -147h-966zM434 1700l406 297h94l285 -297q-81 -119 -195 -164l-203 143l-260 -141q-102 48 -127 162z" />
<glyph unicode="&#xcb;" horiz-adv-x="1155" d="M-12 0l313 1475h946q7 -55 -8 -138q-22 -97 -53 -151h-557l-64 -299h455q4 -75 -8 -139q-15 -69 -51 -144h-455l-68 -315h578q7 -65 -10 -142q-20 -96 -52 -147h-966zM406 1548l57 273q58 14 162 14q44 0 83 -3.5t56 -7.5l16 -3l-57 -273q-62 -14 -162 -14q-45 0 -84 3.5 t-55 6.5zM840 1548l57 273q56 14 160 14q45 0 84.5 -3.5t56.5 -7.5l16 -3l-57 -273q-62 -14 -164 -14q-45 0 -83.5 3.5t-53.5 6.5z" />
<glyph unicode="&#xcc;" horiz-adv-x="626" d="M-10 18l305 1438q82 19 197 19q52 0 100 -4.5t70 -9.5l22 -5l-305 -1438q-86 -18 -199 -18q-55 0 -102.5 4.5t-67.5 9.5zM266 1839q51 60 151 95t187 24l129 -322q-78 -81 -227 -102z" />
<glyph unicode="&#xcd;" horiz-adv-x="626" d="M-10 18l305 1438q82 19 197 19q52 0 100 -4.5t70 -9.5l22 -5l-305 -1438q-86 -18 -199 -18q-55 0 -102.5 4.5t-67.5 9.5zM317 1636l267 324q93 9 177 -26t109 -95l-368 -303q-140 21 -185 100z" />
<glyph unicode="&#xce;" horiz-adv-x="626" d="M-10 18l305 1438q82 19 197 19q52 0 100 -4.5t70 -9.5l22 -5l-305 -1438q-86 -18 -199 -18q-55 0 -102.5 4.5t-67.5 9.5zM154 1700l407 297h94l283 -297q-76 -117 -195 -164l-202 143l-260 -141q-98 46 -127 162z" />
<glyph unicode="&#xcf;" horiz-adv-x="626" d="M-10 18l305 1438q84 19 197 19q52 0 100 -4.5t70 -9.5l22 -5l-305 -1438q-86 -18 -199 -18q-54 0 -101.5 4.5t-68.5 9.5zM127 1567l57 272q56 14 160 14q45 0 84.5 -3.5t56.5 -7.5l17 -3l-58 -272q-61 -15 -163 -15q-45 0 -83.5 4t-54.5 8zM559 1567l57 272q58 14 162 14 q44 0 83 -3.5t56 -7.5l17 -3l-57 -272q-62 -15 -162 -15q-45 0 -84 4t-55 8z" />
<glyph unicode="&#xd0;" horiz-adv-x="1421" d="M23 606q-2 51 13.5 126.5t37.5 119.5h143l133 623h531q164 0 275.5 -41t178.5 -129.5t76 -228.5t-31 -339q-83 -389 -282.5 -563t-530.5 -174h-530l129 606h-143zM489 295h138q90 0 149.5 34.5t109.5 132.5t87 275q29 135 32.5 223t-20 136t-64 66t-108.5 18h-137 l-70 -328h182q4 -45 -12.5 -122t-38.5 -124h-182z" />
<glyph unicode="&#xd1;" horiz-adv-x="1443" d="M-10 18l305 1438q88 19 262 19q76 0 137 -4.5t84 -9.5l23 -5l119 -665q14 -88 21 -193.5t7 -167.5v-61h10q25 219 74 446l135 641q74 19 174 19q48 0 88 -4.5t56 -9.5l16 -5l-305 -1438q-82 -18 -256 -18q-72 0 -134.5 4.5t-89.5 9.5l-26 4l-127 674q-16 91 -23.5 187.5 t-7.5 146.5v51h-10q-14 -176 -63 -407l-137 -652q-62 -18 -175 -18q-49 0 -88.5 4.5t-54.5 9.5zM618 1743q5 4 13 11t34 25t53 32t66 25t76 11q73 0 147.5 -32.5t127.5 -32.5q36 0 67 13t44 27l14 13q45 -28 65 -82.5t12 -112.5q-4 -4 -11.5 -11t-32.5 -25t-51.5 -32 t-66.5 -25t-79 -11q-59 0 -104 16.5t-85 33t-86 16.5q-33 0 -64 -13.5t-46 -26.5l-15 -14q-49 27 -69 79t-9 116z" />
<glyph unicode="&#xd2;" horiz-adv-x="1417" d="M96 766q82 383 283.5 559t509.5 176q304 0 433.5 -203.5t45.5 -595.5q-42 -197 -115.5 -339t-176.5 -227t-226.5 -124t-276.5 -39q-305 0 -432.5 200t-44.5 593zM468 504.5q-5 -93.5 15.5 -144.5t56 -71.5t93.5 -20.5q59 0 104 20.5t86.5 71.5t75.5 144t64 233 q30 141 35.5 234t-15 144.5t-56.5 72t-96 20.5q-58 0 -102 -20.5t-85.5 -72t-76.5 -145t-65 -233.5q-29 -139 -34 -232.5zM662 1853q51 60 150 95t187 24l127 -321l-225 -103z" />
<glyph unicode="&#xd3;" horiz-adv-x="1417" d="M96 766q82 383 283.5 559t509.5 176q304 0 433.5 -203.5t45.5 -595.5q-42 -197 -115.5 -339t-176.5 -227t-226.5 -124t-276.5 -39q-305 0 -432.5 200t-44.5 593zM468 504.5q-5 -93.5 15.5 -144.5t56 -71.5t93.5 -20.5q59 0 104 20.5t86.5 71.5t75.5 144t64 233 q30 141 35.5 234t-15 144.5t-56.5 72t-96 20.5q-58 0 -102 -20.5t-85.5 -72t-76.5 -145t-65 -233.5q-29 -139 -34 -232.5zM752 1665l264 324q93 9 177.5 -26t109.5 -95l-369 -305q-140 25 -182 102z" />
<glyph unicode="&#xd4;" horiz-adv-x="1417" d="M96 766q82 383 283.5 559t509.5 176q304 0 433.5 -203.5t45.5 -595.5q-42 -197 -115.5 -339t-176.5 -227t-226.5 -124t-276.5 -39q-305 0 -432.5 200t-44.5 593zM468 504.5q-5 -93.5 15.5 -144.5t56 -71.5t93.5 -20.5q59 0 104 20.5t86.5 71.5t75.5 144t64 233 q30 141 35.5 234t-15 144.5t-56.5 72t-96 20.5q-58 0 -102 -20.5t-85.5 -72t-76.5 -145t-65 -233.5q-29 -139 -34 -232.5zM547 1700l385 276h94l305 -276q-77 -117 -194 -164l-203 143l-260 -141q-102 48 -127 162z" />
<glyph unicode="&#xd5;" horiz-adv-x="1417" d="M96 766q82 383 283.5 559t509.5 176q304 0 433.5 -203.5t45.5 -595.5q-42 -197 -115.5 -339t-176.5 -227t-226.5 -124t-276.5 -39q-305 0 -432.5 200t-44.5 593zM468 504.5q-5 -93.5 15.5 -144.5t56 -71.5t93.5 -20.5q59 0 104 20.5t86.5 71.5t75.5 144t64 233 q30 141 35.5 234t-15 144.5t-56.5 72t-96 20.5q-58 0 -102 -20.5t-85.5 -72t-76.5 -145t-65 -233.5q-29 -139 -34 -232.5zM575 1784q4 4 10.5 11.5t28.5 26t46 32.5t61 26.5t74 13.5q74 3 160.5 -27t140.5 -28q36 2 67.5 16t44.5 27l13 14q46 -25 68 -78t16 -112 q-3 -4 -9 -11.5t-27 -26t-44.5 -33t-61 -27t-76.5 -13.5q-70 -3 -158 27.5t-143 28.5q-33 -2 -64 -16.5t-46 -28.5l-14 -13q-100 52 -87 191z" />
<glyph unicode="&#xd6;" horiz-adv-x="1417" d="M96 766q82 383 283.5 559t509.5 176q304 0 433.5 -203.5t45.5 -595.5q-42 -197 -115.5 -339t-176.5 -227t-226.5 -124t-276.5 -39q-305 0 -432.5 200t-44.5 593zM468 504.5q-5 -93.5 15.5 -144.5t56 -71.5t93.5 -20.5q59 0 104 20.5t86.5 71.5t75.5 144t64 233 q30 141 35.5 234t-15 144.5t-56.5 72t-96 20.5q-58 0 -102 -20.5t-85.5 -72t-76.5 -145t-65 -233.5q-29 -139 -34 -232.5zM532 1595l58 271q58 14 162 14q45 0 84 -3.5t55 -6.5l16 -4l-57 -271q-60 -14 -162 -14q-45 0 -84 3.5t-56 7.5zM965 1595l57 271q60 14 162 14 q45 0 84 -3.5t55 -6.5l16 -4l-57 -271q-60 -14 -162 -14q-45 0 -84 3.5t-55 7.5z" />
<glyph unicode="&#xd7;" horiz-adv-x="956" d="M12 365l273 225l-176 227q34 48 102 105q31 24 61.5 44t45.5 28l14 7l176 -227l276 227q43 -22 88 -79q20 -25 34.5 -51.5t19.5 -40.5l4 -13l-279 -227l183 -225q-33 -46 -103 -105q-31 -25 -61.5 -44.5t-45.5 -26.5l-14 -7l-180 226l-272 -226q-41 23 -88 80 q-19 25 -33.5 51t-19.5 39z" />
<glyph unicode="&#xd8;" horiz-adv-x="1415" d="M-49 4l170 205q-99 206 -25 557q82 383 283.5 559t509.5 176q149 0 256 -49l117 141q71 -3 128.5 -36.5t88.5 -83.5l-152 -183q122 -207 41 -588q-42 -197 -115.5 -339t-176.5 -227t-226.5 -124t-276.5 -39q-161 0 -278 60l-125 -152q-68 3 -129 36.5t-90 86.5zM477 604 l473 567q-40 37 -119 37q-58 0 -102 -20.5t-85.5 -72t-76.5 -145t-65 -233.5q-18 -90 -25 -133zM506 317q38 -49 127 -49q59 0 104 20.5t86.5 71.5t75.5 144t64 233q15 69 28 168z" />
<glyph unicode="&#xd9;" horiz-adv-x="1384" d="M84 510l201 946q75 19 196 19q55 0 103 -4.5t69 -9.5l21 -5l-203 -952q-22 -101 18 -153t138 -52q193 0 237 205l203 952q74 19 195 19q54 0 101.5 -4.5t68.5 -9.5l20 -5l-201 -946q-55 -254 -243 -395.5t-455 -141.5q-268 0 -396 142t-73 395zM631 1839q51 60 151 95 t187 24l129 -322q-78 -81 -228 -102z" />
<glyph unicode="&#xda;" horiz-adv-x="1384" d="M84 510l201 946q75 19 196 19q55 0 103 -4.5t69 -9.5l21 -5l-203 -952q-22 -101 18 -153t138 -52q193 0 237 205l203 952q74 19 195 19q54 0 101.5 -4.5t68.5 -9.5l20 -5l-201 -946q-55 -254 -243 -395.5t-455 -141.5q-268 0 -396 142t-73 395zM723 1636l266 324 q93 9 177.5 -26t109.5 -95l-369 -303q-138 21 -184 100z" />
<glyph unicode="&#xdb;" horiz-adv-x="1384" d="M84 510l201 946q75 19 196 19q55 0 103 -4.5t69 -9.5l21 -5l-203 -952q-22 -101 18 -153t138 -52q195 0 239 205l203 952q72 19 193 19q54 0 101.5 -4.5t68.5 -9.5l20 -5l-201 -946q-55 -255 -242.5 -396t-455.5 -141t-396 142t-73 395zM545 1700l407 297h95l282 -297 q-77 -117 -194 -164l-203 143l-260 -141q-98 46 -127 162z" />
<glyph unicode="&#xdc;" horiz-adv-x="1384" d="M84 510l201 946q75 19 196 19q55 0 103 -4.5t69 -9.5l21 -5l-203 -952q-22 -101 18 -153t138 -52q193 0 237 205l203 952q74 19 195 19q54 0 101.5 -4.5t68.5 -9.5l20 -5l-201 -946q-55 -254 -243 -395.5t-455 -141.5q-268 0 -396 142t-73 395zM516 1548l57 273 q58 14 160 14q45 0 84.5 -3.5t56.5 -7.5l17 -3l-57 -273q-62 -14 -164 -14q-45 0 -83.5 3.5t-54.5 6.5zM948 1548l58 273q57 14 161 14q44 0 83 -3.5t56 -7.5l17 -3l-57 -273q-62 -14 -162 -14q-45 0 -84 3.5t-56 6.5z" />
<glyph unicode="&#xdd;" horiz-adv-x="1347" d="M176 1456q85 19 232 19q56 0 104 -4.5t68 -9.5l20 -5l150 -491l362 491q96 19 217 19q56 0 106 -4.5t73 -9.5l22 -5l-680 -903l-113 -535q-71 -18 -198 -18q-61 0 -108.5 4.5t-64.5 9.5l-18 4l115 537zM696 1636l265 324q93 9 177 -26t109 -95l-368 -303 q-140 22 -183 100z" />
<glyph unicode="&#xde;" horiz-adv-x="1243" d="M-10 18l305 1438q75 19 190 19q52 0 98.5 -4.5t67.5 -9.5l21 -5l-45 -213h229q112 0 195 -39t126.5 -108.5t57.5 -164.5t-12 -206q-47 -221 -194 -335t-378 -114h-229l-55 -258q-80 -18 -193 -18q-55 0 -101 4.5t-65 9.5zM481 563h135q100 0 156.5 45t79.5 152 t-14.5 151.5t-137.5 44.5h-135z" />
<glyph unicode="&#xdf;" horiz-adv-x="1216" d="M-39 16l236 1108q42 203 195 307.5t399 104.5q220 0 317.5 -106t62.5 -289q-16 -91 -63 -185q-69 -5 -128 -38.5t-71 -92.5q-7 -34 4 -67t34.5 -60t53 -59t57.5 -64t49 -75.5t28 -93t-7 -117.5q-34 -158 -158.5 -233.5t-310.5 -75.5q-76 0 -144 10t-98 20l-30 10 q21 150 125 248q75 -22 127 -22q50 0 85 19t42 57q6 27 -10.5 57.5t-45.5 58.5t-62.5 66t-59.5 80t-37.5 100t2.5 127q12 55 40 101.5t60 74t62 46.5t49 27l20 7q29 52 31 82q9 54 -14.5 84.5t-77.5 30.5q-72 0 -114 -39.5t-60 -128.5l-230 -1080q-77 -16 -190 -16 q-53 0 -95 4t-58 8z" />
<glyph unicode="&#xe0;" horiz-adv-x="1150" d="M49 580q26 124 62.5 216t80 152t100 97t118 52t137.5 15q91 0 146 -29t83 -88l35 84q57 17 172 17q50 0 94 -4t63 -8l19 -5l-225 -1063q-74 -16 -178 -16q-47 0 -87.5 4t-57.5 8l-17 4v82q-115 -118 -277 -118q-186 0 -259 148t-9 452zM412 320.5q17 -58.5 90 -58.5 q52 0 87.5 34.5t51.5 90.5l66 311q6 59 -14 95t-70 36q-72 0 -115 -61.5t-80 -228.5q-33 -160 -16 -218.5zM475 1495q51 59 151 94.5t189 26.5l127 -324q-39 -41 -101.5 -69t-129.5 -39z" />
<glyph unicode="&#xe1;" horiz-adv-x="1150" d="M49 580q26 124 62.5 216t80 152t100 97t118 52t137.5 15q91 0 146 -29t83 -88l35 84q57 17 172 17q50 0 94 -4t63 -8l19 -5l-225 -1063q-74 -16 -178 -16q-47 0 -87.5 4t-57.5 8l-17 4v82q-115 -118 -277 -118q-186 0 -259 148t-9 452zM412 320.5q17 -58.5 90 -58.5 q52 0 87.5 34.5t51.5 90.5l66 311q6 59 -14 95t-70 36q-72 0 -115 -61.5t-80 -228.5q-33 -160 -16 -218.5zM504 1286l266 324q92 9 177 -26.5t108 -94.5l-367 -305q-142 25 -184 102z" />
<glyph unicode="&#xe2;" horiz-adv-x="1150" d="M49 580q26 124 62.5 216t80 152t100 97t118 52t137.5 15q91 0 146 -29t83 -88l35 84q57 17 172 17q50 0 94 -4t63 -8l19 -5l-225 -1063q-74 -16 -178 -16q-47 0 -87.5 4t-57.5 8l-17 4v82q-115 -118 -277 -118q-186 0 -259 148t-9 452zM369 1343l407 273h92l269 -273 q-77 -115 -189 -159l-198 141l-256 -139q-96 44 -125 157zM412 320.5q17 -58.5 90 -58.5q52 0 87.5 34.5t51.5 90.5l66 311q6 59 -14 95t-70 36q-72 0 -115 -61.5t-80 -228.5q-33 -160 -16 -218.5z" />
<glyph unicode="&#xe3;" horiz-adv-x="1150" d="M49 580q26 124 62.5 216t80 152t100 97t118 52t137.5 15q91 0 146 -29t83 -88l35 84q57 17 172 17q50 0 94 -4t63 -8l19 -5l-225 -1063q-74 -16 -178 -16q-47 0 -87.5 4t-57.5 8l-17 4v82q-115 -118 -277 -118q-186 0 -259 148t-9 452zM412 320.5q17 -58.5 90 -58.5 q52 0 87.5 34.5t51.5 90.5l66 311q6 59 -14 95t-70 36q-72 0 -115 -61.5t-80 -228.5q-33 -160 -16 -218.5zM422 1413q4 4 10.5 11t29 25.5t46 32t60 25t73.5 11.5q73 0 159 -33t140 -33q35 0 65.5 13t44.5 27l13 13q46 -28 66.5 -82.5t11.5 -111.5q-3 -4 -9.5 -11t-28 -25.5 t-45 -32t-61.5 -25t-77 -11.5q-72 0 -156 33t-139 33q-33 0 -64.5 -13t-46.5 -27l-16 -13q-47 29 -67 80.5t-9 113.5z" />
<glyph unicode="&#xe4;" horiz-adv-x="1150" d="M49 580q26 124 62.5 216t80 152t100 97t118 52t137.5 15q91 0 146 -29t83 -88l35 84q57 17 172 17q50 0 94 -4t63 -8l19 -5l-225 -1063q-74 -16 -178 -16q-47 0 -87.5 4t-57.5 8l-17 4v82q-115 -118 -277 -118q-186 0 -259 148t-9 452zM373 1219l57 270q60 14 164 14 q44 0 82.5 -3.5t55.5 -7.5l16 -3l-58 -270q-60 -15 -160 -15q-45 0 -84.5 4t-55.5 8zM412 320.5q17 -58.5 90 -58.5q52 0 87.5 34.5t51.5 90.5l66 311q6 59 -14 95t-70 36q-72 0 -115 -61.5t-80 -228.5q-33 -160 -16 -218.5zM807 1219l57 270q58 14 162 14q45 0 84 -3.5 t56 -7.5l16 -3l-58 -270q-59 -15 -161 -15q-45 0 -84 4t-55 8z" />
<glyph unicode="&#xe5;" horiz-adv-x="1150" d="M49 580q26 124 62.5 216t80 152t100 97t118 52t137.5 15q91 0 146 -29t83 -88l35 84q57 17 172 17q50 0 94 -4t63 -8l19 -5l-225 -1063q-74 -16 -178 -16q-47 0 -87.5 4t-57.5 8l-17 4v82q-115 -118 -277 -118q-186 0 -259 148t-9 452zM412 320.5q17 -58.5 90 -58.5 q52 0 87.5 34.5t51.5 90.5l66 311q6 59 -14 95t-70 36q-72 0 -115 -61.5t-80 -228.5q-33 -160 -16 -218.5zM485 1448q22 124 126.5 194t234.5 70q61 0 113.5 -17t92 -48.5t57 -83t5.5 -115.5q-15 -84 -69.5 -146t-130.5 -92t-164 -30q-138 0 -213 71t-52 197zM707 1448 q-7 -33 11.5 -56.5t61.5 -23.5q44 0 73 24t36 56q6 33 -12.5 55.5t-63.5 22.5q-43 0 -71 -23t-35 -55z" />
<glyph unicode="&#xe6;" horiz-adv-x="1599" d="M47 575q32 154 78.5 260t107.5 166t130.5 85.5t158.5 25.5q91 0 136 -26t73 -91l35 84q49 17 164 17q50 0 85 -4t45 -8l9 -5l-8 -63q58 48 126 72t128 24q176 0 236 -105.5t14 -326.5q-13 -58 -32.5 -117t-32.5 -89l-13 -30h-514q-4 -94 33 -135t122 -41q49 0 95.5 12 t68.5 24l21 13q35 -44 55.5 -110t13.5 -127q-4 -4 -12.5 -10.5t-38.5 -23.5t-63 -30t-86.5 -23.5t-110.5 -10.5q-63 0 -119.5 24.5t-87.5 77.5l-24 -68q-54 -16 -138 -16q-47 0 -85.5 4t-52.5 8l-15 4v82q-57 -59 -118 -88.5t-148 -29.5q-168 0 -233.5 146.5t-2.5 448.5z M397 370.5q0 -61.5 19.5 -85t60.5 -23.5q98 0 129 125l66 311q18 131 -74 131q-62 0 -102.5 -62t-75.5 -228q-23 -107 -23 -168.5zM1016 653h221q8 29 14 58q14 66 -3.5 104.5t-65.5 38.5q-53 0 -94 -47t-72 -154z" />
<glyph unicode="&#xe7;" horiz-adv-x="915" d="M37 539q61 290 214 431.5t400 141.5q95 0 174 -17.5t111 -34.5l31 -18q-42 -144 -162 -237q-49 29 -135 29q-99 0 -155.5 -67.5t-90.5 -221.5q-31 -149 0 -215t133 -66q41 0 81.5 8t60.5 16l20 9q72 -84 59 -238q-14 -8 -40 -20t-112.5 -33.5t-179.5 -25.5l-30 -72 q223 0 178 -207q-23 -105 -108.5 -159t-213.5 -54q-68 0 -125 12t-81 24l-23 13q5 34 28.5 74.5t51.5 58.5q51 -25 135 -28q128 -4 143 67q6 32 -9.5 48t-55.5 16h-135l-21 32l76 191q-321 75 -219 543z" />
<glyph unicode="&#xe8;" horiz-adv-x="1034" d="M43 578q60 278 211 406t389 128q204 0 303 -112t55 -326q-14 -62 -31 -120.5t-28 -85.5l-10 -28h-533q-14 -91 28 -127.5t128 -36.5q52 0 104.5 12.5t79.5 25.5l27 12q35 -35 54 -106.5t7 -139.5q-5 -4 -15 -11t-45.5 -24t-76 -30t-106.5 -24t-138 -11 q-261 0 -363.5 152.5t-39.5 445.5zM401 1489q51 60 150.5 95t187.5 26l129 -324q-74 -76 -227 -102zM440 651h226q5 16 14 62q13 65 -4.5 103t-67.5 38q-54 0 -96 -44t-72 -159z" />
<glyph unicode="&#xe9;" horiz-adv-x="1034" d="M43 578q60 278 211 406t389 128q204 0 303 -112t55 -326q-14 -62 -31 -120.5t-28 -85.5l-10 -28h-533q-14 -91 28 -127.5t128 -36.5q52 0 104.5 12.5t79.5 25.5l27 12q35 -35 54 -106.5t7 -139.5q-5 -4 -15 -11t-45.5 -24t-76 -30t-106.5 -24t-138 -11 q-261 0 -363.5 152.5t-39.5 445.5zM438 1307l264 323q92 9 177.5 -26.5t109.5 -94.5l-368 -305q-140 25 -183 103zM440 651h226q5 16 14 62q13 65 -4.5 103t-67.5 38q-54 0 -96 -44t-72 -159z" />
<glyph unicode="&#xea;" horiz-adv-x="1034" d="M43 578q60 278 211 406t389 128q204 0 303 -112t55 -326q-14 -62 -31 -120.5t-28 -85.5l-10 -28h-533q-14 -91 28 -127.5t128 -36.5q52 0 104.5 12.5t79.5 25.5l27 12q35 -35 54 -106.5t7 -139.5q-5 -4 -15 -11t-45.5 -24t-76 -30t-106.5 -24t-138 -11 q-261 0 -363.5 152.5t-39.5 445.5zM274 1321l392 272h92l284 -272q-83 -118 -190 -160l-197 142l-258 -140q-97 45 -123 158zM440 651h226q5 16 14 62q13 65 -4.5 103t-67.5 38q-54 0 -96 -44t-72 -159z" />
<glyph unicode="&#xeb;" horiz-adv-x="1034" d="M43 578q60 278 211 406t389 128q204 0 303 -112t55 -326q-14 -62 -31 -120.5t-28 -85.5l-10 -28h-533q-14 -91 28 -127.5t128 -36.5q52 0 104.5 12.5t79.5 25.5l27 12q35 -35 54 -106.5t7 -139.5q-5 -4 -15 -11t-45.5 -24t-76 -30t-106.5 -24t-138 -11 q-261 0 -363.5 152.5t-39.5 445.5zM268 1219l58 270q59 14 163 14q44 0 82.5 -3.5t54.5 -7.5l17 -3l-57 -270q-60 -15 -160 -15q-45 0 -84.5 4t-56.5 8zM440 651h226q5 16 14 62q13 65 -4.5 103t-67.5 38q-54 0 -96 -44t-72 -159zM702 1219l58 270q58 14 162 14 q45 0 84 -3.5t55 -7.5l16 -3l-57 -270q-60 -15 -162 -15q-45 0 -84 4t-56 8z" />
<glyph unicode="&#xec;" horiz-adv-x="555" d="M-37 16l225 1059q66 17 189 17q53 0 98.5 -4t64.5 -8l19 -5l-225 -1059q-70 -16 -189 -16q-54 0 -99.5 4t-63.5 8zM150 1511q49 59 149.5 94.5t187.5 26.5l129 -323q-77 -80 -227 -101z" />
<glyph unicode="&#xed;" horiz-adv-x="555" d="M-37 16l225 1059q66 17 189 17q53 0 98.5 -4t64.5 -8l19 -5l-225 -1059q-70 -16 -189 -16q-54 0 -99.5 4t-63.5 8zM205 1307l264 323q92 9 177.5 -26.5t109.5 -94.5l-369 -305q-139 24 -182 103z" />
<glyph unicode="&#xee;" horiz-adv-x="555" d="M-37 16l225 1059q66 17 189 17q53 0 98.5 -4t64.5 -8l19 -5l-225 -1059q-70 -16 -189 -16q-54 0 -99.5 4t-63.5 8zM51 1364l400 293h92l278 -293q-86 -119 -192 -160l-197 142l-258 -140q-97 45 -123 158z" />
<glyph unicode="&#xef;" horiz-adv-x="555" d="M-37 16l225 1059q66 17 187 17q54 0 100 -4t65 -8l19 -5l-225 -1059q-70 -16 -191 -16q-54 0 -99 4t-63 8zM29 1219l57 270q60 14 164 14q44 0 82.5 -3.5t54.5 -7.5l16 -3l-57 -270q-60 -15 -160 -15q-45 0 -84.5 4t-55.5 8zM463 1219l57 270q58 14 162 14q45 0 84 -3.5 t56 -7.5l16 -3l-58 -270q-60 -15 -162 -15q-45 0 -84 4t-55 8z" />
<glyph unicode="&#xf0;" horiz-adv-x="1140" d="M21 294.5q-15 107.5 14 254.5q24 115 67 200t95.5 137t123 83.5t140.5 43t157 11.5q96 0 154 -37q-16 99 -86 172l-199 -98q-68 65 -84 176l107 51q-75 30 -148 41q13 138 97 207q191 -23 338 -106l196 96q77 -70 80 -176l-110 -56q209 -245 120 -665 q-31 -148 -79.5 -260.5t-108 -186t-135 -119t-155.5 -64.5t-175 -19q-111 0 -195.5 33.5t-141.5 103.5t-72 177.5zM379 379.5q-3 -53.5 8.5 -82t32 -39t55.5 -10.5t60.5 10.5t50.5 39t45.5 82t38.5 136.5q18 85 20.5 139.5t-10.5 82.5t-34 38t-56 10q-68 0 -114 -60.5 t-77 -209.5q-17 -83 -20 -136.5z" />
<glyph unicode="&#xf1;" d="M-39 16l225 1059q66 17 189 17q53 0 94 -4t55 -8l15 -5v-78q157 115 292 115q154 0 213 -87t23 -251l-160 -758q-67 -16 -190 -16q-56 0 -101.5 4t-63.5 8l-17 4l151 713q19 100 -78 100q-53 0 -112 -41l-164 -772q-70 -16 -189 -16q-54 0 -99.5 4t-63.5 8zM340 1405 q4 4 10.5 11t29.5 25t47 32t60.5 25t73.5 11q71 0 155.5 -32.5t139.5 -32.5q36 0 67 13t45 27l13 13q47 -26 66.5 -79.5t11.5 -114.5q-3 -4 -9.5 -11t-28 -25.5t-45 -32t-61.5 -25t-77 -11.5q-72 0 -157 33t-140 33q-32 0 -63.5 -13.5t-46.5 -26.5l-15 -14q-47 29 -67 81 t-9 114z" />
<glyph unicode="&#xf2;" horiz-adv-x="1132" d="M39 575q32 151 89.5 257t138.5 166.5t177 87t218 26.5q243 0 349 -151t42 -451q-32 -151 -88.5 -255.5t-137.5 -164t-176 -85t-217 -25.5q-243 0 -350.5 148.5t-44.5 446.5zM391 1489q49 59 148 94.5t188 26.5l131 -324q-77 -77 -229 -102zM394 370.5q3 -63.5 25 -88 t68 -24.5q67 0 110 62t77 225q34 170 18 228t-84 58q-69 0 -113 -61t-79 -225q-25 -111 -22 -174.5z" />
<glyph unicode="&#xf3;" horiz-adv-x="1132" d="M39 575q32 151 89.5 257t138.5 166.5t177 87t218 26.5q243 0 349 -151t42 -451q-32 -151 -88.5 -255.5t-137.5 -164t-176 -85t-217 -25.5q-243 0 -350.5 148.5t-44.5 446.5zM394 370.5q3 -63.5 25 -88t68 -24.5q67 0 110 62t77 225q34 170 18 228t-84 58q-69 0 -113 -61 t-79 -225q-25 -111 -22 -174.5zM457 1286l264 324q92 9 177.5 -26.5t109.5 -94.5l-369 -305q-140 24 -182 102z" />
<glyph unicode="&#xf4;" horiz-adv-x="1132" d="M39 575q32 151 89.5 257t138.5 166.5t177 87t218 26.5q243 0 349 -151t42 -451q-32 -151 -88.5 -255.5t-137.5 -164t-176 -85t-217 -25.5q-243 0 -350.5 148.5t-44.5 446.5zM330 1335l383 256h92l293 -256q-81 -116 -191 -159l-198 139l-256 -137q-97 45 -123 157z M394 370.5q3 -63.5 25 -88t68 -24.5q67 0 110 62t77 225q34 170 18 228t-84 58q-69 0 -113 -61t-79 -225q-25 -111 -22 -174.5z" />
<glyph unicode="&#xf5;" horiz-adv-x="1132" d="M39 575q32 151 89.5 257t138.5 166.5t177 87t218 26.5q243 0 349 -151t42 -451q-32 -151 -88.5 -255.5t-137.5 -164t-176 -85t-217 -25.5q-243 0 -350.5 148.5t-44.5 446.5zM352 1411q4 4 10.5 11t29.5 25.5t47 32t60.5 25t73.5 11.5q73 0 157.5 -33t137.5 -33 q36 0 67.5 13t45.5 27l14 13q45 -26 64.5 -80.5t13.5 -113.5q-3 -4 -9.5 -11t-28 -25.5t-45 -32t-61.5 -25t-77 -11.5q-73 0 -157.5 33t-137.5 33q-33 0 -64.5 -13t-46.5 -27l-16 -13q-47 29 -67 80.5t-11 113.5zM394 370.5q3 -63.5 25 -88t68 -24.5q67 0 110 62t77 225 q34 170 18 228t-84 58q-69 0 -113 -61t-79 -225q-25 -111 -22 -174.5z" />
<glyph unicode="&#xf6;" horiz-adv-x="1132" d="M39 575q32 151 89.5 257t138.5 166.5t177 87t218 26.5q243 0 349 -151t42 -451q-32 -151 -88.5 -255.5t-137.5 -164t-176 -85t-217 -25.5q-243 0 -350.5 148.5t-44.5 446.5zM291 1219l57 270q60 14 164 14q44 0 82.5 -3.5t55.5 -7.5l16 -3l-58 -270q-59 -15 -159 -15 q-45 0 -84.5 4t-56.5 8zM394 370.5q3 -63.5 25 -88t68 -24.5q67 0 110 62t77 225q34 170 18 228t-84 58q-69 0 -113 -61t-79 -225q-25 -111 -22 -174.5zM725 1219l57 270q58 14 162 14q45 0 84 -3.5t56 -7.5l16 -3l-58 -270q-59 -15 -161 -15q-45 0 -84 4t-55 8z" />
<glyph unicode="&#xf7;" horiz-adv-x="1015" d="M29 465q-4 47 14 129q7 36 17.5 68.5t17.5 46.5l6 14h889q6 -47 -10 -129q-8 -36 -19.5 -68.5t-18.5 -46.5l-7 -14h-889zM217 55l68 320q61 14 174 14q48 0 90.5 -3.5t60.5 -7.5l19 -3l-68 -320q-67 -16 -176 -16q-49 0 -91 4t-60 8zM379 815l67 318q62 16 175 16 q48 0 90.5 -4t60.5 -8l19 -4l-68 -318q-67 -16 -176 -16q-49 0 -91 4t-60 8z" />
<glyph unicode="&#xf8;" horiz-adv-x="1134" d="M-45 -39l135 164q-109 153 -47 450q32 151 89.5 257t138.5 166.5t177 87t218 26.5q121 0 208 -37l101 119q52 -3 92 -27t61 -61l-116 -139q110 -157 45 -457q-32 -151 -88.5 -255.5t-137.5 -164t-176 -85t-217 -25.5q-124 0 -209 36l-118 -143q-109 6 -156 88zM408 481 l270 326q-19 24 -66 24q-69 0 -113 -61t-79 -225zM422 285q24 -27 70 -27q67 0 109.5 62t76.5 225l12 65z" />
<glyph unicode="&#xf9;" d="M25 338l157 737q66 17 189 17q55 0 101 -4t64 -8l19 -5l-154 -715q-19 -98 78 -98q63 0 117 60l162 753q67 17 186 17q54 0 100 -4t65 -8l19 -5l-225 -1059q-67 -16 -190 -16q-53 0 -94 4t-55 8l-15 4v82q-121 -118 -285 -118q-152 0 -213 97.5t-26 260.5zM428 1509 q51 60 150.5 95t187.5 26l129 -323q-75 -78 -227 -103z" />
<glyph unicode="&#xfa;" d="M25 338l157 737q66 17 189 17q55 0 101 -4t64 -8l19 -5l-154 -715q-19 -98 78 -98q63 0 117 60l162 753q67 17 186 17q54 0 100 -4t65 -8l19 -5l-225 -1059q-67 -16 -190 -16q-53 0 -94 4t-55 8l-15 4v82q-121 -118 -285 -118q-152 0 -213 97.5t-26 260.5zM465 1286 l264 324q92 9 177.5 -26.5t109.5 -94.5l-369 -305q-140 24 -182 102z" />
<glyph unicode="&#xfb;" d="M25 338l157 737q66 17 189 17q55 0 101 -4t64 -8l19 -5l-154 -715q-19 -98 78 -98q63 0 117 60l162 753q67 17 186 17q54 0 100 -4t65 -8l19 -5l-225 -1059q-67 -16 -190 -16q-53 0 -94 4t-55 8l-15 4v82q-121 -118 -285 -118q-152 0 -213 97.5t-26 260.5zM342 1364 l377 268h92l299 -268q-83 -118 -190 -160l-197 142l-258 -140q-97 45 -123 158z" />
<glyph unicode="&#xfc;" d="M25 338l157 737q66 17 189 17q55 0 101 -4t64 -8l19 -5l-154 -715q-19 -98 78 -98q63 0 117 60l162 753q67 17 186 17q54 0 100 -4t65 -8l19 -5l-225 -1059q-67 -16 -190 -16q-53 0 -94 4t-55 8l-15 4v82q-121 -118 -285 -118q-152 0 -213 97.5t-26 260.5zM315 1219 l58 270q60 14 164 14q44 0 82.5 -3.5t54.5 -7.5l16 -3l-57 -270q-60 -15 -160 -15q-45 0 -84.5 4t-56.5 8zM750 1219l57 270q58 14 162 14q45 0 84 -3.5t55 -7.5l16 -3l-57 -270q-60 -15 -162 -15q-45 0 -84 4t-55 8z" />
<glyph unicode="&#xfd;" d="M-115 -428q35 138 140 238q11 -5 29.5 -13t74 -21.5t107.5 -13.5h5q35 0 53 0.5t49.5 6t50 15t43.5 29.5t41 49t32.5 73.5t26.5 101.5l4 22q-115 -84 -287 -84q-60 0 -107 20.5t-75 55.5t-44.5 81.5t-15.5 98.5t11 107l157 737q66 17 189 17q55 0 101 -4t64 -8l19 -5 l-154 -715q-19 -98 78 -98q57 0 113 41l166 772q67 17 186 17q54 0 100 -4t65 -8l19 -5l-221 -1038q-124 -549 -647 -549q-102 0 -195 21t-135 42zM475 1296l264 324q92 9 178.5 -26.5t110.5 -94.5l-369 -305q-142 24 -184 102z" />
<glyph unicode="&#xfe;" horiz-adv-x="1155" d="M-135 -442l420 1976q73 16 188 16q51 0 96.5 -4t65.5 -8l20 -4l-110 -522q111 100 274 100q83 0 143.5 -31.5t99.5 -101.5t42 -182.5t-29 -274.5q-33 -154 -83 -262t-115.5 -168t-137.5 -86t-161 -26q-165 0 -230 104l-112 -526q-76 -17 -191 -17q-51 0 -96 4.5t-65 8.5z M420 424q-13 -67 5 -114.5t73 -47.5q44 0 73.5 18.5t59 82.5t55.5 184q18 85 22.5 140.5t-5.5 86.5t-30 43t-55 12q-48 0 -87 -37.5t-56 -103.5z" />
<glyph unicode="&#xff;" d="M-115 -428q35 138 140 238q11 -5 29.5 -13t74 -21.5t107.5 -13.5h5q35 0 53 0.5t49.5 6t50 15t43.5 29.5t41 49t32.5 73.5t26.5 101.5l4 22q-115 -84 -287 -84q-60 0 -107 20.5t-75 55.5t-44.5 81.5t-15.5 98.5t11 107l157 737q66 17 189 17q55 0 101 -4t64 -8l19 -5 l-154 -715q-19 -98 78 -98q57 0 113 41l166 772q67 17 186 17q54 0 100 -4t65 -8l19 -5l-221 -1038q-124 -549 -647 -549q-102 0 -195 21t-135 42zM317 1219l58 270q60 14 164 14q44 0 82.5 -3.5t54.5 -7.5l16 -3l-57 -270q-60 -15 -160 -15q-46 0 -85.5 4t-55.5 8z M750 1219l57 270q60 14 164 14q44 0 82.5 -3.5t54.5 -7.5l16 -3l-57 -270q-60 -15 -160 -15q-45 0 -84.5 4t-56.5 8z" />
<glyph unicode="&#x152;" horiz-adv-x="1810" d="M96 770q42 196 115.5 336.5t175.5 225.5t226 124t278 39q101 0 188 -20h824q9 -47 -9 -140q-17 -79 -51 -141h-493l-66 -309h391q8 -62 -10 -140q-15 -78 -49 -141h-391l-70 -321h514q9 -55 -10 -144q-14 -75 -49 -139h-846q-105 -20 -195 -20q-305 0 -430 201t-43 589z M439 499.5q-4 -93.5 20.5 -144t64.5 -69t107 -18.5q94 0 174 45l180 846q-68 49 -156 49q-53 0 -93 -11.5t-79.5 -42t-70.5 -83.5t-59.5 -136t-53.5 -198q-30 -144 -34 -237.5z" />
<glyph unicode="&#x153;" horiz-adv-x="1648" d="M41 571q32 151 90.5 257.5t140.5 168t178.5 88.5t217.5 27q183 0 272 -115q143 115 315 115q215 0 311.5 -110.5t51.5 -327.5q-14 -62 -32 -120.5t-29 -85.5l-11 -28h-536q-4 -92 31.5 -132t113.5 -40q52 0 105.5 12t80.5 24l27 13q35 -33 53.5 -101.5t8.5 -135.5 q-6 -4 -17 -11t-49.5 -24t-81.5 -30t-111.5 -24t-140.5 -11q-179 0 -282 118q-160 -118 -320 -118q-242 0 -346 146.5t-41 444.5zM402.5 317q16.5 -59 84.5 -59t108.5 61t74.5 226q35 170 20.5 228t-82.5 58t-111.5 -61t-78.5 -225q-32 -169 -15.5 -228zM1049 651h211 q11 36 16 62q28 141 -66 141q-50 0 -90 -46.5t-71 -156.5z" />
<glyph unicode="&#x178;" horiz-adv-x="1347" d="M176 1456q85 19 232 19q56 0 104 -4.5t68 -9.5l20 -5l150 -491l362 491q96 19 217 19q56 0 106 -4.5t73 -9.5l22 -5l-680 -903l-113 -535q-71 -18 -198 -18q-61 0 -108.5 4.5t-64.5 9.5l-18 4l115 537zM518 1593l57 271q60 14 164 14q44 0 82.5 -3.5t54.5 -6.5l17 -4 l-57 -271q-60 -14 -160 -14q-45 0 -84.5 3.5t-56.5 7.5zM952 1593l58 271q57 14 161 14q45 0 84 -3.5t55 -6.5l17 -4l-57 -271q-60 -14 -162 -14q-45 0 -84 3.5t-56 7.5z" />
<glyph unicode="&#x2c6;" horiz-adv-x="811" d="M-31 1278l408 299h94l285 -299q-87 -119 -197 -164l-205 143l-260 -141q-48 23 -80.5 65.5t-44.5 96.5z" />
<glyph unicode="&#x2dc;" horiz-adv-x="669" d="M-41 1452q5 4 13 11t34 25t53 32t66 25t76 11q72 0 146.5 -32.5t129.5 -32.5q36 0 67 13.5t44 26.5l14 13q46 -28 66 -82t12 -112q-4 -4 -11.5 -11t-32.5 -25.5t-52 -32t-67 -25t-79 -11.5q-59 0 -103.5 16.5t-85 33t-87.5 16.5q-32 0 -64 -13.5t-48 -27.5l-15 -13 q-47 27 -67 79t-9 116z" />
<glyph unicode="&#x2000;" horiz-adv-x="998" />
<glyph unicode="&#x2001;" horiz-adv-x="1997" />
<glyph unicode="&#x2002;" horiz-adv-x="998" />
<glyph unicode="&#x2003;" horiz-adv-x="1997" />
<glyph unicode="&#x2004;" horiz-adv-x="665" />
<glyph unicode="&#x2005;" horiz-adv-x="499" />
<glyph unicode="&#x2006;" horiz-adv-x="332" />
<glyph unicode="&#x2007;" horiz-adv-x="332" />
<glyph unicode="&#x2008;" horiz-adv-x="249" />
<glyph unicode="&#x2009;" horiz-adv-x="399" />
<glyph unicode="&#x200a;" horiz-adv-x="110" />
<glyph unicode="&#x2010;" horiz-adv-x="698" d="M74 465q-4 47 14 129q7 36 17.5 68.5t16.5 46.5l7 14h479q6 -47 -10 -129q-8 -36 -19 -68.5t-19 -46.5l-7 -14h-479z" />
<glyph unicode="&#x2011;" horiz-adv-x="698" d="M74 465q-4 47 14 129q7 36 17.5 68.5t16.5 46.5l7 14h479q6 -47 -10 -129q-8 -36 -19 -68.5t-19 -46.5l-7 -14h-479z" />
<glyph unicode="&#x2012;" horiz-adv-x="698" d="M74 465q-4 47 14 129q7 36 17.5 68.5t16.5 46.5l7 14h479q6 -47 -10 -129q-8 -36 -19 -68.5t-19 -46.5l-7 -14h-479z" />
<glyph unicode="&#x2013;" horiz-adv-x="1110" d="M74 465q-4 47 14 129q7 36 17.5 68.5t16.5 46.5l7 14h889q6 -47 -10 -129q-8 -36 -19.5 -68.5t-18.5 -46.5l-7 -14h-889z" />
<glyph unicode="&#x2014;" horiz-adv-x="1622" d="M74 465q-4 47 14 129q7 36 17.5 68.5t16.5 46.5l7 14h1401q6 -47 -10 -129q-8 -36 -19.5 -68.5t-18.5 -46.5l-7 -14h-1401z" />
<glyph unicode="&#x2018;" horiz-adv-x="522" d="M111 786l55 267q16 74 51 145t74 119t75.5 85.5t60.5 55.5l24 17l114 -91q-10 -10 -26 -29t-51.5 -80.5t-53.5 -125.5q31 -2 61.5 -5.5t44.5 -5.5l15 -3l-74 -349q-71 -16 -188 -16q-50 0 -95.5 4t-65.5 8z" />
<glyph unicode="&#x2019;" horiz-adv-x="503" d="M158 862q10 10 26 28.5t51 79t52 124.5q-30 2 -60 6t-45 7l-14 3l74 348q71 17 190 17q49 0 94 -4.5t66 -8.5l20 -4l-55 -266q-16 -74 -51 -145t-74 -119t-75.5 -85.5t-60.5 -54.5l-24 -18z" />
<glyph unicode="&#x201a;" horiz-adv-x="544" d="M-51 -231q10 10 26 28.5t51 78.5t52 124q-31 2 -61 6t-44 7l-14 3l74 349q69 16 188 16q49 0 94.5 -4t66.5 -8l21 -4l-57 -267q-15 -74 -50 -145t-74 -119t-76 -85.5t-61 -54.5l-24 -18z" />
<glyph unicode="&#x201c;" horiz-adv-x="958" d="M111 786l55 267q16 74 51 145t74 119t75.5 85.5t60.5 55.5l24 17l114 -91q-10 -10 -26 -29t-51.5 -80.5t-53.5 -125.5q31 -2 61.5 -5.5t44.5 -5.5l15 -3l-74 -349q-71 -16 -188 -16q-50 0 -95.5 4t-65.5 8zM545 786l55 267q16 74 51 145t74 119t75.5 85.5t60.5 55.5 l24 17l116 -91q-10 -10 -26.5 -29t-52.5 -80.5t-54 -125.5q31 -2 62 -5.5t46 -5.5l15 -3l-73 -349q-72 -16 -191 -16q-50 0 -95.5 4t-65.5 8z" />
<glyph unicode="&#x201d;" horiz-adv-x="940" d="M158 862q10 10 26 28.5t51 79t52 124.5q-30 2 -60 6t-45 7l-14 3l74 348q71 17 190 17q49 0 94 -4.5t66 -8.5l20 -4l-55 -266q-16 -74 -51 -145t-74 -119t-75.5 -85.5t-60.5 -54.5l-24 -18zM592 862q10 10 26 28.5t51 79t52 124.5q-29 2 -59 6t-45 7l-15 3l74 348 q71 17 190 17q50 0 96 -4.5t66 -8.5l21 -4l-56 -266q-16 -74 -51 -145t-74 -119t-75.5 -85.5t-60.5 -54.5l-23 -18z" />
<glyph unicode="&#x201e;" horiz-adv-x="980" d="M-51 -231q10 10 26 28.5t51 78.5t52 124q-31 2 -61 6t-44 7l-14 3l74 349q69 16 188 16q49 0 94.5 -4t66.5 -8l21 -4l-57 -267q-15 -74 -50 -145t-74 -119t-76 -85.5t-61 -54.5l-24 -18zM383 -231q10 10 26 28.5t51 78.5t52 124q-30 2 -60 6t-44 7l-15 3l74 349 q69 16 188 16q50 0 96.5 -4t67.5 -8l21 -4l-58 -267q-15 -74 -50 -145t-74 -119t-75.5 -85.5t-60.5 -54.5l-24 -18z" />
<glyph unicode="&#x2022;" horiz-adv-x="755" d="M96 578q26 120 119.5 194t210.5 74q116 0 176.5 -74t34.5 -194q-26 -118 -118 -191.5t-208 -73.5q-117 0 -179 73.5t-36 191.5z" />
<glyph unicode="&#x2026;" horiz-adv-x="1499" d="M-41 16l74 349q65 16 188 16q53 0 99 -4t66 -8l20 -4l-74 -349q-72 -16 -191 -16q-54 0 -99.5 4t-63.5 8zM438 16l74 349q63 16 186 16q54 0 100 -4t66 -8l19 -4l-74 -349q-70 -16 -191 -16q-54 0 -99 4t-63 8zM913 16l74 349q66 16 189 16q53 0 98.5 -4t64.5 -8l19 -4 l-74 -349q-69 -16 -188 -16q-54 0 -99.5 4t-64.5 8z" />
<glyph unicode="&#x202f;" horiz-adv-x="399" />
<glyph unicode="&#x2039;" horiz-adv-x="698" d="M20 410q-7 47 11 135q9 40 21 75.5t20 51.5l8 16l549 375q32 -39 45.5 -100.5t5.5 -126.5l-324 -285l203 -283q-53 -147 -147 -227z" />
<glyph unicode="&#x203a;" horiz-adv-x="696" d="M-12 268l319 283l-198 285q21 67 59 127.5t86 99.5l389 -375q8 -53 -12 -143q-8 -39 -20 -73t-19 -48l-8 -14l-547 -369q-64 87 -49 227z" />
<glyph unicode="&#x205f;" horiz-adv-x="499" />
<glyph unicode="&#x20ac;" horiz-adv-x="1228" d="M14 416q0 45 22 109t52 106h113q2 20 10 55q10 45 14 57h-141q0 45 22 109t52 106h139q203 435 664 435q65 0 124 -8.5t97.5 -20.5t67.5 -24t42 -20l13 -9q-15 -71 -58 -135t-100 -99q-90 39 -203 39q-89 0 -155 -36t-115 -122h420q0 -46 -22 -110t-52 -105h-426 q-7 -22 -14 -59q-10 -45 -11 -53h371q0 -46 -22 -110t-52 -105h-307q11 -85 61 -119.5t142 -34.5q51 0 111 10t94 20l34 9q42 -38 56.5 -108.5t-0.5 -131.5q-17 -9 -49 -22.5t-135 -36t-211 -22.5q-232 0 -353 110.5t-127 325.5h-168z" />
<glyph unicode="&#x2122;" horiz-adv-x="1261" d="M209 1348q0 41 4 61q9 43 23 66h456q6 -23 -6 -64q-7 -33 -20 -63h-150l-96 -455q-33 -8 -80 -8q-22 0 -40.5 2t-25.5 4l-8 2l96 455h-153zM621 893l120 573q3 0 43 4.5t56 4.5q56 0 92 -9l20 -151q15 -95 15 -148q36 77 75 142l86 157q42 9 97 9q24 0 49.5 -2.5 t39.5 -4.5l13 -2l-121 -573q-29 -8 -76 -8q-21 0 -38.5 2t-25.5 4l-7 2l45 215q28 132 41 170q-9 -15 -30.5 -52.5t-29.5 -51.5l-79 -142q-27 -8 -74 -8q-21 0 -38.5 2t-24.5 4l-7 2l-16 178q-10 45 -12 68q-16 -91 -33 -170l-45 -215q-27 -8 -70 -8q-19 0 -35.5 2t-22.5 4z " />
<glyph unicode="&#x25fc;" horiz-adv-x="1095" d="M0 0v1096h1096v-1096h-1096z" />
</font>
</defs>
</svg>
