<?xml version="1.0" standalone="no"?>
<!DOCTYPE svg PUBLIC "-//W3C//DTD SVG 1.1//EN" "http://www.w3.org/Graphics/SVG/1.1/DTD/svg11.dtd" >
<svg xmlns="http://www.w3.org/2000/svg">
<metadata></metadata>
<defs>
<font id="globerheavy" horiz-adv-x="1120" >
<font-face units-per-em="2048" ascent="1536" descent="-512" />
<missing-glyph horiz-adv-x="370" />
<glyph unicode="&#xfb01;" horiz-adv-x="1249" d="M25 956q0 36 3.5 70t7.5 50l3 16h131v108q0 166 110 251t347 85q144 0 275.5 -21t191.5 -42l59 -21q-8 -133 -102 -242q-19 5 -52 13t-130 21t-187 13q-76 0 -107.5 -21t-31.5 -71v-73h430q53 0 99 -4t66 -8l19 -5v-1059q-65 -16 -184 -16q-55 0 -101.5 4t-65.5 8l-20 4 v801h-243v-801q-66 -16 -187 -16q-53 0 -99.5 4t-66.5 8l-20 4v801h-131q-14 53 -14 139z" />
<glyph unicode="&#xfb02;" horiz-adv-x="1247" d="M25 952q0 82 12 140h131v108q0 166 110 251t347 85q118 0 250.5 -21t206.5 -42l73 -21v-1436q-65 -16 -184 -16q-55 0 -101.5 4t-65.5 8l-20 4v1237q-16 0 -50 2t-54 2q-76 0 -107.5 -21t-31.5 -71v-73h129q14 -55 14 -138q0 -82 -14 -137h-129v-801q-66 -16 -187 -16 q-53 0 -99.5 4t-66.5 8l-20 4v801h-131q-12 59 -12 135z" />
<glyph horiz-adv-x="0" />
<glyph horiz-adv-x="682" />
<glyph unicode=" "  horiz-adv-x="370" />
<glyph unicode="&#x09;" horiz-adv-x="370" />
<glyph unicode="&#xa0;" horiz-adv-x="370" />
<glyph unicode="!" horiz-adv-x="630" d="M113 1458q69 17 200 17q56 0 107 -4.5t74 -8.5l22 -4l-43 -991q-58 -18 -158 -18q-44 0 -83.5 4.5t-57.5 8.5l-18 5zM129 16v349q63 16 186 16q53 0 99.5 -4t67.5 -8l20 -4v-349q-68 -16 -187 -16q-54 0 -100.5 4t-66.5 8z" />
<glyph unicode="&#x22;" horiz-adv-x="839" d="M63 1458q59 17 168 17q46 0 88.5 -4.5t62.5 -8.5l19 -4l-49 -477q-43 -14 -121 -14q-34 0 -63.5 3.5t-41.5 7.5l-13 3zM436 1458q59 17 170 17q46 0 88.5 -4.5t61.5 -8.5l20 -4l-51 -477q-43 -14 -119 -14q-34 0 -63.5 3.5t-42.5 7.5l-13 3z" />
<glyph unicode="#" horiz-adv-x="1417" d="M47 338q0 41 4 75.5t8 48.5l4 15h232l84 301h-146q-16 75 -16 140q0 80 16 137h224l57 202q65 19 141 19q84 0 152 -19l-57 -202h163l58 202q68 19 149 19q79 0 144 -19l-58 -202h144q18 -61 18 -129q0 -63 -18 -148h-222l-86 -301h138q18 -47 18 -137q0 -38 -4.5 -73 t-9.5 -51l-4 -15h-213l-52 -183q-61 -18 -141 -18q-86 0 -151 18l51 183h-164l-51 -183q-64 -18 -148 -18q-83 0 -145 18l51 183h-154q-16 49 -16 137zM586 477h166l84 301h-166z" />
<glyph unicode="$" horiz-adv-x="1179" d="M63 98q-2 64 23 140q10 34 25.5 65.5t25.5 46.5l10 15q21 -6 58 -16t141.5 -26t196.5 -16q217 0 217 96q0 33 -29.5 57.5t-77.5 39t-109.5 32.5t-125.5 35t-125.5 49.5t-109.5 73.5t-77.5 109t-29.5 155q0 163 99.5 269.5t287.5 138.5l-19 237q56 17 148 17q44 0 80.5 -4 t51.5 -8l15 -5l-18 -229q84 -6 166.5 -22t122.5 -28l41 -13q4 -60 -21 -136q-11 -33 -27.5 -63.5t-26.5 -44.5l-11 -14q-154 34 -289 34q-234 0 -234 -96q0 -34 38.5 -58.5t99.5 -41.5t135.5 -36t148.5 -50.5t135 -76t99.5 -121t38.5 -177.5q0 -179 -106.5 -285.5 t-311.5 -134.5l20 -254q-51 -16 -145 -16q-41 0 -78.5 4t-54.5 8l-17 4l19 250q-104 8 -204 32t-148 44z" />
<glyph unicode="%" horiz-adv-x="1583" d="M47 1061q0 360 315 360q318 0 318 -360q0 -359 -318 -359q-153 0 -234 86t-81 273zM264 -6l789 1429q45 15 139 15q41 0 75.5 -4t48.5 -8l15 -3l-788 -1429q-46 -14 -140 -14q-41 0 -75.5 3.5t-49.5 6.5zM301 1061q0 -75 7 -111.5t18.5 -46.5t35.5 -10q23 0 34.5 10 t18.5 47t7 111t-7 111.5t-18.5 48t-34.5 10.5q-24 0 -35.5 -10.5t-18.5 -47.5t-7 -112zM903 338q0 360 316 360q317 0 317 -360q0 -358 -317 -358q-154 0 -235 85.5t-81 272.5zM1157 338q0 -74 7 -111t19 -47t36 -10q23 0 34 10t18 47t7 111t-7 111.5t-18 48t-34 10.5 q-24 0 -36 -10.5t-19 -48t-7 -111.5z" />
<glyph unicode="&#x26;" horiz-adv-x="1349" d="M43 334q0 79 28 151t75.5 126t91.5 90.5t94 66.5q-66 160 -66 295q0 162 97.5 256t293.5 94q172 0 269.5 -72t97.5 -206q0 -68 -24.5 -129.5t-71 -113t-96.5 -91.5t-117 -82q80 -111 207 -219q52 91 75 157q76 -5 144.5 -40t103.5 -89q-33 -81 -104 -176 q115 -64 223 -106q-14 -88 -71 -156t-128 -92q-138 51 -252 121q-190 -139 -424 -139q-95 0 -174 21t-141 62.5t-96.5 111t-34.5 159.5zM379 381q0 -68 44 -106.5t112 -38.5q77 0 159 40q-143 128 -239 271q-76 -84 -76 -166zM569 1098q0 -83 33 -168q111 87 111 198 q0 34 -17.5 55t-50.5 21q-76 0 -76 -106z" />
<glyph unicode="'" horiz-adv-x="466" d="M63 1458q59 17 170 17q46 0 88.5 -4.5t62.5 -8.5l19 -4l-51 -477q-43 -14 -119 -14q-34 0 -63.5 3.5t-41.5 7.5l-13 3z" />
<glyph unicode="(" horiz-adv-x="614" d="M61 655q0 155 27.5 316t66 279.5t77.5 214.5t66 146l28 50q65 4 143 -35q36 -19 62.5 -43t34.5 -39l9 -14q-8 -13 -20.5 -38.5t-45.5 -111.5t-58 -180.5t-45.5 -242.5t-20.5 -302t19.5 -300.5t47.5 -246t56 -176.5t48 -114l19 -37q-2 -6 -7.5 -17t-32 -37t-64.5 -44 q-36 -16 -72.5 -24.5t-54.5 -8.5h-18q-11 18 -29 52t-63.5 141.5t-80.5 219t-63.5 274.5t-28.5 318z" />
<glyph unicode=")" horiz-adv-x="614" d="M39 -219q8 13 20.5 38.5t45.5 111t58 180t45.5 242.5t20.5 302t-19.5 300.5t-47.5 246t-56 177t-48 114.5l-19 37q3 6 9.5 16t33.5 35.5t63 44.5q35 17 71 26t54 9h19q11 -18 28.5 -52t63 -141.5t80.5 -219t63.5 -275t28.5 -318.5t-27 -316t-66 -279t-78 -214.5 t-66 -145.5l-27 -50q-64 -4 -146 33q-38 18 -64 42.5t-33 40.5z" />
<glyph unicode="*" horiz-adv-x="655" d="M51 1208q0 105 51 162l138 -41v141q87 28 174 -2v-139l141 41q47 -56 47 -162l-133 -41l86 -125q-61 -72 -143 -96l-84 119l-84 -119q-42 11 -80.5 38t-63.5 58l82 121z" />
<glyph unicode="+" horiz-adv-x="923" d="M53 594q0 36 3.5 68.5t7.5 46.5l4 14h264v264q47 14 129 14q36 0 68.5 -3.5t46.5 -7.5l14 -3v-264h264q16 -47 16 -129q0 -36 -4 -68.5t-8 -46.5l-4 -14h-264v-264q-47 -17 -129 -17q-36 0 -68.5 4t-46.5 8l-14 5v264h-264q-15 47 -15 129z" />
<glyph unicode="," horiz-adv-x="546" d="M88 16v349q69 16 186 16q49 0 95.5 -4t68.5 -8l21 -4v-267q0 -74 -20 -145t-48.5 -119t-57.5 -85.5t-49 -54.5l-20 -18l-133 93q3 4 8 10.5t17.5 29.5t23 48t20 64t11.5 79q-31 2 -62 6t-46 7z" />
<glyph unicode="-" horiz-adv-x="698" d="M94 594q0 36 4 68.5t8 46.5l3 14h479q16 -47 16 -129q0 -36 -4 -68.5t-8 -46.5l-4 -14h-479q-15 47 -15 129z" />
<glyph unicode="." horiz-adv-x="546" d="M88 16v349q63 16 186 16q53 0 99 -4t66 -8l20 -4v-349q-66 -16 -185 -16q-55 0 -101.5 4t-65.5 8z" />
<glyph unicode="/" horiz-adv-x="1128" d="M33 -78l682 1596q79 18 188 18q50 0 98.5 -4.5t71.5 -9.5l23 -4l-682 -1596q-80 -18 -189 -18q-50 0 -98 4.5t-71 9.5z" />
<glyph unicode="0" horiz-adv-x="1288" d="M72 696q0 377 142.5 554t428.5 177q287 0 430.5 -175.5t143.5 -555.5t-143.5 -555.5t-430.5 -175.5t-429 175.5t-142 555.5zM477 696q0 -179 19 -275.5t52.5 -128.5t94.5 -32t95 33t52.5 129t18.5 274q0 180 -18.5 276t-52.5 128.5t-95 32.5t-94.5 -32.5t-52.5 -129 t-19 -275.5z" />
<glyph unicode="1" horiz-adv-x="892" d="M18 1130q121 36 203.5 98t147.5 161q75 18 192 18q51 0 99.5 -4.5t71.5 -8.5l22 -5v-1371q-74 -18 -191 -18q-51 0 -99 4.5t-70 9.5l-23 4v799q0 94 2 135q-100 -80 -250 -114q-55 45 -83.5 123.5t-21.5 168.5z" />
<glyph unicode="2" horiz-adv-x="1126" d="M57 166q0 49 8 95t19.5 83t33.5 75t40.5 65t51 59t54.5 52t61 49t61 44t63 43q127 86 173 144.5t46 128.5q0 126 -185 126q-65 0 -137 -15t-112 -29l-39 -15q-52 38 -81 110t-24 148q7 4 21 10.5t60 23.5t96 30t126.5 23.5t153.5 10.5q243 0 376.5 -106t133.5 -309 q0 -85 -21 -153t-68 -126t-109.5 -106.5t-156.5 -102.5q-24 -14 -63 -32.5t-64.5 -31.5t-52.5 -30.5t-42.5 -39.5t-18.5 -48q-4 -17 2 -33h553q28 -70 28 -155q0 -90 -28 -154h-936q-23 76 -23 166z" />
<glyph unicode="3" horiz-adv-x="1101" d="M49 55q2 68 28 142t66 114q150 -39 295 -39q120 0 167.5 38.5t47.5 123.5q0 82 -41.5 121t-144.5 39h-201q-20 60 -20 139.5t20 136.5h201q80 0 113.5 34.5t33.5 99.5q0 72 -43.5 104.5t-136.5 32.5q-68 0 -131.5 -9.5t-92.5 -19.5l-30 -10q-51 37 -83.5 108t-30.5 140 q20 9 56 21.5t142.5 34t208.5 21.5q244 0 380 -96t136 -282q0 -106 -46 -186.5t-142 -123.5q115 -43 174 -133t59 -221q0 -200 -138 -302.5t-439 -102.5q-71 0 -139 7.5t-115 19t-83 22.5t-54 19z" />
<glyph unicode="4" horiz-adv-x="1216" d="M27 440q0 42 5 78.5t10 51.5l5 16l584 803q71 18 190 18q53 0 99 -4.5t66 -8.5l20 -5v-803h155q19 -52 19 -146q0 -42 -5 -78t-9 -52l-5 -15h-155v-277q-63 -18 -172 -18q-51 0 -96 4.5t-64 9.5l-19 4v277h-608q-20 51 -20 145zM399 586h256v350z" />
<glyph unicode="5" horiz-adv-x="1087" d="M45 53q-3 154 78 256q151 -37 307 -37q118 0 168.5 40.5t50.5 121.5q0 88 -50 129t-173 41q-129 0 -289 -10v813h819q20 -66 20 -148.5t-20 -148.5h-456v-227q59 0 147 -15q383 -55 383 -434q0 -221 -149 -337.5t-430 -116.5q-71 0 -138.5 7.5t-114 18t-82.5 21.5t-54 19 z" />
<glyph unicode="6" horiz-adv-x="1138" d="M68 532q0 405 223 628t631 247q20 -63 20 -145t-20 -142q-162 -15 -262.5 -73t-149.5 -168q86 16 141 16q96 0 175.5 -28t140.5 -84t95 -147.5t34 -211.5q0 -223 -134 -333.5t-380 -110.5q-245 0 -379.5 136t-134.5 416zM446 524q0 -153 35 -214.5t101 -61.5 q63 0 99 43.5t36 132.5q0 107 -37 153t-107 46q-55 0 -124 -25q-3 -34 -3 -74z" />
<glyph unicode="7" horiz-adv-x="1042" d="M37 1260q0 39 4.5 76t8.5 54l5 17h944q18 -88 15 -176q-1 -97 -28.5 -185.5t-70 -159.5t-93.5 -141.5t-102 -146t-93 -158t-68.5 -193t-26.5 -235.5q-56 -12 -180 -12q-126 0 -182 12q0 128 20.5 240.5t55.5 196.5t77.5 157.5t90 137t90 119t80 119t57.5 124.5h-586 q-18 64 -18 154z" />
<glyph unicode="8" horiz-adv-x="1198" d="M68 348q0 218 231 352q-193 138 -193 349q0 171 130.5 274.5t359.5 103.5q223 0 350 -94.5t127 -261.5q0 -190 -170 -315q108 -68 170 -160t62 -227q0 -189 -143.5 -296.5t-401.5 -107.5q-243 0 -382.5 100t-139.5 283zM426 369q0 -62 43.5 -97.5t128.5 -35.5 q77 0 119.5 35.5t42.5 95.5q0 32 -15.5 59.5t-49.5 52.5t-64.5 42t-83.5 42q-121 -86 -121 -194zM471 1061q0 -56 45.5 -95t134.5 -81q82 71 82 164q0 58 -35 89t-100 31q-60 0 -93.5 -30t-33.5 -78z" />
<glyph unicode="9" horiz-adv-x="1138" d="M43 979q0 224 134.5 336t379.5 112q246 0 380 -135.5t134 -414.5q0 -404 -223.5 -628.5t-630.5 -248.5q-20 66 -20 146.5t20 140.5q161 14 260 71.5t150 167.5q-57 -14 -140 -14q-96 0 -175 27.5t-140 82.5t-95 146t-34 211zM424 979q0 -109 35.5 -153t105.5 -44 q62 0 125 23q4 50 4 80q0 154 -35.5 214t-101.5 60q-62 0 -97.5 -45t-35.5 -135z" />
<glyph unicode=":" horiz-adv-x="559" d="M94 16v349q64 16 187 16q53 0 99 -4t66 -8l19 -4v-349q-65 -16 -184 -16q-54 0 -100.5 4t-66.5 8zM94 713v348q64 16 187 16q53 0 99 -4t66 -8l19 -4v-348q-65 -17 -184 -17q-54 0 -100.5 4t-66.5 8z" />
<glyph unicode=";" horiz-adv-x="561" d="M94 16v349q68 16 187 16q50 0 96.5 -4t68.5 -8l21 -4v-267q0 -74 -20 -145t-48.5 -119t-57.5 -85.5t-49 -54.5l-20 -18l-135 93q3 4 8 10.5t17.5 29.5t23 48t20 64t11.5 79q-30 2 -61 6t-46 7zM94 713v348q64 16 187 16q53 0 99.5 -4t66.5 -8l20 -4v-348 q-67 -17 -186 -17q-54 0 -100.5 4t-66.5 8z" />
<glyph unicode="&#x3c;" horiz-adv-x="858" d="M53 596q0 38 3.5 72t7.5 48l4 15l684 293q14 -43 14 -131q0 -37 -3.5 -70t-6.5 -47l-4 -14l-396 -170l396 -168q14 -43 14 -129q0 -38 -3.5 -71.5t-6.5 -47.5l-4 -14l-684 293q-15 57 -15 141z" />
<glyph unicode="=" horiz-adv-x="1040" d="M102 392q0 74 13 126h815q15 -55 14.5 -129t-14.5 -131h-815q-13 60 -13 134zM102 802q0 74 13 126h815q15 -55 14.5 -129t-14.5 -131h-815q-13 60 -13 134z" />
<glyph unicode="&#x3e;" horiz-adv-x="856" d="M92 295q0 38 3.5 70.5t6.5 45.5l4 13l396 168l-396 170q-14 47 -14 131q0 39 3.5 72t6.5 46l4 13l685 -293q14 -49 14 -135q0 -37 -3.5 -72.5t-7.5 -51.5l-3 -17l-685 -293q-14 47 -14 133z" />
<glyph unicode="?" horiz-adv-x="948" d="M47 1339q17 8 48 20.5t129.5 33t199.5 20.5q477 0 477 -358q0 -75 -19.5 -134t-51 -96.5t-69.5 -67.5t-76 -55t-69.5 -51t-51 -63t-19.5 -84q-52 -25 -156 -25q-44 0 -83 6.5t-56 12.5l-17 6q0 83 16 147t41.5 102.5t56.5 67.5t61.5 49.5t56 40t41.5 48t16 65.5 q0 60 -37.5 84.5t-115.5 24.5q-53 0 -106 -12t-80 -24l-27 -12q-57 40 -84.5 107.5t-24.5 146.5zM205 16v349q61 16 184 16q53 0 99.5 -4t66.5 -8l20 -4v-349q-67 -16 -186 -16q-54 0 -100 4t-65 8z" />
<glyph unicode="@" horiz-adv-x="1853" d="M53 571q0 257 117 447.5t320 288.5t466 98q389 0 609.5 -212t220.5 -572q0 -212 -115.5 -329.5t-296.5 -117.5q-222 0 -303 113q-72 -113 -262 -113q-152 0 -234.5 92t-82.5 303q0 213 82.5 305.5t234.5 92.5q138 0 217 -60v49q44 21 148 21q45 0 80.5 -5.5t47.5 -10.5 l13 -5v-462q0 -107 78 -107q60 0 89 52.5t29 178.5q0 266 -144.5 415t-412.5 149q-286 0 -443 -157.5t-157 -453.5q0 -129 32.5 -230.5t88 -168t133 -110t162.5 -62t182 -18.5q287 0 502 124q39 -18 67 -65t33 -98q-289 -193 -630 -193q-137 0 -263.5 31t-237.5 97.5 t-193 161.5t-129.5 231.5t-47.5 299.5zM799 569q0 -113 24.5 -153.5t91.5 -40.5q108 0 111 133v137q-5 121 -111 121q-68 0 -92 -40.5t-24 -156.5z" />
<glyph unicode="A" horiz-adv-x="1400" d="M2 18l449 1438q87 19 251 19q76 0 138.5 -4.5t87.5 -9.5l24 -5l447 -1438q-68 -18 -201 -18q-54 0 -100.5 4.5t-65.5 9.5l-20 4l-82 271h-473l-82 -271q-70 -18 -189 -18q-51 0 -97 4.5t-67 9.5zM537 557h311l-98 328q-18 60 -31.5 122.5t-18.5 94.5l-4 33h-8 q-8 -117 -49 -250z" />
<glyph unicode="B" horiz-adv-x="1298" d="M119 0v1475h626q216 0 333.5 -105.5t117.5 -302.5q0 -104 -44.5 -182t-123.5 -125q99 -44 154 -129t55 -209q0 -213 -124.5 -317.5t-358.5 -104.5h-635zM508 272h172q83 0 124.5 40t41.5 128q0 90 -41 129t-125 39h-172v-336zM508 885h166q67 0 103 41.5t36 117.5 q0 78 -35.5 119t-103.5 41h-166v-319z" />
<glyph unicode="C" horiz-adv-x="1179" d="M66 737q0 372 172.5 568t496.5 196q116 0 215.5 -21t141.5 -42l41 -21v-8q0 -151 -111 -250q-104 41 -229 41q-79 0 -135 -22.5t-97 -75.5t-60.5 -143.5t-19.5 -223.5t19.5 -222.5t61 -141.5t97 -73.5t134.5 -21.5q59 0 120.5 11.5t92.5 22.5l32 12q55 -44 86 -116 q29 -67 29 -140v-9q-5 -3 -16 -9t-49 -20.5t-82.5 -25.5t-117.5 -20t-153 -9q-324 0 -496.5 196t-172.5 568z" />
<glyph unicode="D" horiz-adv-x="1376" d="M119 0v1475h530q331 0 494.5 -174.5t163.5 -563.5t-163.5 -563t-494.5 -174h-530zM508 295h137q67 0 111.5 18.5t77.5 67t48 135.5t15 221q0 136 -15 223t-48 135.5t-77 66.5t-112 18h-137v-885z" />
<glyph unicode="E" horiz-adv-x="1155" d="M119 0v1475h946q20 -62 20 -138q0 -93 -20 -151h-557v-299h455q20 -70 20 -139q0 -82 -20 -144h-455v-315h577q21 -61 21 -142q0 -91 -21 -147h-966z" />
<glyph unicode="F" horiz-adv-x="1110" d="M117 18v1457h925q21 -69 21 -144q0 -84 -21 -145h-536v-326h475q20 -48 20 -141t-20 -148h-475v-553q-80 -18 -197 -18q-51 0 -99 4.5t-70 9.5z" />
<glyph unicode="G" horiz-adv-x="1318" d="M66 737q0 369 181.5 563.5t522.5 194.5q81 0 156.5 -9.5t125 -23t87 -27t54.5 -23.5l17 -9q-6 -156 -106 -262q-16 6 -43 15t-103.5 24.5t-144.5 15.5q-82 0 -143 -22.5t-108 -74.5t-71 -143t-24 -221t22 -219t66.5 -139.5t103 -72t140.5 -21.5l65 2v305h-188 q-21 51 -21 143q0 43 5.5 79.5t10.5 51.5l5 15h555v-807q-7 -4 -19.5 -10t-56 -22t-93 -28t-129 -22t-163.5 -10q-341 0 -522.5 194t-181.5 563z" />
<glyph unicode="H" horiz-adv-x="1398" d="M117 18v1438q77 19 192 19q52 0 101 -4.5t72 -9.5l24 -5v-547h385v547q81 19 194 19q51 0 100.5 -4.5t72.5 -9.5l24 -5v-1438q-80 -18 -195 -18q-55 0 -104 4.5t-71 9.5l-21 4v584h-385v-584q-82 -18 -195 -18q-55 0 -103.5 4.5t-69.5 9.5z" />
<glyph unicode="I" horiz-adv-x="622" d="M117 18v1438q77 19 192 19q52 0 101 -4.5t72 -9.5l24 -5v-1438q-82 -18 -195 -18q-55 0 -103.5 4.5t-69.5 9.5z" />
<glyph unicode="J" horiz-adv-x="976" d="M16 55v10q0 66 26 139q27 78 73 126q90 -35 184 -35q91 0 134.5 42t43.5 146v973q72 19 195 19q52 0 100.5 -4.5t71.5 -9.5l22 -5v-1042q0 -210 -125.5 -322t-351.5 -112q-67 0 -130 7.5t-105.5 19t-75 22.5t-47.5 19z" />
<glyph unicode="K" horiz-adv-x="1318" d="M117 18v1438q73 19 196 19q55 0 103 -4.5t69 -9.5l21 -5v-551h65l303 551q97 19 197 19q101 0 209 -19l-367 -661l426 -777q-94 -18 -223 -18q-61 0 -114 4.5t-76 9.5l-23 4l-332 609h-65v-609q-62 -18 -195 -18q-55 0 -103.5 4.5t-69.5 9.5z" />
<glyph unicode="L" horiz-adv-x="1107" d="M119 0v1456q77 19 192 19q52 0 101 -4.5t72 -9.5l24 -5v-1151h561q21 -70 21 -153q0 -66 -21 -152h-950z" />
<glyph unicode="M" horiz-adv-x="1699" d="M117 18v1438q111 19 241 19q65 0 123 -4.5t83 -9.5l26 -5l139 -377q84 -235 109 -389h10q9 106 55 250q24 74 56 160t73 193t62 163q76 19 231 19q161 0 258 -19v-1438q-67 -18 -182 -18q-53 0 -99.5 4.5t-67.5 9.5l-20 4v410q0 167 14.5 363t24.5 260h-12q-1 -3 -18 -65 t-32 -115t-39 -129t-44 -132l-121 -327q-54 -17 -158 -17q-46 0 -84 4t-53 8l-14 5l-117 315q-70 187 -135 453h-12q11 -62 27 -251.5t16 -355.5v-426q-62 -18 -168 -18q-47 0 -90 4.5t-63 9.5z" />
<glyph unicode="N" horiz-adv-x="1439" d="M117 18v1438q84 19 258 19q76 0 138 -4.5t86 -9.5l24 -5l260 -665q33 -88 62.5 -193.5t42.5 -167.5l13 -61h9q-21 219 -21 446v641q70 19 170 19q47 0 88 -4.5t59 -9.5l17 -5v-1438q-78 -18 -252 -18q-72 0 -135.5 4.5t-91.5 9.5l-27 4l-270 674q-35 91 -63 187.5 t-39 146.5l-11 51h-10q25 -176 25 -407v-652q-57 -18 -170 -18q-49 0 -89.5 4.5t-56.5 9.5z" />
<glyph unicode="O" horiz-adv-x="1427" d="M66 737q0 385 170.5 574.5t476.5 189.5q307 0 477 -187.5t170 -576.5t-169 -576.5t-478 -187.5t-478 187.5t-169 576.5zM483 737q0 -139 15 -232.5t46 -144.5t71 -71.5t98 -20.5q47 0 82 12.5t64 43.5t47 84t28 135t10 194q0 113 -10 195t-28 135t-47 84.5t-64 44 t-82 12.5q-58 0 -98 -20.5t-71 -71.5t-46 -145t-15 -234z" />
<glyph unicode="P" horiz-adv-x="1249" d="M117 18v1457h583q241 0 374.5 -125t133.5 -355t-133.5 -355.5t-374.5 -125.5h-194v-496q-72 -18 -193 -18q-56 0 -105 4.5t-70 9.5zM506 809h137q78 0 121 47t43 139q0 93 -43 140t-121 47h-137v-373z" />
<glyph unicode="Q" horiz-adv-x="1429" d="M68 737q0 385 170.5 574.5t476.5 189.5q307 0 477 -187.5t170 -576.5q0 -412 -195 -604q114 -66 265 -94q-6 -105 -57 -183.5t-115 -109.5q-104 38 -191 105t-147 147q-88 -25 -207 -25q-309 0 -478 187.5t-169 576.5zM485 737q0 -139 15 -232.5t46 -144.5t71 -71.5 t98 -20.5q47 0 82 12.5t64 43.5t47 84t28 135t10 194q0 113 -10 195t-28 135t-47 84.5t-64 44t-82 12.5q-58 0 -98 -20.5t-71 -71.5t-46 -145t-15 -234z" />
<glyph unicode="R" horiz-adv-x="1306" d="M117 18v1457h588q252 0 379.5 -124.5t127.5 -336.5q0 -142 -57.5 -246.5t-171.5 -157.5l311 -592q-80 -18 -215 -18q-60 0 -113.5 4.5t-76.5 9.5l-23 4l-268 535h-92v-535q-78 -18 -193 -18q-56 0 -105 4.5t-70 9.5zM506 844h141q160 0 160 170t-160 170h-141v-340z" />
<glyph unicode="S" horiz-adv-x="1202" d="M57 82q0 76 26 156t67 133q19 -7 54 -17.5t138 -27.5t201 -17q205 0 205 117q0 23 -11.5 42t-28 32.5t-48 27.5t-56.5 22.5t-69 22.5q-163 50 -232 86q-195 101 -225 296q-6 37 -6 79q0 216 141 341.5t424 125.5q124 0 236 -18.5t162 -36.5l50 -19v-12q-1 -73 -23 -141 q-24 -74 -69 -127q-137 39 -291 39q-229 0 -229 -121q0 -23 13.5 -42t34 -32t56 -26.5t67 -23t79.5 -24t82 -26.5q58 -21 104 -44t94.5 -60t80.5 -82t52.5 -111t20.5 -145q0 -476 -579 -476q-89 0 -175 11t-146 27.5t-107 32.5t-70 27z" />
<glyph unicode="T" horiz-adv-x="1185" d="M25 1311q0 44 5 85t10 60l5 19h1096q20 -66 20 -160q0 -41 -5 -81.5t-10 -60.5l-5 -20h-348v-1135q-82 -18 -195 -18q-55 0 -103.5 4.5t-70.5 9.5l-21 4v1135h-358q-20 64 -20 158z" />
<glyph unicode="U" horiz-adv-x="1384" d="M109 510v946q71 19 192 19q55 0 104 -4.5t71 -9.5l22 -5v-952q0 -205 198 -205q195 0 195 205v952q69 19 190 19q54 0 102.5 -4.5t70.5 -9.5l22 -5v-946q0 -254 -158.5 -395.5t-425.5 -141.5q-268 0 -425.5 142t-157.5 395z" />
<glyph unicode="V" horiz-adv-x="1392" d="M6 1450q84 25 209 25q52 0 98 -5.5t66 -10.5l20 -5l222 -754q27 -97 46.5 -186.5t24.5 -130.5l6 -41h9q21 139 84 360l221 752q55 21 182 21q56 0 104 -5.5t68 -10.5l20 -5l-430 -1436q-100 -18 -260 -18q-73 0 -138 4.5t-94 9.5l-28 4z" />
<glyph unicode="W" horiz-adv-x="2052" d="M23 1456q75 19 198 19q52 0 96.5 -4.5t62.5 -9.5l19 -5l162 -764q16 -79 28.5 -167t17.5 -137l5 -48h9q8 170 41 350l143 766q75 19 233 19q68 0 127 -4.5t84 -9.5l25 -5l139 -764q15 -84 24 -172t11 -134l2 -46h8q14 157 53 350l164 766q63 19 174 19q47 0 92.5 -4.5 t66.5 -9.5l22 -5l-320 -1438q-84 -18 -246 -18q-76 0 -140.5 4.5t-91.5 9.5l-26 4l-131 730q-16 99 -26 196t-11 144l-2 47h-10q0 -168 -41 -387l-135 -730q-99 -18 -256 -18q-159 0 -254 18z" />
<glyph unicode="X" horiz-adv-x="1333" d="M-12 18l411 752l-368 686q75 19 231 19q58 0 111.5 -4.5t77.5 -9.5l24 -5l213 -391l217 391q97 19 199 19q81 0 201 -19l-371 -680l412 -756q-72 -20 -213 -20q-64 0 -119 4.5t-78 9.5l-23 4l-260 474l-262 -474q-99 -18 -184 -18q-120 0 -219 18z" />
<glyph unicode="Y" horiz-adv-x="1351" d="M2 1456q80 19 227 19q56 0 108 -4.5t75 -9.5l24 -5l254 -491l258 491q82 19 203 19q56 0 107.5 -4.5t74.5 -9.5l23 -5l-488 -903v-535q-67 -18 -194 -18q-60 0 -109 4.5t-67 9.5l-19 4v537z" />
<glyph unicode="Z" horiz-adv-x="1277" d="M41 158q0 83 20 151l650 858h-592q-19 78 -19 158q0 76 19 150h1061q22 -68 22 -148q0 -83 -22 -160l-664 -858h690q17 -80 17 -153q0 -80 -17 -156h-1145q-20 64 -20 158z" />
<glyph unicode="[" horiz-adv-x="714" d="M137 -348v2007h520q15 -47 15 -131q0 -38 -4 -70.5t-8 -45.5l-3 -13h-170v-1487h170q15 -45 15 -131q0 -37 -4 -69.5t-8 -45.5l-3 -14h-520z" />
<glyph unicode="\" horiz-adv-x="1130" d="M33 1518q81 18 194 18q48 0 95.5 -4.5t70.5 -9.5l23 -4l682 -1596q-80 -18 -193 -18q-48 0 -95.5 4.5t-71.5 9.5l-23 4z" />
<glyph unicode="]" horiz-adv-x="716" d="M43 -219q0 38 3.5 71t7.5 46l3 14h172v1487h-172q-14 43 -14 129q0 37 3.5 70t7.5 47l3 14h523v-2007h-523q-14 45 -14 129z" />
<glyph unicode="^" horiz-adv-x="1144" d="M47 897l381 563q59 15 143 15q37 0 73 -3.5t54 -7.5l17 -4l383 -563q-64 -14 -156 -14q-42 0 -82.5 3.5t-59.5 7.5l-20 3l-209 309l-209 -309q-67 -14 -161 -14q-41 0 -79.5 3.5t-56.5 7.5z" />
<glyph unicode="_" horiz-adv-x="1099" d="M70 -154q0 36 3.5 64.5t6.5 38.5l4 10h930q16 -31 16 -113q0 -36 -4 -64t-8 -38l-4 -10h-930q-14 30 -14 112z" />
<glyph unicode="`" horiz-adv-x="487" d="M-12 1577q38 59 130.5 94.5t182.5 26.5l197 -324q-58 -77 -205 -102z" />
<glyph unicode="a" horiz-adv-x="1060" d="M33 340q0 174 104 253t318 79q59 0 153 -8v24q0 123 -149 123q-54 0 -114 -10.5t-93 -21.5l-33 -11q-47 39 -80 115q-14 33 -20 67.5t-5 53.5l1 18q7 4 20 10t56 21.5t88 27.5t112.5 21.5t134.5 9.5q235 0 344 -93t109 -288v-715q-60 -16 -160 -16q-44 0 -83.5 4t-56.5 8 l-17 4l-33 90q-69 -126 -279 -126q-317 0 -317 360zM399 334q0 -71 23 -100t70 -29q58 0 87 51.5t29 138.5v60q-29 4 -92 4q-59 0 -88 -29t-29 -96z" />
<glyph unicode="b" horiz-adv-x="1153" d="M90 16v1504q71 16 184 16q51 0 98 -4t68 -8l21 -4v-512q90 104 250 104q89 0 157.5 -29.5t120.5 -94.5t79.5 -176.5t27.5 -266.5q0 -156 -27.5 -267.5t-80 -175.5t-120.5 -93t-157 -29q-160 0 -250 100v-64q-72 -16 -187 -16q-50 0 -96 4t-67 8zM461 410 q0 -69 31.5 -108.5t82.5 -39.5q47 0 73.5 23.5t40 85t13.5 174.5q0 165 -28.5 224.5t-98.5 59.5q-48 0 -79.5 -40.5t-34.5 -112.5v-266z" />
<glyph unicode="c" horiz-adv-x="919" d="M53 539q0 290 123.5 431.5t372.5 141.5q95 0 177 -17.5t116 -34.5l35 -18q-5 -71 -34 -138t-75 -111q-55 30 -141 30q-100 0 -142.5 -63t-42.5 -215q0 -148 44.5 -208.5t148.5 -60.5q41 0 79 8t56 16l18 9q44 -42 72.5 -109.5t36.5 -140.5q-5 -3 -14.5 -8.5t-42 -19 t-70 -24t-97.5 -19t-124 -8.5q-249 0 -372.5 134.5t-123.5 424.5z" />
<glyph unicode="d" horiz-adv-x="1153" d="M57 539q0 303 98 438t289 135q155 0 248 -104v510q72 18 187 18q50 0 96 -4t67 -8l21 -4v-1504q-70 -16 -174 -16q-47 0 -88.5 4t-59.5 8l-18 4l-16 82q-90 -118 -263 -118q-89 0 -157.5 29t-121.5 93t-80.5 174t-27.5 263zM451 539q0 -160 28.5 -218.5t100.5 -58.5 q51 0 79 34.5t33 90.5v311q-6 59 -34 95t-78 36q-49 0 -76 -24.5t-40 -87t-13 -178.5z" />
<glyph unicode="e" horiz-adv-x="1052" d="M53 545q0 288 130.5 427.5t371.5 139.5q217 0 337 -110.5t120 -327.5q0 -62 -6 -120.5t-12 -85.5l-5 -28h-545q16 -92 62 -128t129 -36q52 0 102.5 12.5t74.5 25.5l24 12q43 -35 77 -106.5t37 -139.5q-5 -4 -15 -11t-45.5 -24t-76 -30t-106.5 -24t-138 -11 q-258 0 -387 137.5t-129 427.5zM440 651h217q2 20 2 62q0 141 -94 141q-109 0 -125 -203z" />
<glyph unicode="f" horiz-adv-x="749" d="M20 950q0 54 15 127h131v123q0 167 93.5 251.5t307.5 84.5q83 0 157 -16t107 -32l33 -15q-11 -139 -104 -242q-43 26 -135 26q-86 0 -86 -92v-88h184q16 -52 16 -127q0 -74 -16 -133h-184v-801q-66 -16 -187 -16q-53 0 -99.5 4t-66.5 8l-20 4v801h-131q-15 73 -15 133z " />
<glyph unicode="g" horiz-adv-x="1130" d="M4 -233q0 50 17 94t45.5 75t55.5 52t58 37q-43 53 -43 133q0 130 125 231q-207 95 -207 338q0 181 119.5 283t345.5 102q166 0 273 -55l299 55q24 -50 24 -130.5t-24 -133.5l-131 22q24 -64 24 -143q0 -180 -118.5 -281.5t-346.5 -101.5h-47q-16 -26 -16 -52q0 -9 2 -18 q6 -23 37.5 -37.5t77 -19.5t103 -12.5t115.5 -15.5t113 -30t98 -54.5t69 -91t26 -136.5q0 -182 -157 -289.5t-435 -107.5q-250 0 -376 73t-126 214zM336 -160q0 -121 172 -121q119 0 177 29.5t58 81.5q0 40 -50.5 56.5t-161 25.5t-164.5 20q-31 -45 -31 -92zM416 727 q0 -88 25.5 -126t78.5 -38t79 38t26 126q0 168 -105 168q-52 0 -78 -39.5t-26 -128.5z" />
<glyph unicode="h" d="M90 16v1504q63 16 186 16q53 0 99 -4t66 -8l20 -4v-504q110 96 268 96q151 0 229 -81.5t78 -221.5v-793q-63 -16 -186 -16q-56 0 -102.5 4t-65.5 8l-18 4v713q0 100 -99 100q-55 0 -104 -38v-775q-66 -16 -185 -16q-54 0 -100.5 4t-65.5 8z" />
<glyph unicode="i" horiz-adv-x="555" d="M92 16v1059q64 17 187 17q53 0 99.5 -4t66.5 -8l20 -5v-1059q-67 -16 -186 -16q-54 0 -100.5 4t-66.5 8zM92 1229v317q64 17 187 17q53 0 99.5 -4.5t66.5 -8.5l20 -4v-317q-67 -17 -186 -17q-54 0 -100.5 4t-66.5 8z" />
<glyph unicode="j" horiz-adv-x="557" d="M-131 -385q0 52 10.5 97.5t20.5 65.5l10 19q37 -8 72 -8q56 0 83 29t27 100v1157q68 17 187 17q50 0 96.5 -4t68.5 -8l21 -5v-1255q0 -332 -356 -332q-65 0 -123 12t-84 24l-25 11q-8 37 -8 80zM92 1223v317q64 16 187 16q53 0 99.5 -4t66.5 -8l20 -4v-317 q-67 -17 -186 -17q-54 0 -100.5 4t-66.5 8z" />
<glyph unicode="k" horiz-adv-x="1093" d="M90 18v1506q70 12 189 12q49 0 94.5 -3t66.5 -6l21 -3v-824h41l180 375q55 17 178 17q54 0 103.5 -4t72.5 -8l23 -5l-238 -485l281 -572q-76 -20 -207 -20q-53 0 -101.5 5t-71.5 10l-22 5l-202 420h-37v-420q-59 -18 -182 -18q-54 0 -101 4.5t-68 9.5z" />
<glyph unicode="l" horiz-adv-x="555" d="M92 16v1504q64 16 187 16q53 0 99 -4t66 -8l19 -4v-1504q-65 -16 -184 -16q-54 0 -100.5 4t-66.5 8z" />
<glyph unicode="m" horiz-adv-x="1675" d="M90 16v1059q63 17 186 17q52 0 98 -4t66 -8l21 -5v-63q46 42 115.5 71t148.5 29q173 0 256 -125q122 125 309 125q148 0 224.5 -82.5t76.5 -228.5v-785q-73 -16 -186 -16q-53 0 -99 4t-66 8l-19 4v711q0 102 -95 102q-56 0 -100 -41v-772q-73 -16 -184 -16q-53 0 -99.5 4 t-66.5 8l-21 4v711q0 102 -94 102q-56 0 -100 -38v-775q-72 -16 -185 -16q-53 0 -99.5 4t-66.5 8z" />
<glyph unicode="n" d="M90 16v1059q63 17 186 17q53 0 99 -4t66 -8l20 -5v-59q110 96 268 96q151 0 229 -81.5t78 -221.5v-793q-63 -16 -186 -16q-56 0 -102.5 4t-65.5 8l-18 4v713q0 100 -99 100q-54 0 -104 -41v-772q-66 -16 -185 -16q-54 0 -100.5 4t-65.5 8z" />
<glyph unicode="o" horiz-adv-x="1142" d="M53 545q0 567 520 567q517 0 517 -567q0 -565 -517 -565q-520 0 -520 565zM442 545q0 -163 31 -225t100 -62q67 0 97 62t30 225q0 164 -29.5 225t-97.5 61q-46 0 -73.5 -23.5t-42.5 -87t-15 -175.5z" />
<glyph unicode="p" horiz-adv-x="1153" d="M90 -442v1517q71 17 184 17q51 0 98 -4t68 -8l21 -5v-63q90 100 256 100q379 0 379 -565q0 -567 -381 -567q-164 0 -254 104v-526q-72 -17 -187 -17q-50 0 -96 4.5t-67 8.5zM461 424q0 -66 29 -114t85 -48q44 0 69.5 18.5t41.5 82.5t16 184q0 113 -14 175t-40.5 84.5 t-72.5 22.5q-48 0 -79.5 -37.5t-34.5 -103.5v-264z" />
<glyph unicode="q" horiz-adv-x="1153" d="M57 545q0 154 27 264.5t78.5 176t120.5 96t159 30.5q163 0 250 -100v63q70 17 185 17q51 0 97.5 -4t67.5 -8l21 -5v-1517q-69 -17 -184 -17q-51 0 -98 4.5t-68 8.5l-21 4v524q-89 -102 -250 -102q-385 0 -385 565zM451 545q0 -113 14.5 -176t40.5 -85t72 -22 q52 0 82 45.5t32 112.5v262q0 70 -30.5 108.5t-83.5 38.5q-46 0 -72 -22t-40.5 -85t-14.5 -177z" />
<glyph unicode="r" horiz-adv-x="849" d="M90 16v1059q67 17 186 17q54 0 100 -4t66 -8l19 -5v-106q100 141 223 141q92 0 180 -57q-6 -90 -44.5 -159.5t-108.5 -131.5q-43 37 -97 37q-82 0 -153 -80v-703q-72 -16 -185 -16q-53 0 -99.5 4t-66.5 8z" />
<glyph unicode="s" horiz-adv-x="935" d="M49 66q0 146 82 237q129 -45 270 -45q76 0 109 16.5t33 51.5q0 16 -11 29t-35 23.5t-46.5 18t-62.5 19t-66 20.5q-55 19 -96 41t-82 58.5t-63 93.5t-22 131q0 169 107 260.5t323 91.5q105 0 195.5 -16.5t129.5 -32.5l38 -16q1 -12 1 -23q0 -139 -79 -215q-115 33 -246 33 q-129 0 -129 -68q0 -16 12.5 -28.5t38.5 -22.5t53 -17.5t68.5 -19t71.5 -22.5q52 -19 92 -42.5t78 -61t59 -93.5t21 -127q0 -173 -108.5 -266.5t-335.5 -93.5q-111 0 -211 21.5t-144 42.5z" />
<glyph unicode="t" horiz-adv-x="813" d="M14 946q0 37 3.5 70t7.5 47l4 14h141v189q68 32 172 46q62 8 122 9q40 0 79 -4v-240h198q15 -47 15 -129q0 -35 -4 -67.5t-8 -48.5l-3 -15h-198v-424q0 -79 33.5 -109t103.5 -30q22 0 45 2.5t35 5.5l12 2q29 -47 29 -145q0 -32 -3.5 -61t-7.5 -42l-4 -12 q-102 -24 -215 -24q-219 0 -310 92.5t-91 314.5v430h-141q-15 51 -15 129z" />
<glyph unicode="u" d="M84 283v792q63 17 186 17q55 0 101.5 -4t66.5 -8l19 -5v-715q0 -98 98 -98q54 0 104 41v772q66 17 185 17q54 0 100.5 -4t65.5 -8l20 -5v-1059q-63 -16 -186 -16q-53 0 -99 4t-66 8l-20 4v60q-110 -96 -268 -96q-151 0 -229 81.5t-78 221.5z" />
<glyph unicode="v" horiz-adv-x="1099" d="M2 1075q80 17 193 17q52 0 98.5 -4t66.5 -8l21 -5l106 -368q25 -90 41.5 -185t20.5 -144l4 -50h8q15 176 74 381l110 366q68 17 170 17q48 0 93 -4t66 -8l20 -5l-312 -1059q-86 -16 -231 -16q-67 0 -124 4t-81 8l-24 4z" />
<glyph unicode="w" horiz-adv-x="1640" d="M10 1075q67 17 178 17q52 0 92.5 -4t55.5 -8l14 -5l92 -366q39 -170 58 -377h6q16 217 53 377l86 366q83 17 189 17q50 0 96 -4t67 -8l21 -5l86 -364q36 -166 51 -379h8q11 191 56 377l90 366q55 17 157 17q47 0 87.5 -4t57.5 -8l17 -5l-244 -1059q-81 -16 -221 -16 q-137 0 -221 16l-72 324q-41 190 -45 438h-8q-8 -265 -43 -438l-69 -324q-93 -16 -216 -16q-130 0 -229 16z" />
<glyph unicode="x" horiz-adv-x="1112" d="M-16 16l323 539l-287 520q88 17 205 17q55 0 105.5 -4t73.5 -8l24 -5l141 -264l158 264q63 17 172 17q51 0 100.5 -4t72.5 -8l24 -5l-299 -497l327 -562q-87 -16 -204 -16q-54 0 -104.5 4t-74.5 8l-24 4l-178 318l-191 -318q-72 -16 -176 -16q-50 0 -97 4t-69 8z" />
<glyph unicode="y" horiz-adv-x="1140" d="M0 1075q74 17 197 17q57 0 103.5 -4t64.5 -8l18 -5l139 -422q24 -73 39.5 -149.5t18.5 -117.5l4 -40h8q10 143 57 307l123 422q65 17 178 17q52 0 98 -4t66 -8l21 -5l-344 -1192q-29 -102 -65.5 -172t-91 -122t-131.5 -76.5t-181 -24.5q-46 0 -94.5 7t-73.5 15l-25 7 q-16 49 -16 125q0 34 6 68t12 52l6 17q47 -8 88 -8q86 0 134.5 34t84.5 142l17 53q-75 3 -111 16z" />
<glyph unicode="z" horiz-adv-x="991" d="M49 145q0 61 17 138l442 526h-424q-16 57 -16 141q0 37 4 72.5t8 52.5l4 17h831q17 -66 17 -134q0 -82 -17 -149l-444 -526h444q21 -50 21 -142q0 -39 -5 -74.5t-11 -50.5l-5 -16h-849q-17 67 -17 145z" />
<glyph unicode="{" horiz-adv-x="821" d="M12 688q0 62 15 131h59q56 0 85.5 30.5t29.5 82.5v426q0 137 78 219t221 82h264q14 -49 14 -133q0 -70 -14 -135h-84q-56 0 -85.5 -30.5t-29.5 -84.5v-344q0 -174 -116 -246q116 -72 116 -248v-344q0 -53 29.5 -83.5t85.5 -30.5h84q14 -55 14 -140q0 -80 -14 -129h-264 q-143 0 -221 82t-78 219v426q0 52 -29.5 82.5t-85.5 30.5h-59q-15 55 -15 137z" />
<glyph unicode="|" horiz-adv-x="655" d="M135 -387v1989q74 16 193 16q50 0 98 -4t71 -8l23 -4v-1989q-79 -16 -192 -16q-53 0 -101 4t-70 8z" />
<glyph unicode="}" horiz-adv-x="821" d="M43 -160q0 78 16 140h84q56 0 85.5 30.5t29.5 83.5v344q0 176 115 248q-115 72 -115 246v344q0 54 -29.5 84.5t-85.5 30.5h-84q-16 59 -16 135q0 86 16 133h263q144 0 222.5 -82t78.5 -219v-426q0 -52 29 -82.5t85 -30.5h58q16 -59 16 -131q0 -88 -16 -137h-58 q-56 0 -85 -30.5t-29 -82.5v-426q0 -137 -78.5 -219t-222.5 -82h-263q-16 56 -16 129z" />
<glyph unicode="~" horiz-adv-x="1056" d="M63 596q3 6 9 16.5t29.5 36.5t52 46t77.5 36.5t105 16.5q58 0 110 -16.5t84.5 -36t76.5 -36t87 -16.5q41 0 74.5 17.5t47.5 35.5l13 17q61 -22 106 -70.5t58 -110.5q-3 -6 -9 -16.5t-29.5 -36.5t-51.5 -45.5t-76.5 -36t-103.5 -16.5q-59 0 -112.5 16.5t-86.5 35.5 t-77 35.5t-85 16.5q-42 0 -75.5 -17.5t-46.5 -34.5l-13 -17q-62 24 -105.5 70t-58.5 110z" />
<glyph unicode="&#xa1;" horiz-adv-x="608" d="M104 -397l43 991q56 14 156 14q44 0 84 -3.5t58 -6.5l18 -4l43 -991q-68 -17 -201 -17q-56 0 -106.5 4t-72.5 8zM119 696v348q65 17 184 17q54 0 100.5 -4.5t66.5 -8.5l19 -4v-348q-63 -16 -186 -16q-53 0 -99 4t-66 8z" />
<glyph unicode="&#xa2;" horiz-adv-x="956" d="M63 539q0 250 90.5 388.5t272.5 172.5l-16 184q73 21 161 21q43 0 84 -5.5t61 -10.5l19 -5l-18 -188q50 -9 92.5 -22.5t60.5 -22.5l17 -9q-6 -68 -35.5 -130t-75.5 -107q-55 29 -141 29q-99 0 -141.5 -68t-42.5 -221q0 -150 44.5 -215.5t147.5 -65.5q41 0 79.5 8t56.5 16 l18 9q91 -85 110 -238q-65 -43 -190 -63l18 -203q-68 -20 -164 -20q-39 0 -79.5 5t-61.5 10l-20 5l18 197q-183 31 -274 165t-91 384z" />
<glyph unicode="&#xa3;" horiz-adv-x="1116" d="M68 692q0 35 3.5 65.5t6.5 44.5l4 13h106q-34 115 -34 211q0 81 26 147t71.5 110.5t108 74.5t133.5 43.5t150 13.5q218 0 395 -76q0 -150 -104 -247q-121 41 -213 41q-186 0 -186 -175q0 -61 20 -143h350q15 -43 15 -119q0 -34 -4 -66.5t-8 -48.5l-3 -16h-309 q3 -151 -115 -262h557q19 -55 19 -147q0 -41 -4.5 -80t-9.5 -58l-5 -18h-936v303q141 134 144 262h-164q-14 53 -14 127z" />
<glyph unicode="&#xa4;" horiz-adv-x="1239" d="M66 190l143 146q-55 99 -55 219q0 115 55 219l-143 146q1 7 3.5 18.5t19.5 43t44 58.5q28 30 58.5 47t46.5 19l16 2l143 -143q104 55 221 55q116 0 220 -55l145 143q7 0 18 -2t43 -19t60 -47q27 -27 44 -57t20 -47l3 -16l-143 -146q55 -104 55 -219q0 -117 -55 -221 l143 -144q0 -7 -2.5 -18.5t-19 -44t-43.5 -59.5q-28 -31 -59 -47.5t-47 -17.5l-17 -1l-145 143q-104 -55 -220 -55q-117 0 -221 55l-143 -143q-7 0 -18.5 2.5t-44 20.5t-60.5 47q-27 27 -43.5 56.5t-19.5 45.5zM420 555q0 -85 57 -142t141 -57q85 0 142 57t57 142t-57 142 t-142 57q-84 0 -141 -57t-57 -142z" />
<glyph unicode="&#xa5;" horiz-adv-x="1316" d="M45 1378q78 23 201 23q52 0 100 -5.5t70 -10.5l22 -5l226 -411l243 415q76 17 189 17q45 0 90.5 -4.5t68.5 -8.5l23 -4l-356 -608h170q12 -50 12 -106t-12 -109h-279v-110h279q12 -46 12 -101q0 -61 -12 -114h-279v-218q-86 -18 -164 -18q-34 0 -74.5 4.5t-64.5 9.5 l-23 4v218h-284q-13 60 -13 114q0 47 13 101h284v110h-284q-13 57 -13 107q0 54 13 108h178z" />
<glyph unicode="&#xa6;" horiz-adv-x="643" d="M129 -401v911q74 16 193 16q50 0 98 -4t71 -8l23 -4v-911q-79 -17 -192 -17q-53 0 -101 4t-70 8zM129 725v891q74 16 193 16q50 0 98 -4t71 -8l23 -4v-891q-79 -16 -192 -16q-53 0 -101 4t-70 8z" />
<glyph unicode="&#xa7;" horiz-adv-x="1009" d="M78 647q0 142 127 232q-107 79 -107 233q0 148 111.5 224.5t306.5 76.5q188 0 348 -61q2 -59 -20 -121t-60 -103q-92 24 -174 31q-176 16 -176 -63q0 -23 27 -37.5t70.5 -23t96 -17.5t105 -27.5t96 -46.5t70.5 -80t27 -123q0 -138 -125 -217q137 -79 137 -248 q0 -77 -36.5 -135.5t-101.5 -93t-147 -51t-180 -16.5q-92 0 -188.5 16.5t-146.5 33.5l-50 17q-3 67 18.5 132t63.5 102q127 -37 246 -43q172 -7 172 59q0 19 -22 32.5t-58 20.5t-81.5 16.5t-93.5 19t-93.5 30t-81.5 48.5t-58 75t-22 108zM393 713q0 -56 87 -87 q27 -10 104 -28q28 35 28 82q0 12 -3 22.5t-10.5 19.5t-14.5 16t-20.5 13.5t-23 11t-27 10t-28 9t-31 9t-30.5 8.5q-31 -42 -31 -86z" />
<glyph unicode="&#xa8;" horiz-adv-x="931" d="M82 1245v271q56 14 160 14q44 0 83.5 -3.5t56.5 -6.5l17 -4v-271q-57 -14 -157 -14q-45 0 -85 3.5t-57 7.5zM516 1245v271q54 14 158 14q45 0 85 -3.5t57 -6.5l18 -4v-271q-58 -14 -160 -14q-45 0 -84.5 3.5t-56.5 7.5z" />
<glyph unicode="&#xa9;" horiz-adv-x="1613" d="M61 696q0 153 59 291t158.5 237.5t237.5 158.5t291 59t291 -59t237.5 -158.5t158 -237.5t58.5 -291t-58.5 -291t-158 -237.5t-237.5 -158t-291 -58.5t-291 58.5t-237.5 158t-158.5 237.5t-59 291zM299 696q0 -214 147.5 -363t360.5 -149t360.5 149t147.5 363t-147.5 363 t-360.5 149t-360.5 -149t-147.5 -363zM449 705q0 201 93 304t273 103q67 0 128.5 -16.5t89.5 -32.5l28 -16q-6 -113 -94 -170q-47 28 -113 28q-70 0 -105.5 -47t-35.5 -156q0 -107 35 -148.5t106 -41.5q33 0 63 6t44 12l14 5q43 -22 68 -68.5t28 -101.5q-11 -8 -32 -19.5 t-88 -31t-136 -19.5q-179 0 -272.5 106t-93.5 304z" />
<glyph unicode="&#xaa;" horiz-adv-x="727" d="M57 823q0 105 68 156t182 51l94 -4v23q0 28 -15 41.5t-52 13.5q-38 0 -78.5 -8t-61.5 -16l-22 -7q-63 74 -66 162q14 6 38.5 15t96 24.5t138.5 15.5q144 0 207 -57.5t63 -177.5v-424q-40 -17 -110 -17q-27 0 -53.5 4t-39.5 8l-12 5l-16 45q-56 -72 -162 -72 q-93 0 -146 56t-53 163zM64 407.5q0 52.5 10 92.5h569q12 -40 11.5 -92.5t-11.5 -92.5h-569q-10 40 -10 92.5zM305 823q0 -61 45 -61q51 0 51 86v35q-16 2 -45 2q-51 0 -51 -62z" />
<glyph unicode="&#xab;" horiz-adv-x="1140" d="M53 545q0 40 5.5 75.5t11.5 51.5l6 16l438 375q40 -39 66 -100t32 -127l-260 -285l260 -283q-15 -142 -98 -227l-438 369q-23 49 -23 135zM545 545q0 37 5.5 71t11.5 49l5 15l420 358q36 -37 60 -93.5t28 -117.5l-241 -276l241 -275q-15 -128 -88 -210l-420 354 q-22 47 -22 125z" />
<glyph unicode="&#xac;" horiz-adv-x="1230" d="M63 782q0 40 5.5 76.5t11.5 53.5l6 16h1040v-611q-49 -22 -143 -22q-43 0 -79.5 5.5t-51.5 11.5l-16 5v322h-750q-23 59 -23 143z" />
<glyph unicode="&#xad;" horiz-adv-x="413" />
<glyph unicode="&#xae;" horiz-adv-x="1073" d="M72 965q0 193 136 329t329 136t328.5 -135.5t135.5 -329.5t-135.5 -329.5t-328.5 -135.5t-329 136t-136 329zM205 965q0 -138 97.5 -235t234.5 -97q138 0 234.5 97t96.5 235t-96.5 234.5t-234.5 96.5q-137 0 -234.5 -96.5t-97.5 -234.5zM360 750v456h220q73 0 118 -40 t45 -105q0 -46 -24 -82t-66 -51l105 -172q-27 -17 -76 -17q-17 0 -33 2.5t-23 5.5l-8 3l-102 165h-18v-165q-27 -11 -68 -11q-20 0 -37.5 2.5t-24.5 5.5zM498 1020h57q47 0 47 41q0 23 -11 32t-36 9h-57v-82z" />
<glyph unicode="&#xaf;" horiz-adv-x="833" d="M45 1382q0 62 12 105h691q13 -46 12.5 -108t-12.5 -109h-691q-12 50 -12 112z" />
<glyph unicode="&#xb0;" horiz-adv-x="743" d="M49 1210q0 129 87.5 224.5t238.5 95.5q77 0 139 -26.5t100.5 -71t59 -99t20.5 -114.5t-20.5 -115t-59 -99.5t-100.5 -71t-139 -26.5q-156 0 -241 89t-85 214zM283 1214q0 -35 23.5 -60.5t66.5 -25.5q40 0 63 26.5t23 62.5t-23 63t-63 27q-43 0 -66.5 -27.5t-23.5 -65.5z " />
<glyph unicode="&#xb1;" horiz-adv-x="991" d="M88 307q0 36 3.5 68.5t6.5 46.5l4 14h787q16 -47 16 -129q0 -36 -4 -68.5t-8 -46.5l-4 -14h-787q-14 47 -14 129zM88 823q0 36 3.5 68.5t6.5 46.5l4 14h265v189q47 14 129 14q36 0 68.5 -3.5t46.5 -7.5l14 -3v-189h264q16 -47 16 -129q0 -36 -4 -68.5t-8 -46.5l-4 -14 h-264v-188q-47 -17 -129 -17q-36 0 -68.5 4.5t-46.5 8.5l-14 4v188h-265q-14 47 -14 129z" />
<glyph unicode="&#xb2;" horiz-adv-x="622" d="M31 821q0 54 17.5 98t45 72t60.5 50t66.5 38t61 31t45 34t17.5 42q0 51 -90 51q-59 0 -137 -20q-25 31 -37 77.5t-6 91.5q102 35 233 35q130 0 201.5 -51.5t71.5 -157.5q0 -54 -17 -95.5t-43 -65t-61 -44t-67.5 -33t-67 -32t-54.5 -41.5h275q14 -43 14 -98q0 -53 -14 -94 h-502q-12 46 -12 112z" />
<glyph unicode="&#xb3;" horiz-adv-x="624" d="M27 745q0 38 15.5 80t39.5 66q69 -21 143 -21q61 0 86 14.5t25 47.5q0 34 -18 46.5t-70 12.5h-98q-12 34 -12 83t12 83h98q38 0 52.5 10t14.5 35q0 27 -18.5 38t-67.5 11q-32 0 -64.5 -4t-49.5 -8l-17 -4q-57 50 -57 145q98 41 231 41q291 0 291 -190q0 -110 -98 -152 q119 -45 119 -168q0 -103 -69 -158t-239 -55q-71 0 -133.5 12t-88.5 24z" />
<glyph unicode="&#xb4;" horiz-adv-x="458" d="M-14 1374l196 324q90 9 183 -26.5t129 -94.5l-304 -305q-146 25 -204 102z" />
<glyph unicode="&#xb5;" horiz-adv-x="1204" d="M127 -29v1104q73 17 186 17q53 0 99.5 -4t67.5 -8l20 -5v-710q0 -103 96 -103q57 0 106 41v772q72 17 185 17q53 0 99.5 -4t66.5 -8l20 -5v-1059q-67 -16 -186 -16q-50 0 -96.5 4t-67.5 8l-21 4v56q-64 -92 -192 -92q-42 0 -88 20q18 -121 50.5 -228t55.5 -154l23 -46 q-47 -41 -116.5 -62.5t-139.5 -20.5t-141 13q-27 128 -27 469z" />
<glyph unicode="&#xb6;" horiz-adv-x="1484" d="M43 913q2 100 36 192t96.5 165.5t162 117.5t221.5 44h295v-1885q-64 -12 -158 -12q-43 0 -81.5 3t-56.5 6l-17 3v852q-121 2 -219 47t-157.5 118t-91 162.5t-30.5 186.5zM1018 -453v1872q58 13 156 13q42 0 81 -3t57 -7l19 -3v-1872q-63 -12 -157 -12q-44 0 -83 3t-56 6z " />
<glyph unicode="&#xb7;" horiz-adv-x="520" d="M94 430v307q55 17 166 17q48 0 89.5 -4t58.5 -8l18 -5v-307q-57 -16 -166 -16q-48 0 -89.5 4t-58.5 8z" />
<glyph unicode="&#xb8;" horiz-adv-x="606" d="M57 -412q-2 34 13 74.5t39 58.5q58 -25 141 -28q129 -4 129 67q0 64 -78 64h-133l-29 33l45 252l193 -37l-23 -111q221 0 221 -209q0 -104 -75 -158.5t-203 -54.5q-67 0 -127 12.5t-86 24.5z" />
<glyph unicode="&#xb9;" horiz-adv-x="542" d="M12 1280q135 36 209 119q45 10 125 10q67 0 115 -10v-682q-58 -10 -117 -10q-80 0 -131 10v342q0 67 4 98q-66 -46 -149 -55q-27 31 -43 81.5t-13 96.5z" />
<glyph unicode="&#xba;" horiz-adv-x="747" d="M59 950q0 176 78 258t238 82t238.5 -81t78.5 -259q0 -179 -79 -262.5t-238 -83.5q-160 0 -238 83.5t-78 262.5zM78 408q0 58 10 92h569q13 -41 13 -90q0 -54 -13 -95h-569q-10 31 -10 93zM313 950q0 -68 7 -102.5t19 -44.5t36 -10q23 0 34.5 10t18 44.5t6.5 102.5 q0 67 -6.5 101.5t-18.5 44.5t-34 10q-35 0 -48.5 -29.5t-13.5 -126.5z" />
<glyph unicode="&#xbb;" horiz-adv-x="1138" d="M66 276l243 275l-243 276q13 134 90 211l417 -358q23 -51 23 -135q0 -35 -6 -66t-12 -45l-5 -14l-417 -354q-75 81 -90 210zM528 268l260 283l-260 285q6 65 32.5 126t66.5 101l438 -375q22 -53 22 -143q0 -38 -5.5 -72t-11.5 -49l-5 -14l-438 -369q-81 86 -99 227z" />
<glyph unicode="&#xbc;" horiz-adv-x="1449" d="M43 1280q135 36 209 119q45 10 125 10q67 0 115 -10v-682q-58 -10 -117 -10q-80 0 -131 10v342q0 67 4 98q-66 -45 -150 -55q-27 31 -42.5 81t-12.5 97zM203 -6l788 1429q45 15 139 15q42 0 77 -4t49 -8l14 -3l-791 -1429q-53 -14 -139 -14q-36 0 -70.5 3.5t-50.5 6.5z M760 215q0 39 8 70l319 405q53 12 113 12q62 0 111 -12v-393h75q11 -37 11 -80q0 -31 -11 -80h-75v-127q-54 -10 -109 -10q-59 0 -110 10v127h-322q-10 42 -10 78zM983 297h109v145z" />
<glyph unicode="&#xbd;" horiz-adv-x="1527" d="M43 1280q135 36 209 119q45 10 125 10q67 0 115 -10v-682q-58 -10 -117 -10q-80 0 -131 10v342q0 67 4 98q-66 -45 -150 -55q-27 31 -42.5 81t-12.5 97zM203 -6l788 1429q45 15 139 15q42 0 77 -4t49 -8l14 -3l-791 -1429q-53 -14 -139 -14q-36 0 -70.5 3.5t-50.5 6.5z M922 113q0 54 17.5 98t45 71.5t60.5 49.5t66.5 38t61 31t45 34t17.5 42q0 51 -86 51q-71 0 -141 -20q-25 31 -37 78t-6 92q102 35 233 35q130 0 201 -51.5t71 -157.5q0 -65 -22.5 -110t-60.5 -71t-77 -43.5t-82 -39.5t-67 -47h275q14 -43 14 -99q0 -53 -14 -94h-502 q-12 47 -12 113z" />
<glyph unicode="&#xbe;" horiz-adv-x="1501" d="M53 745q0 37 16 79.5t40 66.5q69 -21 143 -21q60 0 85 14.5t25 47.5q0 34 -18 46.5t-70 12.5h-98q-12 34 -12 83t12 83h98q38 0 53 10t15 35q0 27 -18.5 38t-67.5 11q-32 0 -64.5 -4t-49.5 -8l-17 -4q-57 50 -57 145q98 41 231 41q291 0 291 -190q0 -110 -98 -152 q118 -45 118 -168q0 -50 -14.5 -87t-48.5 -66.5t-95 -44.5t-149 -15q-71 0 -133.5 12t-89.5 24zM260 -6l789 1429q45 15 139 15q42 0 76.5 -4t48.5 -8l14 -3l-790 -1429q-54 -14 -140 -14q-36 0 -70.5 3.5t-50.5 6.5zM817 217q0 37 8 68l320 405q53 12 112 12q61 0 111 -12 v-393h76q10 -34 10 -80q0 -35 -10 -80h-76v-127q-54 -10 -108 -10q-60 0 -111 10v127h-322q-10 42 -10 80zM1040 297h109v145z" />
<glyph unicode="&#xbf;" horiz-adv-x="935" d="M43 10q0 75 19.5 134t51 96.5t69.5 67.5t76 55t69.5 51t51 63.5t19.5 85.5q52 19 156 19q44 0 83 -5t56 -9l17 -5q0 -83 -16 -147.5t-41.5 -103t-56.5 -68t-61.5 -49.5t-56 -40t-41.5 -48.5t-16 -65.5q0 -59 37 -84t114 -25q53 0 106 12t80 24l27 12q57 -40 85.5 -108 t23.5 -146q-17 -8 -48 -20.5t-129.5 -33t-199.5 -20.5q-475 0 -475 358zM369 700v349q65 16 184 16q54 0 100.5 -4t66.5 -8l19 -4v-349q-63 -16 -186 -16q-53 0 -99 4t-66 8z" />
<glyph unicode="&#xc0;" horiz-adv-x="1398" d="M2 18l447 1438q89 19 251 19q76 0 139 -4.5t88 -9.5l25 -5l445 -1438q-68 -18 -199 -18q-55 0 -102 4.5t-66 9.5l-20 4l-82 271h-471l-82 -271q-72 -18 -189 -18q-52 0 -98 4.5t-66 9.5zM383 1839q38 60 130.5 95t182.5 24l197 -322q-61 -81 -205 -102zM537 557h311 l-100 328q-17 60 -30 122.5t-18 94.5l-4 33h-8q-10 -117 -49 -250z" />
<glyph unicode="&#xc1;" horiz-adv-x="1398" d="M2 18l447 1438q87 19 251 19q76 0 139 -4.5t88 -9.5l25 -5l445 -1438q-68 -18 -199 -18q-55 0 -102 4.5t-66 9.5l-20 4l-82 271h-471l-84 -271q-70 -18 -187 -18q-52 0 -98 4.5t-66 9.5zM537 557h311l-100 328q-18 60 -31 122.5t-17 94.5l-4 33h-8q-10 -117 -49 -250z M543 1636l198 324q90 9 183 -26.5t129 -94.5l-303 -305q-149 25 -207 102z" />
<glyph unicode="&#xc2;" horiz-adv-x="1398" d="M2 18l447 1438q87 19 251 19q76 0 139 -4.5t88 -9.5l25 -5l445 -1438q-68 -18 -199 -18q-55 0 -102 4.5t-66 9.5l-20 4l-82 271h-471l-84 -271q-70 -18 -187 -18q-52 0 -98 4.5t-66 9.5zM297 1700l344 297h94l346 -297q-54 -117 -159 -164l-234 143l-231 -141 q-107 46 -160 162zM537 557h311l-100 328q-18 60 -31 122.5t-17 94.5l-4 33h-8q-10 -117 -49 -250z" />
<glyph unicode="&#xc3;" horiz-adv-x="1400" d="M2 18l449 1438q87 19 249 19q76 0 139 -4.5t88 -9.5l25 -5l447 -1438q-68 -18 -201 -18q-54 0 -100.5 4.5t-65.5 9.5l-20 4l-84 271h-471l-82 -271q-70 -18 -189 -18q-51 0 -97 4.5t-67 9.5zM303 1665q20 65 85 122t155 58q46 1 87.5 -11.5t67.5 -28.5t63 -29.5t75 -12.5 q31 1 57 15t37 28l10 13q105 -39 152 -127q-32 -59 -92 -106t-146 -48q-72 -1 -154 37t-137 37q-32 -1 -59.5 -16.5t-39.5 -30.5l-11 -15q-103 27 -150 115zM537 557h311l-98 328q-18 60 -31.5 122.5t-18.5 94.5l-4 33h-8q-8 -117 -49 -250z" />
<glyph unicode="&#xc4;" horiz-adv-x="1398" d="M2 18l447 1438q89 19 251 19q76 0 139 -4.5t88 -9.5l25 -5l445 -1438q-68 -18 -199 -18q-55 0 -102 4.5t-66 9.5l-20 4l-82 271h-471l-82 -271q-72 -18 -189 -18q-52 0 -98 4.5t-66 9.5zM317 1548v273q56 14 160 14q44 0 83.5 -3.5t57.5 -7.5l17 -3v-273 q-58 -14 -158 -14q-45 0 -85 3.5t-58 6.5zM537 557h311l-100 328q-17 60 -30 122.5t-18 94.5l-4 33h-8q-10 -117 -49 -250zM752 1548v273q53 14 157 14q45 0 85 -3.5t58 -7.5l17 -3v-273q-58 -14 -160 -14q-45 0 -84.5 3.5t-56.5 6.5z" />
<glyph unicode="&#xc5;" horiz-adv-x="1404" d="M0 18l451 1389q-74 71 -74 184q0 95 47 164.5t119.5 102t158.5 32.5q62 0 120 -19t104.5 -55t75 -94.5t28.5 -130.5q0 -114 -76 -184l451 -1389q-74 -18 -205 -18q-55 0 -102 4.5t-66 9.5l-20 4l-82 271h-471l-82 -271q-72 -18 -189 -18q-52 0 -99 4.5t-68 9.5zM539 557 h311l-98 311q-19 60 -32.5 123t-17.5 96l-4 33h-8q-8 -119 -51 -252zM604 1591q0 -38 24.5 -65t71.5 -27t73 27.5t26 64.5q0 38 -26 65t-73 27q-46 0 -71 -27.5t-25 -64.5z" />
<glyph unicode="&#xc6;" horiz-adv-x="1914" d="M-20 20l888 1455h955q24 -65 22.5 -143t-22.5 -138h-490v-309h387q23 -61 22.5 -141.5t-22.5 -139.5h-387v-321h510q22 -62 22.5 -143t-22.5 -140h-893v303h-395l-166 -283q-75 -20 -207 -20q-143 0 -202 20zM723 586h227v383z" />
<glyph unicode="&#xc7;" horiz-adv-x="1177" d="M66 737q0 369 172.5 563.5t496.5 194.5q73 0 141 -9t113 -21.5t79 -25t50 -21.5l15 -9q4 -63 -29 -141q-16 -37 -36.5 -65.5t-33.5 -38.5l-12 -9q-106 39 -229 39q-80 0 -135 -21.5t-96.5 -73t-61 -141.5t-19.5 -223q0 -107 13.5 -185t37.5 -129.5t63.5 -82t86.5 -43 t111 -12.5q58 0 119.5 11.5t93.5 22.5l32 11q5 -4 14 -11.5t31.5 -38.5t38.5 -69q16 -35 23.5 -70.5t7.5 -54.5v-18q-13 -8 -38 -20t-114.5 -35t-193.5 -29l-12 -62q221 0 221 -209q0 -104 -75 -158.5t-204 -54.5q-68 0 -127.5 12t-85.5 24l-26 13q-2 34 12.5 75t38.5 59 q61 -26 141 -29q129 -4 129 67q0 64 -78 64h-133l-28 33l30 172q-265 35 -404.5 226t-139.5 523z" />
<glyph unicode="&#xc8;" horiz-adv-x="1153" d="M119 0v1475h944q20 -52 20 -138q0 -101 -20 -151h-555v-299h453q20 -58 20 -139q0 -91 -20 -144h-453v-315h575q21 -61 21 -142q0 -91 -21 -147h-964zM246 1839q36 60 129.5 95t183.5 24l197 -322q-61 -81 -205 -102z" />
<glyph unicode="&#xc9;" horiz-adv-x="1150" d="M119 0v1475h944q20 -52 20 -138q0 -101 -20 -151h-555v-299h453q20 -58 20 -139q0 -91 -20 -144h-453v-315h575q21 -61 21 -142q0 -91 -21 -147h-964zM375 1636l196 324q90 9 184 -26.5t130 -94.5l-303 -303q-147 21 -207 100z" />
<glyph unicode="&#xca;" horiz-adv-x="1155" d="M119 0v1475h946q20 -62 20 -138q0 -93 -20 -151h-557v-299h455q20 -70 20 -139q0 -82 -20 -144h-455v-315h577q21 -61 21 -142q0 -91 -21 -147h-966zM205 1700l342 297h94l348 -297q-58 -119 -160 -164l-233 143l-231 -141q-111 48 -160 162z" />
<glyph unicode="&#xcb;" horiz-adv-x="1155" d="M119 0v1475h946q20 -62 20 -138q0 -93 -20 -151h-557v-299h455q20 -70 20 -139q0 -82 -20 -144h-455v-315h577q21 -61 21 -142q0 -91 -21 -147h-966zM207 1548v273q56 14 160 14q44 0 83.5 -3.5t56.5 -7.5l17 -3v-273q-57 -14 -157 -14q-45 0 -85 3.5t-58 6.5zM641 1548 v273q54 14 158 14q45 0 85 -3.5t57 -7.5l17 -3v-273q-57 -14 -159 -14q-45 0 -84.5 3.5t-56.5 6.5z" />
<glyph unicode="&#xcc;" horiz-adv-x="626" d="M8 1839q38 60 131 95t183 24l196 -322q-61 -81 -205 -102zM119 18v1438q77 19 192 19q52 0 101 -4.5t72 -9.5l24 -5v-1438q-82 -18 -195 -18q-55 0 -103.5 4.5t-69.5 9.5z" />
<glyph unicode="&#xcd;" horiz-adv-x="626" d="M102 1636l199 324q90 9 182.5 -26.5t128.5 -94.5l-303 -303q-145 21 -207 100zM119 18v1438q77 19 192 19q52 0 101 -4.5t72 -9.5l24 -5v-1438q-82 -18 -195 -18q-55 0 -103.5 4.5t-69.5 9.5z" />
<glyph unicode="&#xce;" horiz-adv-x="622" d="M-76 1700l344 297h94l347 -297q-54 -117 -160 -164l-234 143l-231 -141q-107 46 -160 162zM117 18v1438q77 19 192 19q52 0 101 -4.5t72 -9.5l24 -5v-1438q-82 -18 -195 -18q-55 0 -103.5 4.5t-69.5 9.5z" />
<glyph unicode="&#xcf;" horiz-adv-x="622" d="M-72 1548v273q54 14 158 14q45 0 85 -3.5t57 -7.5l18 -3v-273q-58 -14 -160 -14q-45 0 -84.5 3.5t-56.5 6.5zM117 18v1438q79 19 192 19q52 0 101 -4.5t72 -9.5l24 -5v-1438q-82 -18 -195 -18q-54 0 -102.5 4.5t-70.5 9.5zM360 1548v273q56 14 160 14q44 0 83.5 -3.5 t56.5 -7.5l18 -3v-273q-58 -14 -158 -14q-45 0 -85 3.5t-57 6.5z" />
<glyph unicode="&#xd0;" horiz-adv-x="1425" d="M15 732.5q0 75.5 12 119.5h143v623h530q331 0 494.5 -174.5t163.5 -563.5t-163.5 -563t-494.5 -174h-530v606h-143q-12 51 -12 126.5zM559 295h137q67 0 112 18.5t78.5 67t48.5 135.5t15 221q0 135 -15 223t-49 136t-78 66t-112 18h-137v-328h182q13 -47 12.5 -123 t-12.5 -123h-182v-311z" />
<glyph unicode="&#xd1;" horiz-adv-x="1443" d="M119 18v1438q84 19 258 19q76 0 138 -4.5t86 -9.5l24 -5l260 -665q33 -88 62.5 -193.5t42.5 -167.5l14 -61h10q-23 219 -23 446v641q70 19 170 19q48 0 89 -4.5t58 -9.5l17 -5v-1438q-78 -18 -252 -18q-72 0 -135.5 4.5t-91.5 9.5l-27 4l-270 674q-35 91 -63 187.5 t-39 146.5l-11 51h-10q25 -176 25 -407v-652q-57 -18 -170 -18q-49 0 -89.5 4.5t-56.5 9.5zM381 1743q4 4 10.5 11t29 25t46 32t60 25t73.5 11q73 0 154.5 -32.5t134.5 -32.5q36 0 64.5 13t39.5 27l11 13q52 -28 82.5 -82t35.5 -113q-3 -4 -9 -11t-27.5 -25t-45 -32t-61 -25 t-76.5 -11q-73 0 -154.5 33t-134.5 33q-33 0 -61.5 -13.5t-40.5 -26.5l-12 -14q-53 27 -84.5 79t-34.5 116z" />
<glyph unicode="&#xd2;" horiz-adv-x="1429" d="M68 737q0 385 170 574.5t477 189.5t477 -187.5t170 -576.5t-170 -576.5t-477 -187.5q-309 0 -478 187.5t-169 576.5zM412 1853q37 60 129 95t182 24l197 -321q-62 -82 -205 -103zM485 737q0 -140 14.5 -233t45.5 -144t71.5 -71.5t98.5 -20.5q59 0 99.5 20.5t71 71.5 t44.5 144t14 233q0 186 -27 291t-74.5 142.5t-127.5 37.5q-58 0 -98.5 -20.5t-71.5 -72t-45.5 -145t-14.5 -233.5z" />
<glyph unicode="&#xd3;" horiz-adv-x="1429" d="M68 737q0 385 170 574.5t477 189.5t477 -187.5t170 -576.5t-170 -576.5t-477 -187.5q-309 0 -478 187.5t-169 576.5zM485 737q0 -140 14.5 -233t45.5 -144t71.5 -71.5t98.5 -20.5q59 0 99.5 20.5t71 71.5t44.5 144t14 233q0 186 -27 291t-74.5 142.5t-127.5 37.5 q-58 0 -98.5 -20.5t-71.5 -72t-45.5 -145t-14.5 -233.5zM602 1665l197 324q90 9 182.5 -26.5t128.5 -94.5l-303 -305q-147 25 -205 102z" />
<glyph unicode="&#xd4;" horiz-adv-x="1425" d="M68 737q0 385 169.5 574.5t475.5 189.5q309 0 478 -187.5t169 -576.5t-169 -576.5t-478 -187.5q-308 0 -476.5 187t-168.5 577zM324 1700l342 297h94l348 -297q-54 -117 -160 -164l-233 143l-232 -141q-110 47 -159 162zM485 737q0 -184 28 -289.5t75.5 -142.5t124.5 -37 q48 0 82.5 12.5t64 43.5t47.5 84t27.5 134.5t9.5 194.5q0 141 -14 234t-45 144.5t-71.5 72t-100.5 20.5q-58 0 -97.5 -20.5t-70.5 -71.5t-45.5 -145t-14.5 -234z" />
<glyph unicode="&#xd5;" horiz-adv-x="1425" d="M66 737q0 385 170.5 574.5t476.5 189.5q309 0 478 -187.5t169 -576.5t-169 -576.5t-478 -187.5t-478 187.5t-169 576.5zM348 1767q3 4 9.5 11.5t28 26t45 33t59.5 27t73 13.5q73 3 156 -27t137 -28q36 2 64 16t38 27l11 14q52 -25 85.5 -78t39.5 -112q-3 -4 -9 -11.5 t-26 -26t-43 -33t-60.5 -27t-76.5 -13.5q-69 -3 -153.5 27t-139.5 28q-32 -2 -60 -16t-40 -28l-13 -13q-55 26 -87 76t-38 114zM483 737q0 -139 15 -232.5t46 -144.5t71 -71.5t98 -20.5q48 0 82.5 12.5t64 43.5t47.5 84t27.5 134.5t9.5 194.5q0 141 -14 234t-45 144.5 t-71.5 72t-100.5 20.5q-58 0 -98 -20.5t-71 -71.5t-46 -145t-15 -234z" />
<glyph unicode="&#xd6;" horiz-adv-x="1429" d="M68 737q0 385 170 574.5t477 189.5t477 -187.5t170 -576.5t-170 -576.5t-477 -187.5q-309 0 -478 187.5t-169 576.5zM342 1575v270q54 15 158 15q45 0 85 -4t57 -8l17 -3v-270q-57 -14 -159 -14q-45 0 -84.5 3.5t-56.5 7.5zM485 737q0 -140 14.5 -233t45.5 -144 t71.5 -71.5t98.5 -20.5q59 0 99.5 20.5t71 71.5t44.5 144t14 233q0 186 -27 291t-74.5 142.5t-127.5 37.5q-58 0 -98.5 -20.5t-71.5 -72t-45.5 -145t-14.5 -233.5zM774 1575v270q56 15 158 15q45 0 85 -4t57 -8l18 -3v-270q-58 -14 -160 -14q-45 0 -84.5 3.5t-56.5 7.5z" />
<glyph unicode="&#xd7;" horiz-adv-x="958" d="M70 365l225 225l-225 227q25 48 80 105q26 24 52 44t39 28l13 7l225 -227l228 227q47 -22 104 -79q25 -25 45 -51.5t28 -40.5l7 -13l-229 -227l229 -225q-23 -46 -80 -105q-25 -25 -51 -44.5t-40 -26.5l-13 -7l-228 226l-225 -226q-45 23 -104 80q-24 25 -44 51t-28 39z " />
<glyph unicode="&#xd8;" horiz-adv-x="1427" d="M66 737q0 385 170.5 574.5t476.5 189.5q153 0 266 -45l84 137q71 -3 136.5 -37t105.5 -83l-105 -170q160 -196 160 -566q0 -389 -170 -576.5t-477 -187.5q-168 0 -291 54l-88 -146q-68 3 -136.5 36.5t-107.5 86.5l117 191q-141 193 -141 542zM481 737q0 -61 11 -129 l344 563q-45 37 -123 37q-46 0 -80 -12.5t-64 -44t-48.5 -84t-29 -135t-10.5 -195.5zM582 309q46 -41 131 -41q47 0 82 12.5t64 43.5t47 84t28 135t10 194q0 85 -12 150z" />
<glyph unicode="&#xd9;" horiz-adv-x="1384" d="M109 510v946q71 19 192 19q55 0 104 -4.5t71 -9.5l22 -5v-952q0 -205 198 -205q195 0 195 205v952q69 19 190 19q54 0 102.5 -4.5t70.5 -9.5l22 -5v-946q0 -254 -158.5 -395.5t-425.5 -141.5q-268 0 -425.5 142t-157.5 395zM373 1839q38 60 130.5 95t182.5 24l197 -322 q-61 -81 -205 -102z" />
<glyph unicode="&#xda;" horiz-adv-x="1384" d="M109 510v946q71 19 192 19q55 0 104 -4.5t71 -9.5l22 -5v-952q0 -205 198 -205q195 0 195 205v952q69 19 190 19q54 0 102.5 -4.5t70.5 -9.5l22 -5v-946q0 -254 -158.5 -395.5t-425.5 -141.5q-268 0 -425.5 142t-157.5 395zM508 1636l199 324q90 9 182.5 -26.5 t128.5 -94.5l-303 -303q-145 21 -207 100z" />
<glyph unicode="&#xdb;" horiz-adv-x="1384" d="M109 510v946q71 19 192 19q55 0 104 -4.5t71 -9.5l22 -5v-952q0 -205 198 -205q197 0 197 205v952q67 19 188 19q54 0 102.5 -4.5t70.5 -9.5l22 -5v-946q0 -254 -158 -395.5t-426 -141.5t-425.5 142t-157.5 395zM317 1700l345 297h94l346 -297q-54 -117 -160 -164 l-233 143l-232 -141q-107 46 -160 162z" />
<glyph unicode="&#xdc;" horiz-adv-x="1384" d="M109 510v946q71 19 192 19q55 0 104 -4.5t71 -9.5l22 -5v-952q0 -205 198 -205q195 0 195 205v952q69 19 190 19q54 0 102.5 -4.5t70.5 -9.5l22 -5v-946q0 -254 -158.5 -395.5t-425.5 -141.5q-268 0 -425.5 142t-157.5 395zM319 1548v273q56 14 158 14q45 0 85 -3.5 t58 -7.5l17 -3v-273q-58 -14 -160 -14q-45 0 -84.5 3.5t-56.5 6.5zM752 1548v273q55 14 159 14q44 0 83.5 -3.5t57.5 -7.5l17 -3v-273q-58 -14 -158 -14q-45 0 -85 3.5t-57 6.5z" />
<glyph unicode="&#xdd;" horiz-adv-x="1353" d="M2 1456q80 19 227 19q56 0 107.5 -4.5t75.5 -9.5l24 -5l254 -491l258 491q82 19 203 19q56 0 107 -4.5t74 -9.5l24 -5l-488 -903v-535q-67 -18 -194 -18q-61 0 -109.5 4.5t-66.5 9.5l-19 4v537zM483 1636l197 324q90 9 182.5 -26.5t128.5 -94.5l-303 -303 q-146 21 -205 100z" />
<glyph unicode="&#xde;" horiz-adv-x="1251" d="M117 18v1438q71 19 186 19q52 0 99.5 -4.5t69.5 -9.5l22 -5v-213h229q228 0 356.5 -129.5t128.5 -353.5t-129 -354t-356 -130h-229v-258q-76 -18 -189 -18q-55 0 -102 4.5t-67 9.5zM494 563h135q100 0 146 45t46 152t-46 151.5t-146 44.5h-135v-393z" />
<glyph unicode="&#xdf;" horiz-adv-x="1216" d="M90 16v1108q0 203 131 307.5t377 104.5q220 0 340 -106t125 -289q3 -83 -25 -185q-69 -5 -120.5 -38.5t-51.5 -92.5q0 -39 24.5 -75.5t60.5 -64t79 -64.5t79 -75t60.5 -98.5t24.5 -132.5q0 -161 -108.5 -248t-288.5 -87q-76 0 -146 10t-103 20l-32 10q-9 152 72 248 q79 -22 133 -22q50 0 80 19t30 57q0 27 -23 56t-57.5 53.5t-75 59.5t-75 72.5t-57.5 95.5t-23 125q0 55 17.5 104.5t42.5 80.5t50 54.5t42 33.5l18 10q18 51 15 82q-2 53 -32 84t-85 31q-72 0 -105.5 -39.5t-33.5 -128.5v-1080q-74 -16 -187 -16q-53 0 -96 4t-60 8z" />
<glyph unicode="&#xe0;" horiz-adv-x="1060" d="M33 340q0 174 104 253t318 79q59 0 153 -8v30q0 117 -149 117q-54 0 -114 -10.5t-93 -21.5l-33 -11q-47 39 -80 115q-14 33 -20 67.5t-5 53.5l1 18q7 4 20 10t56 21.5t88 27.5t112.5 21.5t134.5 9.5q235 0 344 -93t109 -288v-715q-60 -16 -160 -16q-44 0 -83.5 4t-56.5 8 l-17 4l-33 90q-69 -126 -279 -126q-317 0 -317 360zM182 1509q38 59 131 94.5t183 26.5l196 -323q-59 -78 -205 -103zM399 334q0 -71 23 -100t70 -29q58 0 87 51.5t29 138.5v60q-29 4 -92 4q-59 0 -88 -29t-29 -96z" />
<glyph unicode="&#xe1;" horiz-adv-x="1060" d="M33 340q0 174 104 253t318 79q59 0 153 -8v30q0 117 -149 117q-54 0 -114 -10.5t-93 -21.5l-33 -11q-47 39 -80 115q-14 33 -20 67.5t-5 53.5l1 18q7 4 20 10t56 21.5t88 27.5t112.5 21.5t134.5 9.5q235 0 344 -93t109 -288v-715q-60 -16 -160 -16q-44 0 -83.5 4t-56.5 8 l-17 4l-33 90q-69 -126 -279 -126q-317 0 -317 360zM317 1307l197 323q90 9 182.5 -26.5t128.5 -94.5l-303 -305q-146 25 -205 103zM399 334q0 -71 23 -100t70 -29q58 0 87 51.5t29 138.5v60q-29 4 -92 4q-59 0 -88 -29t-29 -96z" />
<glyph unicode="&#xe2;" horiz-adv-x="1060" d="M33 340q0 174 104 253t318 79q59 0 153 -8v34q0 113 -149 113q-54 0 -114 -10.5t-93 -21.5l-33 -11q-47 39 -80 115q-14 33 -20 67.5t-5 53.5l1 18q7 4 20 10t56 21.5t88 27.5t112.5 21.5t134.5 9.5q235 0 344 -93t109 -288v-715q-60 -16 -160 -16q-44 0 -83.5 4t-56.5 8 l-17 4l-33 90q-69 -126 -279 -126q-317 0 -317 360zM162 1364l336 293h92l340 -293q-55 -117 -156 -160l-227 142l-228 -140q-103 42 -157 158zM399 334q0 -71 23 -100t70 -29q58 0 87 51.5t29 138.5v60q-29 4 -92 4q-59 0 -88 -29t-29 -96z" />
<glyph unicode="&#xe3;" horiz-adv-x="1060" d="M33 340q0 174 104 253t318 79q59 0 153 -8v38q0 109 -149 109q-54 0 -114 -10.5t-93 -21.5l-33 -11q-47 39 -80 115q-14 33 -20 67.5t-5 53.5l1 18q7 4 20 10t56 21.5t88 27.5t112.5 21.5t134.5 9.5q235 0 344 -93t109 -288v-715q-60 -16 -160 -16q-44 0 -83.5 4t-56.5 8 l-17 4l-33 90q-69 -126 -279 -126q-317 0 -317 360zM166 1413q4 4 10.5 11t29 25.5t46 32t60 25t73.5 11.5q73 0 155 -33t136 -33q22 0 41.5 5.5t32 13t21.5 15.5t13 14l4 5q52 -28 84 -82t35 -112q-3 -4 -9 -11t-27.5 -25.5t-45 -32t-61 -25t-76.5 -11.5q-72 0 -153 33 t-136 33q-33 0 -61.5 -13t-40.5 -27l-12 -13q-54 29 -85 80.5t-34 113.5zM399 334q0 -71 23 -100t70 -29q58 0 87 51.5t29 138.5v60q-29 4 -92 4q-59 0 -88 -29t-29 -96z" />
<glyph unicode="&#xe4;" horiz-adv-x="1060" d="M33 340q0 174 104 253t318 79q59 0 153 -8v36q0 111 -149 111q-54 0 -114 -10.5t-93 -21.5l-33 -11q-47 39 -80 115q-14 33 -20 67.5t-5 53.5l1 18q7 4 20 10t56 21.5t88 27.5t112.5 21.5t134.5 9.5q235 0 344 -93t109 -288v-715q-60 -16 -160 -16q-44 0 -83.5 4t-56.5 8 l-17 4l-33 90q-69 -126 -279 -126q-317 0 -317 360zM168 1219v270q56 14 160 14q44 0 83.5 -3.5t56.5 -7.5l17 -3v-270q-57 -15 -157 -15q-45 0 -85 4t-57 8zM399 334q0 -71 23 -100t70 -29q58 0 87 51.5t29 138.5v60q-29 4 -92 4q-59 0 -88 -29t-29 -96zM602 1219v270 q54 14 158 14q45 0 85 -3.5t57 -7.5l18 -3v-270q-58 -15 -160 -15q-45 0 -84.5 4t-56.5 8z" />
<glyph unicode="&#xe5;" horiz-adv-x="1060" d="M33 340q0 174 104 253t318 79q59 0 153 -8v36q0 111 -149 111q-54 0 -114 -10.5t-93 -21.5l-33 -11q-47 39 -80 115q-14 33 -20 67.5t-5 53.5l1 18q7 4 20 10t56 21.5t88 27.5t112.5 21.5t134.5 9.5q235 0 344 -93t109 -288v-715q-60 -16 -160 -16q-44 0 -83.5 4t-56.5 8 l-17 4l-33 90q-69 -126 -279 -126q-317 0 -317 360zM225 1452q0 124 92 194t222 70q82 0 152 -28.5t116.5 -90t46.5 -145.5q0 -126 -91 -197t-226 -71q-138 0 -225 71t-87 197zM399 334q0 -71 23 -100t70 -29q58 0 87 51.5t29 138.5v60q-29 4 -92 4q-59 0 -88 -29t-29 -96z M446 1452q0 -33 24 -56.5t67 -23.5q44 0 68 24t24 56q0 33 -23.5 55.5t-68.5 22.5q-43 0 -67 -23t-24 -55z" />
<glyph unicode="&#xe6;" horiz-adv-x="1589" d="M31 334q0 170 106.5 250t315.5 80h145v38q0 109 -147 109q-51 0 -109.5 -10.5t-91.5 -21.5l-33 -11q-104 104 -104 254q7 4 19.5 10t54.5 21.5t86.5 27.5t112 21.5t134.5 9.5q202 0 301 -115q124 115 289 115q203 0 320.5 -109t117.5 -323q0 -58 -5.5 -117t-10.5 -89 l-6 -30h-537q15 -91 61.5 -133.5t129.5 -42.5q49 0 97.5 12t72.5 24l24 13q44 -37 76.5 -102t36.5 -135q-5 -4 -14.5 -11t-44 -24t-74.5 -30t-106 -24t-138 -11q-75 0 -138.5 15.5t-105.5 42t-68.5 51t-45.5 52.5q-18 -28 -44.5 -52.5t-69.5 -51t-109.5 -42t-147.5 -15.5 q-179 0 -264.5 89t-85.5 265zM395 330q0 -115 86 -115q117 0 117 188v52h-88q-59 0 -87 -30t-28 -95zM985 653h211q2 29 2 58q0 143 -90 143q-53 0 -83.5 -47t-39.5 -154z" />
<glyph unicode="&#xe7;" horiz-adv-x="917" d="M53 539q0 290 123.5 431.5t370.5 141.5q95 0 177.5 -17.5t117.5 -34.5l35 -18q-6 -68 -35.5 -130t-75.5 -107q-55 29 -141 29q-99 0 -142 -68t-43 -221q0 -149 45 -215t148 -66q41 0 79 8t56 16l18 9q92 -86 111 -238q-12 -8 -35.5 -20t-105.5 -33.5t-174 -25.5l-15 -72 q221 0 221 -207q0 -105 -74 -159t-202 -54q-68 0 -128 12t-86 24l-26 13q-2 34 13 74.5t39 58.5q59 -25 141 -28q129 -4 129 67q0 64 -78 64h-135l-29 32l35 191q-167 37 -250.5 170.5t-83.5 372.5z" />
<glyph unicode="&#xe8;" horiz-adv-x="1050" d="M53 545q0 288 130.5 427.5t371.5 139.5q217 0 336 -110.5t119 -327.5q0 -62 -6 -120.5t-12 -85.5l-5 -28h-543q14 -92 61 -128t130 -36q51 0 101 12.5t74 25.5l24 12q43 -35 77 -106.5t37 -139.5q-5 -4 -15 -11t-45 -24t-75 -30t-106 -24t-138 -11q-258 0 -387 137.5 t-129 427.5zM236 1509q38 59 130.5 94.5t182.5 26.5l196 -323q-59 -78 -204 -103zM438 651h219q2 20 2 62q0 141 -94 141q-53 0 -85 -46.5t-42 -156.5z" />
<glyph unicode="&#xe9;" horiz-adv-x="1050" d="M53 545q0 288 130.5 427.5t371.5 139.5q217 0 336 -110.5t119 -327.5q0 -62 -6 -120.5t-12 -85.5l-5 -28h-543q14 -92 61 -128t130 -36q51 0 101 12.5t74 25.5l24 12q43 -35 77 -106.5t37 -139.5q-5 -4 -15 -11t-45 -24t-75 -30t-106 -24t-138 -11q-258 0 -387 137.5 t-129 427.5zM319 1307l197 323q90 9 182.5 -26.5t128.5 -94.5l-303 -305q-146 25 -205 103zM438 651h219q2 20 2 62q0 141 -94 141q-53 0 -85 -46.5t-42 -156.5z" />
<glyph unicode="&#xea;" horiz-adv-x="1050" d="M53 545q0 288 130.5 427.5t371.5 139.5q217 0 336 -110.5t119 -327.5q0 -62 -6 -120.5t-12 -85.5l-5 -28h-543q14 -92 61 -128t130 -36q51 0 101 12.5t74 25.5l24 12q43 -35 77 -106.5t37 -139.5q-5 -4 -15 -11t-45 -24t-75 -30t-106 -24t-138 -11q-258 0 -387 137.5 t-129 427.5zM164 1364l336 293h92l340 -293q-55 -117 -156 -160l-227 142l-227 -140q-104 43 -158 158zM438 651h219q2 20 2 62q0 141 -94 141q-53 0 -85 -46.5t-42 -156.5z" />
<glyph unicode="&#xeb;" horiz-adv-x="1050" d="M53 545q0 288 130.5 427.5t371.5 139.5q217 0 336 -110.5t119 -327.5q0 -62 -6 -120.5t-12 -85.5l-5 -28h-543q14 -92 61 -128t130 -36q51 0 101 12.5t74 25.5l24 12q43 -35 77 -106.5t37 -139.5q-5 -4 -15 -11t-45 -24t-75 -30t-106 -24t-138 -11q-258 0 -387 137.5 t-129 427.5zM170 1219v270q56 14 160 14q44 0 83.5 -3.5t56.5 -7.5l17 -3v-270q-57 -15 -157 -15q-45 0 -85 4t-57 8zM438 651h219q2 20 2 62q0 141 -94 141q-53 0 -85 -46.5t-42 -156.5zM604 1219v270q54 14 158 14q45 0 85 -3.5t57 -7.5l18 -3v-270q-58 -15 -160 -15 q-45 0 -84.5 4t-56.5 8z" />
<glyph unicode="&#xec;" horiz-adv-x="550" d="M-41 1511q36 59 129.5 94.5t183.5 26.5l197 -323q-60 -80 -205 -101zM90 16v1059q63 17 186 17q53 0 99 -4t66 -8l20 -5v-1059q-66 -16 -185 -16q-54 0 -100.5 4t-65.5 8z" />
<glyph unicode="&#xed;" horiz-adv-x="550" d="M57 1307l197 323q90 9 182.5 -26.5t128.5 -94.5l-303 -305q-146 25 -205 103zM90 16v1059q63 17 186 17q53 0 99 -4t66 -8l20 -5v-1059q-66 -16 -185 -16q-54 0 -100.5 4t-65.5 8z" />
<glyph unicode="&#xee;" horiz-adv-x="550" d="M-109 1364l338 293h93l340 -293q-59 -118 -158 -160l-228 142l-227 -140q-104 43 -158 158zM90 16v1059q63 17 186 17q53 0 99 -4t66 -8l20 -5v-1059q-66 -16 -185 -16q-54 0 -100.5 4t-65.5 8z" />
<glyph unicode="&#xef;" horiz-adv-x="550" d="M-98 1219v270q55 14 159 14q44 0 83.5 -3.5t57.5 -7.5l17 -3v-270q-58 -15 -158 -15q-45 0 -85 4t-57 8zM90 16v1059q63 17 184 17q54 0 100.5 -4t66.5 -8l20 -5v-1059q-66 -16 -187 -16q-54 0 -100 4t-65 8zM336 1219v270q54 14 158 14q45 0 85 -3.5t57 -7.5l17 -3v-270 q-57 -15 -159 -15q-45 0 -84.5 4t-56.5 8z" />
<glyph unicode="&#xf0;" horiz-adv-x="1150" d="M51 516q0 508 494 508q95 0 162 -37q-40 101 -123 172l-228 -127q-87 69 -110 182l133 74q-83 30 -156 41q-14 140 53 207q196 -24 361 -106l205 112q86 -65 106 -182l-117 -66q263 -247 263 -665q0 -148 -26 -261t-72 -185.5t-113.5 -118.5t-144.5 -65t-173 -19 q-112 0 -202.5 29t-162 90.5t-110.5 167.5t-39 249zM432 516q0 -109 16 -169t43 -79.5t74 -19.5t74.5 19t45 79.5t17.5 169.5q0 112 -17.5 172.5t-45 79t-74.5 18.5q-46 0 -73.5 -20t-43.5 -80.5t-16 -169.5z" />
<glyph unicode="&#xf1;" d="M90 16v1059q63 17 186 17q53 0 99 -4t66 -8l20 -5v-59q110 96 268 96q151 0 229 -81.5t78 -221.5v-793q-63 -16 -186 -16q-56 0 -102.5 4t-65.5 8l-18 4v713q0 100 -99 100q-57 0 -104 -41v-772q-66 -16 -185 -16q-54 0 -100.5 4t-65.5 8zM174 1405q4 4 10.5 11t29 25 t46 32t60 25t73.5 11q71 0 152.5 -32.5t136.5 -32.5q36 0 64.5 13t39.5 27l11 13q52 -27 82.5 -80.5t35.5 -113.5q-3 -4 -9 -11t-27.5 -25.5t-45 -32t-61 -25t-76.5 -11.5q-72 0 -154 33t-136 33q-32 0 -61 -13.5t-41 -26.5l-13 -14q-53 29 -83.5 80.5t-33.5 114.5z" />
<glyph unicode="&#xf2;" horiz-adv-x="1144" d="M53 545q0 567 520 567q519 0 519 -567q0 -565 -519 -565q-520 0 -520 565zM211 1509q36 59 128.5 94.5t182.5 26.5l199 -323q-62 -78 -207 -103zM442 545q0 -163 31 -225t100 -62q68 0 98.5 62.5t30.5 224.5q0 163 -30.5 224.5t-98.5 61.5q-46 0 -73.5 -23.5t-42.5 -87 t-15 -175.5z" />
<glyph unicode="&#xf3;" horiz-adv-x="1142" d="M53 545q0 567 518 567q519 0 519 -567q0 -565 -519 -565q-518 0 -518 565zM344 1307l197 323q90 9 182.5 -26.5t128.5 -94.5l-303 -305q-146 25 -205 103zM442 545q0 -162 30.5 -224.5t98.5 -62.5q69 0 99 62t30 225q0 164 -30 225t-99 61q-68 0 -98.5 -61.5 t-30.5 -224.5z" />
<glyph unicode="&#xf4;" horiz-adv-x="1142" d="M53 545q0 567 518 567q519 0 519 -567q0 -565 -519 -565q-518 0 -518 565zM188 1335l336 291h92l340 -291q-55 -116 -155 -159l-228 139l-227 -137q-104 43 -158 157zM442 545q0 -162 30.5 -224.5t98.5 -62.5q69 0 99 62t30 225q0 164 -30 225t-99 61q-68 0 -98.5 -61.5 t-30.5 -224.5z" />
<glyph unicode="&#xf5;" horiz-adv-x="1142" d="M53 545q0 567 520 567q517 0 517 -567q0 -565 -517 -565q-520 0 -520 565zM195 1411q4 4 10.5 11t29 25.5t46 32t60 25t73.5 11.5q73 0 154 -33t134 -33q36 0 64.5 13t39.5 27l11 13q52 -26 83 -80.5t36 -113.5q-3 -4 -9 -11t-27.5 -25.5t-45 -32t-61 -25t-76.5 -11.5 q-73 0 -154.5 33t-134.5 33q-33 0 -61.5 -13t-40.5 -27l-13 -13q-53 29 -84 80.5t-34 113.5zM442 545q0 -163 31 -225t100 -62q67 0 97 62t30 225q0 164 -29.5 225t-97.5 61q-46 0 -73.5 -23.5t-42.5 -87t-15 -175.5z" />
<glyph unicode="&#xf6;" horiz-adv-x="1142" d="M53 545q0 567 518 567q519 0 519 -567q0 -565 -519 -565q-518 0 -518 565zM195 1219v270q55 14 159 14q44 0 83.5 -3.5t56.5 -7.5l18 -3v-270q-58 -15 -158 -15q-45 0 -85 4t-57 8zM442 545q0 -162 30.5 -224.5t98.5 -62.5q69 0 99 62t30 225q0 164 -30 225t-99 61 q-68 0 -98.5 -61.5t-30.5 -224.5zM629 1219v270q53 14 157 14q45 0 85 -3.5t57 -7.5l18 -3v-270q-58 -15 -160 -15q-45 0 -84.5 4t-55.5 8z" />
<glyph unicode="&#xf7;" horiz-adv-x="1013" d="M47 594q0 36 3.5 68.5t7.5 46.5l3 14h889q17 -47 17 -129q0 -36 -4.5 -68.5t-8.5 -46.5l-4 -14h-889q-14 47 -14 129zM336 55v320q59 14 172 14q48 0 91 -3.5t62 -7.5l19 -3v-320q-63 -16 -172 -16q-49 0 -92 4t-62 8zM336 815v318q59 16 172 16q48 0 91 -4t62 -8l19 -4 v-318q-63 -16 -172 -16q-49 0 -92 4t-62 8z" />
<glyph unicode="&#xf8;" horiz-adv-x="1144" d="M55 545q0 567 518 567q125 0 215 -33l72 115q107 -6 172 -88l-80 -127q140 -143 140 -434q0 -565 -519 -565q-119 0 -213 30l-84 -137q-111 6 -174 88l93 152q-140 140 -140 432zM442 545q0 -42 4 -60l199 324q-25 22 -72 22q-45 0 -72.5 -23.5t-43 -87.5t-15.5 -175z M502 281q26 -23 71 -23t72 23t42 86t15 174q0 27 -4 63z" />
<glyph unicode="&#xf9;" d="M84 283v792q63 17 186 17q55 0 101.5 -4t66.5 -8l19 -5v-715q0 -98 98 -98q57 0 104 41v772q66 17 185 17q54 0 100.5 -4t65.5 -8l20 -5v-1059q-63 -16 -186 -16q-53 0 -99 4t-66 8l-20 4v60q-110 -96 -268 -96q-151 0 -229 81.5t-78 221.5zM238 1509q38 59 130.5 94.5 t182.5 26.5l197 -323q-59 -78 -205 -103z" />
<glyph unicode="&#xfa;" d="M84 283v792q63 17 186 17q55 0 101.5 -4t66.5 -8l19 -5v-715q0 -98 98 -98q57 0 104 41v772q66 17 185 17q54 0 100.5 -4t65.5 -8l20 -5v-1059q-63 -16 -186 -16q-53 0 -99 4t-66 8l-20 4v60q-110 -96 -268 -96q-151 0 -229 81.5t-78 221.5zM338 1307l197 323 q90 9 182.5 -26.5t128.5 -94.5l-303 -305q-146 25 -205 103z" />
<glyph unicode="&#xfb;" d="M84 283v792q63 17 186 17q55 0 101.5 -4t66.5 -8l19 -5v-715q0 -98 98 -98q57 0 104 41v772q66 17 185 17q54 0 100.5 -4t65.5 -8l20 -5v-1059q-63 -16 -186 -16q-53 0 -99 4t-66 8l-20 4v60q-110 -96 -268 -96q-151 0 -229 81.5t-78 221.5zM182 1364l336 293h92 l340 -293q-26 -54 -66 -96.5t-89 -63.5l-228 142l-227 -140q-104 43 -158 158z" />
<glyph unicode="&#xfc;" d="M84 283v792q63 17 186 17q55 0 101.5 -4t66.5 -8l19 -5v-715q0 -98 98 -98q57 0 104 41v772q66 17 185 17q54 0 100.5 -4t65.5 -8l20 -5v-1059q-63 -16 -186 -16q-53 0 -99 4t-66 8l-20 4v60q-110 -96 -268 -96q-151 0 -229 81.5t-78 221.5zM188 1219v270q56 14 160 14 q44 0 83.5 -3.5t56.5 -7.5l18 -3v-270q-58 -15 -158 -15q-45 0 -85 4t-57 8zM623 1219v270q53 14 157 14q45 0 85 -3.5t57 -7.5l18 -3v-270q-58 -15 -160 -15q-45 0 -84.5 4t-55.5 8z" />
<glyph unicode="&#xfd;" horiz-adv-x="1138" d="M0 1075q74 17 197 17q57 0 103.5 -4t64.5 -8l18 -5l139 -422q24 -73 39.5 -149.5t18.5 -117.5l4 -40h8q10 143 57 307l123 422q65 17 178 17q52 0 98 -4t66 -8l21 -5l-344 -1192q-29 -102 -65.5 -172t-91 -122t-131.5 -76.5t-181 -24.5q-46 0 -94.5 7t-73.5 15l-25 7 q-16 49 -16 125q0 34 6 68t12 52l6 17q47 -8 88 -8q86 0 134.5 34t84.5 142l17 53q-75 3 -111 16zM352 1307l197 323q90 9 183.5 -26.5t129.5 -94.5l-303 -305q-148 25 -207 103z" />
<glyph unicode="&#xfe;" horiz-adv-x="1150" d="M90 -442v1976q69 16 184 16q51 0 98 -4t68 -8l21 -4v-522q87 100 254 100q379 0 379 -565q0 -567 -381 -567q-165 0 -252 104v-526q-72 -17 -187 -17q-51 0 -97 4.5t-67 8.5zM461 424q0 -66 28.5 -114t83.5 -48q44 0 69.5 18.5t41.5 82.5t16 184q0 113 -14 175 t-40.5 84.5t-72.5 22.5q-48 0 -79.5 -37.5t-32.5 -103.5v-264z" />
<glyph unicode="&#xff;" horiz-adv-x="1138" d="M0 1075q74 17 197 17q57 0 103.5 -4t64.5 -8l18 -5l139 -422q24 -73 39.5 -149.5t18.5 -117.5l4 -40h8q10 143 57 307l123 422q65 17 178 17q52 0 98 -4t66 -8l21 -5l-344 -1192q-29 -102 -65.5 -172t-91 -122t-131.5 -76.5t-181 -24.5q-46 0 -94.5 7t-73.5 15l-25 7 q-16 49 -16 125q0 34 6 68t12 52l6 17q47 -8 88 -8q86 0 134.5 34t84.5 142l17 53q-75 3 -111 16zM213 1219v270q56 14 160 14q44 0 83.5 -3.5t56.5 -7.5l17 -3v-270q-57 -15 -157 -15q-46 0 -86 4t-57 8zM645 1219v270q56 14 160 14q44 0 83.5 -3.5t57.5 -7.5l17 -3v-270 q-58 -15 -158 -15q-45 0 -85 4t-58 8z" />
<glyph unicode="&#x152;" horiz-adv-x="1839" d="M68 737q0 387 167.5 572.5t477.5 185.5q102 0 192 -20h844q20 -55 20 -140q0 -86 -20 -141h-494v-309h392q20 -55 20 -140q0 -86 -20 -141h-392v-321h514q21 -61 21 -144q0 -81 -21 -139h-866q-102 -20 -190 -20q-309 0 -477 187t-168 570zM457 737q0 -144 16 -237.5 t50.5 -144t78.5 -69t111 -18.5q95 0 166 45v846q-77 49 -166 49q-53 0 -91 -11.5t-70.5 -42t-52.5 -83.5t-31 -136t-11 -198z" />
<glyph unicode="&#x153;" horiz-adv-x="1654" d="M53 545q0 567 518 567q182 0 297 -115q118 115 291 115q216 0 335.5 -110.5t119.5 -327.5q0 -62 -6 -120.5t-12 -85.5l-5 -28h-536q15 -92 59 -132t123 -40q52 0 102.5 12t75.5 24l25 13q42 -33 75 -101t37 -136q-5 -4 -14.5 -11t-44 -24t-75 -30t-106.5 -24t-138 -11 q-180 0 -308 118q-135 -118 -295 -118q-518 0 -518 565zM442 545q0 -162 30.5 -224.5t98.5 -62.5t95.5 61t27.5 226q0 166 -27.5 226t-95.5 60t-98.5 -61.5t-30.5 -224.5zM1049 651h211q4 40 4 62q0 141 -97 141q-50 0 -79.5 -46.5t-38.5 -156.5z" />
<glyph unicode="&#x178;" horiz-adv-x="1353" d="M2 1456q80 19 227 19q56 0 107.5 -4.5t75.5 -9.5l24 -5l254 -491l258 491q82 19 203 19q56 0 107 -4.5t74 -9.5l24 -5l-488 -903v-535q-67 -18 -194 -18q-61 0 -109.5 4.5t-66.5 9.5l-19 4v537zM324 1552v271q55 14 159 14q44 0 83.5 -3.5t57.5 -7.5l17 -3v-271 q-58 -14 -158 -14q-45 0 -85 3.5t-57 6.5zM758 1552v271q53 14 157 14q45 0 85 -3.5t58 -7.5l17 -3v-271q-58 -14 -160 -14q-45 0 -84.5 3.5t-56.5 6.5z" />
<glyph unicode="&#x2c6;" horiz-adv-x="811" d="M10 1278l344 299h95l348 -299q-59 -118 -162 -164l-234 143l-231 -141q-105 45 -160 162z" />
<glyph unicode="&#x2dc;" horiz-adv-x="669" d="M-37 1452q4 4 10.5 11t29 25t46 32t60 25t73.5 11q72 0 154 -32.5t137 -32.5q36 0 64.5 13.5t39.5 26.5l11 13q52 -28 83 -81.5t36 -112.5q-3 -4 -9.5 -11t-27.5 -25.5t-44.5 -32t-61.5 -25t-77 -11.5q-73 0 -154.5 33t-135.5 33q-32 0 -60.5 -13.5t-41.5 -27.5l-13 -13 q-53 27 -84.5 79t-34.5 116z" />
<glyph unicode="&#x2000;" horiz-adv-x="998" />
<glyph unicode="&#x2001;" horiz-adv-x="1997" />
<glyph unicode="&#x2002;" horiz-adv-x="998" />
<glyph unicode="&#x2003;" horiz-adv-x="1997" />
<glyph unicode="&#x2004;" horiz-adv-x="665" />
<glyph unicode="&#x2005;" horiz-adv-x="499" />
<glyph unicode="&#x2006;" horiz-adv-x="332" />
<glyph unicode="&#x2007;" horiz-adv-x="332" />
<glyph unicode="&#x2008;" horiz-adv-x="249" />
<glyph unicode="&#x2009;" horiz-adv-x="399" />
<glyph unicode="&#x200a;" horiz-adv-x="110" />
<glyph unicode="&#x2010;" horiz-adv-x="698" d="M94 594q0 36 4 68.5t8 46.5l3 14h479q16 -47 16 -129q0 -36 -4 -68.5t-8 -46.5l-4 -14h-479q-15 47 -15 129z" />
<glyph unicode="&#x2011;" horiz-adv-x="698" d="M94 594q0 36 4 68.5t8 46.5l3 14h479q16 -47 16 -129q0 -36 -4 -68.5t-8 -46.5l-4 -14h-479q-15 47 -15 129z" />
<glyph unicode="&#x2012;" horiz-adv-x="698" d="M94 594q0 36 4 68.5t8 46.5l3 14h479q16 -47 16 -129q0 -36 -4 -68.5t-8 -46.5l-4 -14h-479q-15 47 -15 129z" />
<glyph unicode="&#x2013;" horiz-adv-x="1107" d="M94 594q0 36 4 68.5t8 46.5l3 14h888q17 -47 17 -129q0 -36 -4 -68.5t-8 -46.5l-5 -14h-888q-15 47 -15 129z" />
<glyph unicode="&#x2014;" horiz-adv-x="1619" d="M94 594q0 36 4 68.5t8 46.5l3 14h1400q17 -47 17 -129q0 -36 -4 -68.5t-8 -46.5l-5 -14h-1400q-15 47 -15 129z" />
<glyph unicode="&#x2018;" horiz-adv-x="526" d="M78 786v267q0 74 20 145t48.5 119t57 85.5t48.5 55.5l20 17l134 -91q-8 -10 -20 -29t-34 -80.5t-26 -125.5q31 -2 62 -5.5t46 -5.5l15 -3v-349q-68 -16 -185 -16q-50 0 -96.5 4t-67.5 8z" />
<glyph unicode="&#x2019;" horiz-adv-x="505" d="M70 1110v348q67 17 186 17q49 0 95 -4.5t67 -8.5l22 -4v-266q0 -74 -20 -145t-48.5 -119t-57 -85.5t-48.5 -54.5l-20 -18l-133 92q3 4 8 10.5t17.5 29.5t23 48t20 64t11.5 80q-31 2 -62 6t-46 7z" />
<glyph unicode="&#x201a;" horiz-adv-x="546" d="M88 16v349q67 16 186 16q49 0 95.5 -4t68.5 -8l21 -4v-267q0 -74 -20 -145t-48.5 -119t-57.5 -85.5t-49 -54.5l-20 -18l-133 93q3 4 8 10.5t17.5 29.5t23 48t20 64t11.5 79q-31 2 -62 6t-46 7z" />
<glyph unicode="&#x201c;" horiz-adv-x="962" d="M78 786v267q0 74 20 145t48.5 119t57 85.5t48.5 55.5l20 17l134 -91q-8 -10 -20 -29t-34 -80.5t-26 -125.5q31 -2 62 -5.5t46 -5.5l15 -3v-349q-68 -16 -185 -16q-50 0 -96.5 4t-67.5 8zM512 786v267q0 74 20 145t49 119t57.5 85.5t48.5 55.5l20 17l135 -91 q-8 -10 -20.5 -29t-35 -80.5t-26.5 -125.5q31 -2 62.5 -5.5t47.5 -5.5l15 -3v-349q-68 -16 -187 -16q-50 0 -96.5 4t-67.5 8z" />
<glyph unicode="&#x201d;" horiz-adv-x="942" d="M70 1110v348q67 17 186 17q49 0 95 -4.5t67 -8.5l22 -4v-266q0 -74 -20 -145t-48.5 -119t-57 -85.5t-48.5 -54.5l-20 -18l-133 92q3 4 8 10.5t17.5 29.5t23 48t20 64t11.5 80q-31 2 -62 6t-46 7zM504 1110v348q67 17 186 17q50 0 97 -4.5t69 -8.5l21 -4v-266 q0 -74 -20 -145t-48.5 -119t-57.5 -85.5t-49 -54.5l-20 -18l-135 92q3 4 8 10.5t17.5 29.5t23 48t20 64t11.5 80q-30 2 -61 6t-46 7z" />
<glyph unicode="&#x201e;" horiz-adv-x="983" d="M88 16v349q67 16 186 16q49 0 95.5 -4t68.5 -8l21 -4v-267q0 -74 -20 -145t-48.5 -119t-57.5 -85.5t-49 -54.5l-20 -18l-133 93q3 4 8 10.5t17.5 29.5t23 48t20 64t11.5 79q-31 2 -62 6t-46 7zM522 16v349q68 16 187 16q50 0 96.5 -4t68.5 -8l21 -4v-267q0 -74 -20 -145 t-48.5 -119t-57.5 -85.5t-49 -54.5l-20 -18l-135 93q3 4 8 10.5t17.5 29.5t23 48t20 64t11.5 79q-30 2 -61 6t-46 7z" />
<glyph unicode="&#x2022;" horiz-adv-x="757" d="M109 578q0 120 77.5 194t194.5 74q116 0 192 -74t76 -194q0 -118 -76 -191.5t-192 -73.5q-117 0 -194.5 73.5t-77.5 191.5z" />
<glyph unicode="&#x2026;" horiz-adv-x="1501" d="M88 16v349q63 16 186 16q53 0 99.5 -4t66.5 -8l21 -4v-349q-68 -16 -187 -16q-54 0 -100.5 4t-65.5 8zM567 16v349q62 16 185 16q54 0 100.5 -4t65.5 -8l20 -4v-349q-65 -16 -186 -16q-54 0 -100 4t-66 8zM1042 16v349q64 16 187 16q53 0 99 -4t66 -8l19 -4v-349 q-65 -16 -184 -16q-54 0 -100.5 4t-66.5 8z" />
<glyph unicode="&#x202f;" horiz-adv-x="399" />
<glyph unicode="&#x2039;" horiz-adv-x="694" d="M45 545q0 40 4.5 75.5t8.5 51.5l5 16l469 375q40 -40 66.5 -101t32.5 -126l-262 -285l262 -283q-18 -141 -99 -227l-469 369q-18 47 -18 135z" />
<glyph unicode="&#x203a;" horiz-adv-x="694" d="M63 268l261 283l-261 285q6 66 32 127t67 100l469 -375q18 -53 18 -143q0 -39 -4.5 -73t-8.5 -48l-5 -14l-469 -369q-84 87 -99 227z" />
<glyph unicode="&#x205f;" horiz-adv-x="499" />
<glyph unicode="&#x20ac;" horiz-adv-x="1224" d="M56.5 525.5q8.5 64.5 29.5 105.5h113q-2 18 -2 55q0 39 2 57h-142q-9 45 -0.5 109.5t29.5 105.5h139q110 435 572 435q65 0 125.5 -8.5t101.5 -20.5t72.5 -24t45.5 -20l15 -9q0 -71 -29.5 -135t-78.5 -99q-98 39 -211 39q-90 0 -148.5 -36.5t-87.5 -121.5h420 q9 -45 0.5 -109.5t-29.5 -105.5h-426q-2 -20 -2 -59q0 -37 2 -53h371q9 -45 0.5 -109.5t-29.5 -105.5h-307q29 -85 86.5 -119.5t149.5 -34.5q51 0 109 10t90 20l32 9q50 -38 78.5 -105.5t28.5 -134.5q-6 -3 -16.5 -8.5t-47 -19.5t-77.5 -24.5t-105.5 -19.5t-132.5 -9 q-231 0 -375 110t-197 326h-168q-9 45 -0.5 109.5z" />
<glyph unicode="&#x2122;" horiz-adv-x="1255" d="M47 1409q0 45 8 66h457q8 -19 8 -64q0 -27 -8 -63h-150v-455q-30 -8 -77 -8q-22 0 -41 2t-27 4l-8 2v455h-154q-8 32 -8 61zM563 893v573q4 0 42 4.5t54 4.5q59 0 95 -9l53 -151q38 -106 45 -148q14 53 45 142l53 157q39 9 94 9q24 0 50 -2.5t40 -4.5l15 -2v-573 q-27 -8 -74 -8q-21 0 -39.5 2t-26.5 4l-8 2v215q0 119 5 170q-28 -81 -37 -104l-49 -142q-25 -8 -72 -8q-21 0 -39 2t-25 4l-8 2l-55 178q-5 13 -14 34.5t-13 33.5q4 -90 4 -170v-215q-24 -8 -67 -8q-19 0 -36 2t-25 4z" />
<glyph unicode="&#x25fc;" horiz-adv-x="1095" d="M0 0v1096h1096v-1096h-1096z" />
</font>
</defs>
</svg>
