<?xml version="1.0" standalone="no"?>
<!DOCTYPE svg PUBLIC "-//W3C//DTD SVG 1.1//EN" "http://www.w3.org/Graphics/SVG/1.1/DTD/svg11.dtd" >
<svg xmlns="http://www.w3.org/2000/svg">
<metadata></metadata>
<defs>
<font id="globerbook" horiz-adv-x="1392" >
<font-face units-per-em="2048" ascent="1536" descent="-512" />
<missing-glyph horiz-adv-x="505" />
<glyph unicode="&#xfb01;" horiz-adv-x="1142" d="M78 1034q0 13 2 23.5t4 14.5l2 5h131v123q0 167 83.5 251.5t283.5 84.5q88 0 179 -14t138 -28l47 -15q6 -50 -26 -82q-17 6 -46.5 14.5t-115.5 22.5t-166 14q-154 0 -214.5 -56.5t-60.5 -181.5v-133h582q9 0 31 -2t29 -2v-1065q-17 -8 -52 -8q-17 0 -30 2t-17 4l-4 2v983 h-539v-983q-14 -8 -51 -8q-16 0 -29 2t-17 4l-5 2v983h-131q-8 14 -8 43z" />
<glyph unicode="&#xfb02;" horiz-adv-x="1146" d="M78 1034q0 19 8 43h131v123q0 161 81.5 248.5t268.5 87.5q94 0 192.5 -17.5t150.5 -34.5l51 -18v-1458q-17 -8 -52 -8q-17 0 -30 2t-17 4l-4 2v1397q-141 43 -280 43q-143 0 -201 -59t-58 -179v-133h254q9 -27 9 -43t-9 -43h-254v-983q-14 -8 -51 -8q-16 0 -29 2t-17 4 l-5 2v983h-131q-8 24 -8 43z" />
<glyph horiz-adv-x="0" />
<glyph horiz-adv-x="682" />
<glyph unicode=" "  horiz-adv-x="505" />
<glyph unicode="&#x09;" horiz-adv-x="505" />
<glyph unicode="&#xa0;" horiz-adv-x="505" />
<glyph unicode="!" horiz-adv-x="503" d="M190 8v115q19 8 62 8q19 0 34.5 -2t21.5 -4l5 -2v-115q-18 -8 -61 -8q-19 0 -34.5 2t-21.5 4zM197 1466q2 9 55 9l55 -9l-16 -1130q-12 -10 -39 -10q-13 0 -22.5 2.5t-13.5 5.5l-3 2z" />
<glyph unicode="&#x22;" horiz-adv-x="634" d="M145 1466q19 9 54 9q16 0 29.5 -2.5t18.5 -4.5l5 -2l-21 -397q-9 -6 -32 -6q-10 0 -18.5 1.5t-11.5 3.5l-3 1zM383 1466q16 9 53 9q16 0 29.5 -2.5t18.5 -4.5l5 -2l-20 -397q-10 -6 -33 -6q-10 0 -18.5 1.5t-11.5 3.5l-3 1z" />
<glyph unicode="#" horiz-adv-x="1335" d="M90 334q0 21 6 45h236l141 502h-205q-8 28 -8 45t8 45h230l84 297q21 8 49 8q31 0 47 -8l-84 -297h342l84 297q21 8 49 8q31 0 47 -8l-84 -297h201q8 -24 8 -43t-8 -47h-225l-142 -502h195q8 -16 8 -45t-8 -45h-221l-78 -279q-30 -10 -49 -10q-17 0 -47 10l77 279h-342 l-77 -279q-30 -10 -52 -10q-15 0 -45 10l78 279h-209q-6 18 -6 45zM428 379h342l141 502h-342z" />
<glyph unicode="$" horiz-adv-x="1144" d="M125 1010q0 155 104 249t299 107l-12 242q16 8 51 8q16 0 29.5 -2t19.5 -4l5 -2l-13 -240q96 -1 182 -12.5t124 -23.5l38 -11q0 -25 -6 -45q-9 -22 -24 -37q-136 39 -314 39q-186 0 -280.5 -67.5t-94.5 -192.5q0 -62 27 -107.5t73 -73t105.5 -48t125 -37t131.5 -34 t125.5 -45t105.5 -65t73 -98.5t27 -141q0 -159 -110 -255t-310 -108l15 -262q-15 -8 -52 -8q-16 0 -29.5 2t-18.5 4l-5 2l12 260q-108 1 -208.5 18.5t-146.5 34.5l-46 17q0 32 4 45q8 27 23 37q20 -6 55.5 -15.5t134.5 -25t186 -15.5q187 0 287.5 65.5t100.5 196.5 q0 65 -27 113.5t-73 78t-105.5 50.5t-125 37.5t-131.5 33.5t-125.5 43t-105.5 61.5t-73 94t-27 136.5z" />
<glyph unicode="%" horiz-adv-x="1529" d="M106 1061q0 354 265 354q268 0 268 -354t-268 -354q-130 0 -197.5 84t-67.5 270zM199 1061q0 -151 44 -213t128 -62t128 62t44 213q0 149 -44.5 212.5t-127.5 63.5q-84 0 -128 -63t-44 -213zM322 -12l794 1442q14 8 51 8q16 0 28.5 -2t16.5 -4l5 -2l-795 -1442 q-16 -8 -53 -8q-14 0 -25.5 2t-16.5 4zM895 334q0 354 264 354q268 0 268 -354t-268 -354q-129 0 -196.5 84t-67.5 270zM987 334q0 -151 44 -213t128 -62t128 62t44 213q0 149 -44.5 212.5t-127.5 63.5q-84 0 -128 -63t-44 -213z" />
<glyph unicode="&#x26;" horiz-adv-x="1300" d="M104 328q0 66 23 127t55.5 103.5t77.5 81.5t80 61t72 40q-74 165 -74 318q0 165 83 259.5t241 94.5q131 0 206.5 -71.5t75.5 -174.5q0 -62 -21 -117t-54 -97.5t-89.5 -87t-111 -77.5t-136.5 -77q124 -243 379 -432q101 119 150 294q27 2 52.5 -9t37.5 -29 q-44 -160 -172 -308q111 -76 262 -139q1 -27 -11.5 -52.5t-33.5 -37.5q-139 55 -287 154q-19 -20 -46.5 -42t-80.5 -55t-130.5 -54t-162.5 -21q-76 0 -143.5 20.5t-122.5 61t-87 109t-32 157.5zM213 338q0 -125 79 -196.5t212 -71.5q61 0 118.5 14.5t101 38t70.5 42.5t48 38 q-129 98 -229.5 217.5t-166.5 247.5q-233 -134 -233 -330zM438 1067q0 -136 60 -281q173 90 258.5 172.5t85.5 194.5q0 83 -49.5 130.5t-139.5 47.5q-101 0 -158 -67.5t-57 -196.5z" />
<glyph unicode="'" horiz-adv-x="397" d="M145 1466q17 9 54 9q16 0 29.5 -2.5t18.5 -4.5l5 -2l-21 -397q-9 -6 -32 -6q-10 0 -18.5 1.5t-11.5 3.5l-3 1z" />
<glyph unicode="(" horiz-adv-x="583" d="M127 655q0 120 17 240.5t43.5 217t59.5 185t65.5 153t59 113t43.5 72.5l17 25q20 2 45 -12q11 -6 19.5 -14.5t11.5 -13.5l2 -5q-11 -15 -30 -44t-67 -125.5t-85 -201t-67 -265.5t-30 -325q0 -119 15.5 -236.5t40 -210t54 -176t59.5 -144t54.5 -105t39.5 -66.5l16 -22 q-8 -19 -33 -33q-11 -6 -22.5 -9t-16.5 -3h-6q-12 17 -33 48.5t-73.5 135.5t-92.5 214t-73 276t-33 331z" />
<glyph unicode=")" horiz-adv-x="581" d="M74 -305q11 15 29.5 44t66.5 125.5t84 201t66 265t30 324.5t-28.5 323t-69 269t-81 197t-69.5 130l-28 42q5 19 32 33q11 6 22 9t16 3h6q12 -17 33 -48.5t73.5 -135.5t92.5 -214.5t73 -276.5t33 -331q0 -120 -17 -240.5t-43.5 -216.5t-59.5 -185t-65.5 -153.5t-59 -112.5 t-43.5 -73l-17 -24q-21 -2 -46 12q-11 6 -18.5 14.5t-9.5 13.5z" />
<glyph unicode="*" horiz-adv-x="710" d="M129 1253q0 42 21 66l172 -57v178q36 12 67 0v-178l172 57q21 -21 21 -66l-174 -55l110 -151q-24 -28 -53 -37l-111 147l-106 -149q-31 8 -55 36l108 154z" />
<glyph unicode="+" horiz-adv-x="954" d="M123 594q0 13 2 23.5t4 14.5l2 5h303v303q14 8 43 8q13 0 23.5 -2t15.5 -4l4 -2v-303h303q8 -14 8 -43q0 -13 -2 -23.5t-4 -14.5l-2 -5h-303v-303q-14 -8 -43 -8q-13 0 -23.5 2t-15.5 4l-4 2v303h-303q-8 14 -8 43z" />
<glyph unicode="," horiz-adv-x="446" d="M133 -178q7 7 17.5 20.5t29.5 59.5t23 98q-13 0 -24 2t-16 4l-5 2v115q22 8 65 8q19 0 35.5 -2t23.5 -4l7 -2v-82q0 -46 -11.5 -89t-27.5 -71t-32.5 -49.5t-27.5 -31.5l-12 -9z" />
<glyph unicode="-" horiz-adv-x="729" d="M164 594q0 13 2 23.5t4 14.5l2 5h385q8 -14 8 -43q0 -13 -2 -23.5t-4 -14.5l-2 -5h-385q-8 14 -8 43z" />
<glyph unicode="." horiz-adv-x="446" d="M158 8v115q22 8 65 8q19 0 35.5 -2t23.5 -4l7 -2v-115q-23 -8 -66 -8q-19 0 -35.5 2t-23.5 4z" />
<glyph unicode="/" horiz-adv-x="894" d="M47 -88l692 1616q19 8 54 8q17 0 31 -2t19 -4l5 -2l-692 -1616q-21 -8 -58 -8q-16 0 -28.5 2t-17.5 4z" />
<glyph unicode="0" horiz-adv-x="1269" d="M145 696q0 370 123 543.5t365 173.5q243 0 367 -172t124 -545t-124 -544.5t-367 -171.5t-365.5 171t-122.5 545zM256 696q0 -328 92.5 -476t284.5 -148q195 0 287 147.5t92 476.5q0 330 -92 477.5t-287 147.5q-192 0 -284.5 -148t-92.5 -477z" />
<glyph unicode="1" horiz-adv-x="806" d="M78 1073q267 71 414 311q14 9 51 9q16 0 28 -2.5t17 -4.5l4 -2v-1376q-14 -8 -53 -8q-16 0 -29.5 2t-19.5 4l-5 2v942q0 168 11 283q-68 -92 -172 -155.5t-220 -94.5q-35 35 -26 90z" />
<glyph unicode="2" horiz-adv-x="1081" d="M117 137q0 58 10.5 109.5t24 89.5t42 76.5t49.5 62t62.5 54.5t64.5 46t72 45.5t70 43.5q15 9 44 28q47 29 70 44t60 42t55 45t42 46t34.5 54.5t18.5 60.5t8 73q0 41 -8 76t-29.5 71t-56 61.5t-92 41.5t-132.5 16q-76 0 -157.5 -15.5t-124.5 -30.5l-43 -15q-34 24 -31 77 q17 8 48 20.5t129 33t198 20.5q87 0 159 -19.5t129 -60t89 -110.5t32 -164q0 -39 -6 -74t-14.5 -64t-27 -58t-34.5 -50.5t-46 -48t-52.5 -44t-63.5 -44.5t-69 -44.5t-78 -47.5q-16 -10 -54.5 -32t-59.5 -35t-56 -37.5t-55.5 -44t-46 -50t-39.5 -60.5t-23.5 -69.5t-9.5 -83.5 q0 -12 0.5 -24t1 -20.5t1 -15t0.5 -10.5l1 -4h703q8 -24 8 -49t-8 -49h-797q-12 65 -12 137z" />
<glyph unicode="3" horiz-adv-x="1056" d="M111 47q-2 21 6.5 44.5t21.5 33.5q1 0 23 -7t32 -9.5t35 -9t45 -10t48 -7.5t57.5 -6t60.5 -2q371 0 371 297q0 315 -367 315h-108q-15 44 0 88h108q326 0 326 283q0 128 -79 197t-238 69q-74 0 -145.5 -12.5t-106.5 -25.5l-35 -13q-18 10 -28.5 32t-8.5 44q15 7 43.5 18 t115.5 29t175 18q201 0 307.5 -92t106.5 -248q0 -129 -51 -215t-169 -127q261 -76 261 -377q0 -61 -15 -114.5t-50.5 -102t-89 -83t-134.5 -54.5t-183 -20q-91 0 -175 17t-122 33z" />
<glyph unicode="4" horiz-adv-x="1171" d="M76 416q0 14 2 25t4 15l2 5l680 923q16 9 55 9q16 0 29 -2.5t18 -4.5l4 -2v-923h209q8 -14 8 -45q0 -14 -2 -25t-4 -15l-2 -5h-209v-363q-16 -8 -51 -8q-16 0 -28.5 2t-17.5 4l-5 2v363h-684q-8 14 -8 45zM199 461h569v774z" />
<glyph unicode="5" horiz-adv-x="1056" d="M113 35q-3 22 4 45t22 35q119 -43 277 -43q205 0 305 75t100 234q0 73 -18 128t-61 99.5t-121 68t-191 23.5q-80 0 -240 -20v713h682q18 -50 0 -97h-577v-516q1 0 10 1.5t24 3t34.5 3.5t45.5 3.5t52 1.5q471 0 471 -412q0 -401 -504 -401q-61 0 -116 5.5t-90 13.5 t-61 16.5t-37 14.5z" />
<glyph unicode="6" horiz-adv-x="1130" d="M141 526q0 169 34.5 307t97.5 237.5t154 169.5t202.5 107t244.5 46q16 -43 0 -86q-123 -13 -221 -49.5t-176.5 -101t-131 -164t-75.5 -232.5q164 92 334 92q89 0 162.5 -25t130.5 -76t89 -136.5t32 -198.5q0 -210 -119.5 -323t-318.5 -113q-202 0 -320.5 135t-118.5 411z M250 518q0 -226 90 -338t240 -112q148 0 237.5 89.5t89.5 258.5q0 175 -85 261.5t-230 86.5q-161 0 -336 -111q-6 -65 -6 -135z" />
<glyph unicode="7" horiz-adv-x="1011" d="M76 1343q0 15 2 27.5t4 17.5l2 5h834q8 -27 8 -62q-1 -103 -30 -196.5t-75.5 -167.5t-102 -148.5t-111 -156t-101.5 -172t-74.5 -215t-28.5 -267.5q-32 -8 -51 -8q-29 0 -53 8q0 146 26.5 272.5t70 219t96 174.5t106.5 154t100.5 141t79.5 152.5t41 172.5h-735 q-8 18 -8 49z" />
<glyph unicode="8" horiz-adv-x="1189" d="M135 328q0 67 22 130t52.5 107t73.5 84.5t75 62.5t66 42q-114 58 -178 135t-64 196q0 150 110.5 239t297.5 89q189 0 299 -88t110 -238q0 -72 -23.5 -136t-63 -109.5t-74.5 -74.5t-74 -52q66 -31 113.5 -62t91 -75.5t66 -104.5t22.5 -135q0 -165 -122 -261.5t-347 -96.5 q-214 0 -333.5 96.5t-119.5 251.5zM240 336q0 -120 90 -193t266 -73q166 0 260 73.5t94 190.5q0 41 -11.5 77t-27.5 63t-47 54.5t-56 44.5t-70 39.5t-72.5 34.5t-80 33.5t-77.5 32.5q-24 -14 -48.5 -30t-67 -53t-73.5 -76t-55 -98t-24 -120zM287 1092q0 -38 11 -72 t26.5 -59.5t44.5 -50.5t54.5 -42t67.5 -37t70.5 -32.5t76.5 -31.5q28 -11 42 -17q215 133 215 329q0 116 -82 181t-223 65q-139 0 -221 -63.5t-82 -169.5z" />
<glyph unicode="9" horiz-adv-x="1128" d="M111 977q0 210 119.5 323t318.5 113q202 0 320 -135.5t118 -411.5q0 -211 -52.5 -372.5t-150 -265.5t-229.5 -160.5t-299 -67.5q-21 40 -2 86q251 26 404.5 156.5t197.5 390.5q-157 -92 -332 -92q-89 0 -162.5 25t-130.5 76t-88.5 136.5t-31.5 198.5zM221 977 q0 -175 85.5 -261.5t230.5 -86.5q172 0 335 110q7 75 7 135q0 227 -90 339t-240 112q-148 0 -238 -89.5t-90 -258.5z" />
<glyph unicode=":" horiz-adv-x="458" d="M164 8v115q22 8 65 8q19 0 35.5 -2t23.5 -4l7 -2v-115q-23 -8 -66 -8q-19 0 -35.5 2t-23.5 4zM164 817v115q22 8 65 8q19 0 35.5 -2t23.5 -4l7 -2v-115q-23 -8 -66 -8q-19 0 -35.5 2t-23.5 4z" />
<glyph unicode=";" horiz-adv-x="489" d="M162 -178q7 7 17 20.5t28 59.5t22 98q-13 0 -24 2t-16 4l-5 2v115q23 8 66 8q19 0 35.5 -2t22.5 -4l7 -2v-82q0 -46 -11.5 -89t-27.5 -71t-32 -49.5t-28 -31.5l-11 -9zM184 817v115q23 8 66 8q19 0 35.5 -2t22.5 -4l7 -2v-115q-22 -8 -65 -8q-19 0 -35.5 2t-23.5 4z" />
<glyph unicode="&#x3c;" horiz-adv-x="958" d="M119 594q0 15 2 28t4 19l2 6l655 301q9 -12 9 -45q0 -14 -2.5 -25.5t-4.5 -16.5l-2 -5l-573 -264l573 -260q9 -14 9 -47q0 -14 -2.5 -25.5t-4.5 -16.5l-2 -5l-655 301q-8 22 -8 55z" />
<glyph unicode="=" horiz-adv-x="1042" d="M178 377q-12 45 0 86h688q10 -35 0 -86h-688zM178 725q-9 45 0 86h688q11 -38 0 -86h-688z" />
<glyph unicode="&#x3e;" horiz-adv-x="958" d="M168 285q0 15 2 26.5t4 16.5l2 4l574 260l-574 264q-8 16 -8 47q0 15 2 26t4 15l2 4l655 -301q9 -20 9 -53q0 -15 -2 -28.5t-4 -19.5l-3 -7l-655 -301q-8 16 -8 47z" />
<glyph unicode="?" horiz-adv-x="882" d="M86 1348q13 7 38.5 18t107.5 29t169 18q185 0 281 -91t96 -237q0 -83 -21 -148.5t-55 -109t-75 -81t-81.5 -75.5t-74.5 -81t-55 -107.5t-21 -146.5q-14 -10 -45 -10q-12 0 -23 2.5t-15 5.5l-5 2q0 95 20 169t52 121t71 86t77.5 73.5t70.5 72.5t52 94t20 127 q0 111 -68.5 176.5t-212.5 65.5q-75 0 -142.5 -12.5t-97.5 -25.5l-30 -13q-18 12 -27 34t-6 44zM287 8v115q22 8 65 8q19 0 35.5 -2t23.5 -4l7 -2v-115q-23 -8 -66 -8q-19 0 -35.5 2t-22.5 4z" />
<glyph unicode="@" horiz-adv-x="1873" d="M135 571q0 248 105.5 436t288.5 287t415 99q187 0 336.5 -56.5t248.5 -159t151.5 -244t52.5 -312.5q0 -209 -90 -328t-254 -119q-170 0 -215 145q-74 -145 -265 -145q-70 0 -126.5 21t-102 65.5t-71 123t-25.5 185.5q0 109 25 188t71 124t102.5 65.5t126.5 20.5 q171 0 248 -119v113q16 8 45 8q13 0 24.5 -2t17.5 -4l5 -2v-510q0 -201 144 -201q106 0 177.5 92.5t71.5 278.5q0 318 -185.5 507t-512.5 189q-155 0 -287 -52t-226.5 -147.5t-148 -236t-53.5 -310.5q0 -148 37 -270t102 -206.5t154.5 -142t191.5 -84t216 -26.5 q158 0 304 47t263 125q39 -16 39 -59q-264 -193 -625 -193q-159 0 -297.5 51t-246 148.5t-170 254.5t-62.5 355zM684 569q0 -321 250 -321q99 0 159.5 65t63.5 154v201q0 91 -60.5 158t-162.5 67q-54 0 -96 -14t-78.5 -48t-56 -100t-19.5 -162z" />
<glyph unicode="A" horiz-adv-x="1314" d="M41 8l563 1458q18 9 53 9q16 0 29.5 -2.5t19.5 -4.5l5 -2l563 -1458q-18 -8 -57 -8q-16 0 -30 2t-20 4l-6 2l-162 418h-690l-164 -418q-16 -8 -55 -8q-16 0 -28 2t-16 4zM342 520h623l-275 711q-11 29 -19.5 55.5t-10.5 38.5l-3 12h-4q-9 -43 -32 -106z" />
<glyph unicode="B" horiz-adv-x="1282" d="M209 0v1475h496q107 0 186 -31t124 -86t66 -122.5t21 -148.5q0 -50 -9.5 -95t-21.5 -75.5t-33 -59.5t-34.5 -43.5t-37.5 -31.5t-29.5 -20t-21.5 -12l15 -6q15 -5 26 -11t31.5 -17t36.5 -25.5t36 -34t34.5 -45.5t27.5 -57.5t20 -72t7 -86.5q0 -185 -107.5 -290 t-328.5 -105h-504zM315 92h385q180 0 258 76.5t78 226.5q0 157 -82 231t-256 74h-383v-608zM315 791h369q307 0 307 296q0 143 -71.5 219t-239.5 76h-365v-591z" />
<glyph unicode="C" horiz-adv-x="1140" d="M143 737q0 758 553 758q99 0 184.5 -17t121.5 -34l36 -17q-3 -45 -34 -81q-13 6 -37.5 15t-101.5 24.5t-154 15.5q-85 0 -152 -19.5t-125 -67t-96.5 -123t-60 -190.5t-21.5 -266t21.5 -265.5t59.5 -189t96 -120.5t125 -65t153 -19q84 0 163 14t116 28l36 13 q32 -32 35 -84q-5 -3 -14.5 -7.5t-44 -16t-73.5 -20.5t-102 -16t-131 -7q-277 0 -415 187.5t-138 569.5z" />
<glyph unicode="D" horiz-adv-x="1349" d="M209 0v1475h405q151 0 257.5 -36.5t183.5 -121t114 -228t37 -352.5q0 -168 -24.5 -293t-71.5 -209.5t-120 -137t-164.5 -75t-211.5 -22.5h-405zM315 94h289q98 0 171.5 17.5t135 61t100.5 116t60 184.5t21 264q0 153 -21.5 265t-60 184.5t-100 116t-135 60.5t-171.5 17 h-289v-1286z" />
<glyph unicode="E" horiz-adv-x="1138" d="M209 0v1475h801q8 -24 8 -45q0 -31 -8 -50h-695v-585h592q8 -28 8 -45q0 -29 -8 -48h-592v-608h715q8 -28 8 -45q0 -30 -8 -49h-821z" />
<glyph unicode="F" horiz-adv-x="1091" d="M209 8v1467h797q8 -24 8 -48q0 -23 -8 -47h-691v-606h600q9 -18 9 -45q0 -20 -9 -47h-600v-674q-16 -8 -53 -8q-16 0 -29.5 2t-18.5 4z" />
<glyph unicode="G" horiz-adv-x="1269" d="M141 737q0 374 149 566t429 192q105 0 198.5 -17t134.5 -34l42 -17q-7 -47 -35 -79q-16 6 -45.5 15t-115 23.5t-165.5 14.5q-85 0 -154.5 -19.5t-131 -67t-103.5 -122.5t-66 -190.5t-24 -266.5t24 -266t65.5 -188.5t103 -120t131 -65.5t155.5 -19q117 0 279 33v577h-369 q-8 18 -8 47q0 15 2 26.5t4 16.5l2 4h473v-733q-17 -8 -49 -19t-135.5 -29.5t-212.5 -18.5q-281 0 -429.5 189.5t-148.5 567.5z" />
<glyph unicode="H" horiz-adv-x="1384" d="M209 8v1458q18 9 53 9q16 0 29 -2.5t19 -4.5l5 -2v-661h754v661q18 9 53 9q16 0 29.5 -2.5t18.5 -4.5l6 -2v-1458q-17 -8 -54 -8q-18 0 -31.5 2t-17.5 4l-4 2v699h-754v-699q-18 -8 -53 -8q-17 0 -30.5 2t-17.5 4z" />
<glyph unicode="I" horiz-adv-x="524" d="M209 8v1458q16 9 53 9q16 0 29.5 -2.5t18.5 -4.5l5 -2v-1458q-16 -8 -53 -8q-17 0 -30.5 2t-17.5 4z" />
<glyph unicode="J" horiz-adv-x="870" d="M55 41v9q0 50 31 75q13 -5 35 -13.5t84.5 -22t118.5 -13.5q115 0 177 59.5t62 198.5v1132q14 9 53 9q16 0 29.5 -2.5t18.5 -4.5l6 -2v-1130q0 -182 -83 -269t-251 -87q-69 0 -139.5 15t-106.5 31z" />
<glyph unicode="K" horiz-adv-x="1249" d="M209 8v1458q18 9 55 9q16 0 28.5 -2.5t17.5 -4.5l5 -2v-653h256l459 653q27 9 57 9q22 0 58 -9l-483 -690l542 -768q-20 -8 -61 -8q-18 0 -34.5 2t-24.5 4l-7 2l-504 711h-258v-711q-16 -8 -53 -8q-16 0 -29 2t-19 4z" />
<glyph unicode="L" horiz-adv-x="1038" d="M209 0v1466q18 9 53 9q16 0 29.5 -2.5t18.5 -4.5l5 -2v-1370h662q8 -24 8 -47q0 -17 -8 -49h-768z" />
<glyph unicode="M" horiz-adv-x="1724" d="M209 8v1458q26 9 67 9q17 0 34 -2.5t26 -4.5l8 -2l422 -761q55 -98 82 -166h4q18 44 66 129q82 140 234 408t222 390q45 9 70 9q21 0 39 -2.5t25 -4.5l8 -2v-1458q-17 -8 -54 -8q-16 0 -29.5 2t-18.5 4l-5 2v1039q0 221 10 303h-6q-13 -55 -104 -215l-420 -729 q-16 -9 -41 -9q-11 0 -21.5 2.5t-14.5 4.5l-5 2q-74 134 -212 381.5t-192 345.5q-38 68 -67.5 132t-34.5 85h-6q14 -68 14 -312v-1030q-14 -8 -49 -8q-16 0 -28.5 2t-17.5 4z" />
<glyph unicode="N" horiz-adv-x="1421" d="M209 8v1458q22 9 63 9q19 0 34.5 -2.5t21.5 -4.5l6 -2l674 -1116q29 -48 56 -100.5t40 -80.5l12 -28h4q-8 113 -8 273v1052q14 9 51 9q16 0 28 -2.5t17 -4.5l4 -2v-1458q-18 -8 -61 -8q-19 0 -35 2t-22 4l-7 2l-677 1131q-32 51 -58 100t-36 73l-9 23h-4q8 -89 8 -286 v-1041q-16 -8 -53 -8q-15 0 -27 2t-17 4z" />
<glyph unicode="O" d="M143 737q0 385 144 571.5t409 186.5t409 -186t144 -572q0 -387 -143.5 -572t-409.5 -185t-409.5 185t-143.5 572zM258 737q0 -179 30.5 -308.5t88.5 -207t137 -113.5t182 -36q212 0 325.5 157t113.5 508q0 180 -30.5 310t-89 207t-137.5 113t-182 36t-182 -36t-137 -113 t-88.5 -207t-30.5 -310z" />
<glyph unicode="P" horiz-adv-x="1226" d="M209 8v1467h506q191 0 300 -118t109 -313q0 -193 -109 -310.5t-300 -117.5h-400v-608q-16 -8 -51 -8q-17 0 -31 2t-19 4zM315 713h396q143 0 222 87.5t79 241.5q0 159 -78.5 248.5t-222.5 89.5h-396v-667z" />
<glyph unicode="Q" d="M143 737q0 385 144 571.5t409 186.5t409 -186t144 -572q0 -462 -211 -645q105 -105 262 -143q-7 -64 -61 -92q-74 20 -149.5 71t-126.5 115q-111 -63 -267 -63q-266 0 -409.5 185t-143.5 572zM258 737q0 -179 30.5 -308.5t88.5 -207t137 -113.5t182 -36q212 0 325.5 157 t113.5 508q0 180 -30.5 310t-89 207t-137.5 113t-182 36t-182 -36t-137 -113t-88.5 -207t-30.5 -310z" />
<glyph unicode="R" horiz-adv-x="1265" d="M209 8v1467h493q191 0 301.5 -112.5t110.5 -299.5q0 -156 -79.5 -261t-221.5 -136l354 -658q-20 -8 -61 -8q-17 0 -33 2t-23 4l-8 2l-344 645h-383v-645q-16 -8 -51 -8q-17 0 -31 2t-19 4zM315 748h385q139 0 220 83.5t81 231.5q0 149 -81 233t-220 84h-385v-632z" />
<glyph unicode="S" horiz-adv-x="1148" d="M131 57q0 51 29 88q20 -7 56 -18t135 -29t186 -18q186 0 286.5 77t100.5 224q0 43 -10 79.5t-25.5 63.5t-42.5 50t-52 38.5t-64.5 31t-69.5 24.5t-76 22q-169 49 -230 76q-157 71 -202 199q-21 59 -21 133q0 184 122.5 290.5t348.5 106.5q102 0 196 -12.5t138 -25.5 l43 -13q0 -53 -29 -86q-154 43 -334 43q-187 0 -281.5 -78.5t-94.5 -218.5q0 -60 20 -105.5t49.5 -74.5t83 -54t99 -39.5t119.5 -34.5l12 -3q52 -14 88 -26t82.5 -31t78 -39.5t64.5 -52t53 -67.5t32.5 -85.5t12.5 -108.5q0 -190 -128 -296.5t-359 -106.5q-71 0 -139.5 8 t-116.5 19t-85.5 22.5t-55.5 19.5z" />
<glyph unicode="T" horiz-adv-x="1091" d="M63 1427q0 13 2.5 25t4.5 18l2 5h948q8 -17 8 -48q0 -13 -2 -24.5t-4 -16.5l-2 -6h-416v-1372q-16 -8 -53 -8q-17 0 -30.5 2t-18.5 4l-4 2v1372h-426q-9 18 -9 47z" />
<glyph unicode="U" horiz-adv-x="1366" d="M199 467v999q18 9 53 9q16 0 30 -2.5t20 -4.5l5 -2v-1013q0 -181 99.5 -281t279.5 -100q179 0 278 100t99 281v1013q16 9 51 9q16 0 29 -2.5t19 -4.5l5 -2v-999q0 -231 -131.5 -359t-353.5 -128q-221 0 -352 129t-131 358z" />
<glyph unicode="V" horiz-adv-x="1261" d="M53 1464q17 11 58 11q16 0 28.5 -2.5t17.5 -4.5l5 -2l424 -1177q14 -38 24.5 -75.5t14.5 -55.5l4 -19h6q10 64 41 148l424 1179q16 9 53 9q17 0 31 -2.5t19 -4.5l5 -2l-524 -1458q-20 -8 -53 -8q-15 0 -28 2t-19 4l-6 2z" />
<glyph unicode="W" horiz-adv-x="1943" d="M61 1466q17 9 54 9q17 0 31 -2.5t19 -4.5l5 -2l334 -1118q16 -52 28.5 -105t16.5 -79l4 -27h6q8 92 43 211l328 1118q14 9 51 9q16 0 29 -2.5t18 -4.5l4 -2l328 -1118q15 -54 25 -106.5t13 -78.5l3 -26h4q10 88 47 211l320 1118q16 9 51 9q15 0 27.5 -2.5t17.5 -4.5l6 -2 l-418 -1458q-18 -8 -53 -8q-15 0 -28 2t-19 4l-6 2l-328 1116q-16 62 -26.5 113.5t-12.5 72.5l-2 21h-6q-4 -68 -41 -207l-328 -1116q-32 -8 -57 -8q-21 0 -53 8z" />
<glyph unicode="X" horiz-adv-x="1226" d="M61 8l471 750l-450 708q20 9 65 9q17 0 32.5 -2.5t22.5 -4.5l7 -2l401 -630l410 630q36 9 61 9q26 0 62 -9l-461 -704l483 -752q-22 -10 -65 -10q-19 0 -35 2t-23 4l-6 2l-432 672l-420 -672q-32 -8 -61 -8q-30 0 -62 8z" />
<glyph unicode="Y" horiz-adv-x="1269" d="M53 1466q23 9 66 9q18 0 33.5 -2.5t21.5 -4.5l6 -2l457 -731l469 731q18 9 57 9q19 0 35 -2.5t22 -4.5l7 -2l-541 -843v-615q-18 -8 -53 -8q-16 0 -29 2t-18 4l-6 2v613z" />
<glyph unicode="Z" horiz-adv-x="1187" d="M84 49q0 17 8 49l844 1278h-789q-8 32 -8 51q0 24 8 48h912q8 -24 8 -48q0 -19 -8 -51l-844 -1278h870q9 -27 9 -49q0 -13 -9 -49h-993q-8 32 -8 49z" />
<glyph unicode="[" horiz-adv-x="647" d="M205 -348v2007h354q8 -14 8 -47q0 -15 -2 -26.5t-4 -15.5l-2 -5h-252v-1819h252q8 -16 8 -47q0 -15 -2 -26.5t-4 -16.5l-2 -4h-354z" />
<glyph unicode="\" horiz-adv-x="899" d="M49 1526q18 10 55 10q17 0 31.5 -2.5t20.5 -5.5l6 -2l688 -1612q-18 -10 -55 -10q-16 0 -30.5 2.5t-20.5 5.5l-7 2z" />
<glyph unicode="]" horiz-adv-x="645" d="M78 -301q0 14 2 25.5t4 16.5l2 5h252v1819h-252q-8 14 -8 47q0 15 2 26.5t4 15.5l2 5h354v-2007h-354q-8 14 -8 47z" />
<glyph unicode="^" horiz-adv-x="1056" d="M119 934l358 532q14 9 51 9q16 0 29 -2.5t18 -4.5l5 -2l358 -532q-12 -8 -49 -8q-16 0 -29.5 2t-18.5 4l-5 2l-310 459l-307 -459q-14 -8 -51 -8q-16 0 -28.5 2t-16.5 4z" />
<glyph unicode="_" horiz-adv-x="1095" d="M123 -80q0 13 2 22.5t4 13.5l2 3h836q8 -10 8 -39q0 -14 -2 -24t-4 -14l-2 -3h-836q-8 10 -8 41z" />
<glyph unicode="`" horiz-adv-x="487" d="M90 1608q12 21 39.5 34.5t56.5 12.5l228 -303q-20 -33 -68 -39z" />
<glyph unicode="a" horiz-adv-x="1048" d="M102 297q0 315 381 315q154 0 295 -18v139q0 149 -64.5 212t-201.5 63q-70 0 -144 -13.5t-112 -26.5l-39 -14q-18 12 -27 33q-11 27 -6 47q18 7 49 17.5t120.5 28.5t170.5 18q108 0 179 -26.5t109.5 -84t53.5 -131.5t15 -184v-664q-12 -8 -41 -8q-12 0 -23 2t-15 4l-5 2 l-17 172q-46 -97 -139 -148.5t-221 -51.5q-145 0 -231.5 82.5t-86.5 234.5zM211 297q0 -116 62 -172.5t173 -56.5q147 0 239.5 98t92.5 258v90q-202 18 -278 18q-150 0 -219.5 -55t-69.5 -180z" />
<glyph unicode="b" horiz-adv-x="1134" d="M176 8v1520q14 8 51 8q16 0 29 -2t18 -4l5 -2v-610q99 180 329 180q95 0 166.5 -29t125 -93t81 -173.5t27.5 -263.5t-27.5 -263.5t-81 -173.5t-125 -93t-166.5 -29q-230 0 -329 180v-152q-15 -8 -52 -8q-16 0 -29 2t-18 4zM279 410q0 -84 32.5 -160t102.5 -128t164 -52 q171 0 246 108.5t75 360.5t-75 360.5t-246 108.5q-70 0 -128 -29t-94 -77t-55.5 -105.5t-21.5 -118.5v-268z" />
<glyph unicode="c" horiz-adv-x="909" d="M125 539q0 273 111 416t319 143q74 0 136 -12t87 -24l25 -13q0 -55 -35 -80q-74 37 -193 37q-177 0 -260.5 -116.5t-83.5 -350.5q0 -235 86.5 -349t266.5 -114q56 0 107 11t74 21l23 11q33 -20 37 -80q-11 -7 -31.5 -16.5t-91 -26t-147.5 -16.5q-208 0 -319 143t-111 416 z" />
<glyph unicode="d" horiz-adv-x="1134" d="M127 539q0 154 27 263.5t80.5 173.5t125 93t166.5 29q231 0 330 -180v610q14 8 51 8q16 0 29 -2t18 -4l4 -2v-1520q-16 -8 -43 -8q-12 0 -23.5 2t-16.5 4l-5 2l-10 158q-100 -186 -334 -186q-95 0 -166.5 29t-125 93t-80.5 173.5t-27 263.5zM236 539q0 -252 75 -360.5 t246 -108.5q94 0 164 52t102.5 128t32.5 160v260q-1 84 -33.5 159t-102 127t-163.5 52q-171 0 -246 -108.5t-75 -360.5z" />
<glyph unicode="e" horiz-adv-x="1042" d="M125 545q0 280 114.5 416.5t313.5 136.5q181 0 279 -104.5t98 -280.5q0 -56 -6 -108t-12 -75l-5 -24h-676q10 -230 93 -330t251 -100q72 0 136.5 19t93.5 38l29 19q40 -28 43 -80q-5 -4 -13.5 -10t-39.5 -22t-65.5 -28t-91 -22t-116.5 -10q-209 0 -317.5 143.5 t-108.5 421.5zM231 590h582q0 1 1 7.5t2.5 18.5t3 27t2.5 37t1 45q0 59 -15 109t-46.5 90t-84.5 63t-124 23q-145 0 -230 -103.5t-92 -316.5z" />
<glyph unicode="f" horiz-adv-x="704" d="M72 1034q0 19 8 43h143v123q0 79 14 137t48 104.5t95.5 70.5t151.5 24q49 0 98 -7t73 -15l24 -7v-8q0 -45 -29 -74q-63 23 -153 23q-128 0 -173.5 -57.5t-45.5 -180.5v-133h315q8 -24 8 -43t-8 -43h-315v-983q-15 -8 -52 -8q-16 0 -29 2t-17 4l-5 2v983h-143q-8 24 -8 43 z" />
<glyph unicode="g" horiz-adv-x="1067" d="M86 -217q0 58 20 111.5t52 92t57 61t51 40.5q-51 44 -51 119q0 104 96 223q-178 84 -178 313q0 167 98.5 261t276.5 94q127 0 217 -49l270 47q10 -24 10 -49t-10 -50l-194 -12q82 -91 82 -242q0 -165 -97.5 -258.5t-277.5 -93.5q-57 0 -123 15q-68 -81 -68 -175 q1 -36 24.5 -60t63 -36.5t90.5 -19.5t106.5 -13.5t111.5 -15.5t106 -27.5t89 -46.5t62 -76.5t23 -113.5q0 -143 -130.5 -238.5t-368.5 -95.5q-205 0 -306.5 82t-101.5 213zM193 -199q0 -107 77.5 -168t225.5 -61q180 0 287.5 66t107.5 174q0 68 -37.5 109.5t-103 58.5 t-133 25t-149 18t-130.5 28q-68 -45 -106.5 -113t-38.5 -137zM238 745q0 -133 73 -202.5t197 -69.5q125 0 197.5 69.5t72.5 202.5q0 132 -72.5 201.5t-197.5 69.5q-124 0 -197 -69.5t-73 -201.5z" />
<glyph unicode="h" horiz-adv-x="1124" d="M176 8v1520q16 8 51 8q16 0 29 -2t18 -4l5 -2v-617q131 187 364 187q145 0 228 -83t83 -222v-785q-16 -8 -51 -8q-16 0 -29 2t-18 4l-4 2v762q0 240 -246 240q-98 0 -187.5 -62.5t-139.5 -169.5v-770q-17 -8 -52 -8q-16 0 -28.5 2t-17.5 4z" />
<glyph unicode="i" horiz-adv-x="466" d="M168 1331v115q22 8 65 8q19 0 35.5 -2t23.5 -4l7 -2v-115q-23 -8 -66 -8q-19 0 -35.5 2t-23.5 4zM182 8v1061q14 8 51 8q16 0 29 -2t18 -4l5 -2v-1061q-15 -8 -52 -8q-16 0 -29 2t-18 4z" />
<glyph unicode="j" horiz-adv-x="466" d="M-117 -469q0 16 3.5 29.5t6.5 18.5l3 5q33 -8 88 -8q101 0 149.5 56t48.5 180v1257q12 8 51 8q16 0 29 -2t18 -4l5 -2v-1249q0 -166 -72.5 -249t-204.5 -83q-38 0 -68.5 4.5t-41.5 9.5l-11 4q-4 11 -4 25zM168 1337v115q20 8 65 8q19 0 35 -2t22 -4l7 -2v-115 q-21 -8 -64 -8q-20 0 -36.5 2t-22.5 4z" />
<glyph unicode="k" horiz-adv-x="1015" d="M176 8v1520q16 8 51 8q16 0 29 -2t18 -4l5 -2v-922h217l319 463q20 8 59 8q16 0 29 -1.5t18 -3.5l5 -1l-344 -502l393 -559q-21 -10 -60 -10q-18 0 -33.5 2.5t-21.5 5.5l-6 2l-360 510h-215v-512q-17 -8 -52 -8q-16 0 -28.5 2t-17.5 4z" />
<glyph unicode="l" horiz-adv-x="475" d="M186 8v1520q15 8 52 8q16 0 29 -2t17 -4l5 -2v-1520q-14 -8 -51 -8q-16 0 -29 2t-18 4z" />
<glyph unicode="m" horiz-adv-x="1720" d="M176 8v1061q16 8 51 8q16 0 29.5 -2t19.5 -4l5 -2v-156q122 185 342 185q102 0 174 -50t100 -151q132 201 363 201q136 0 213 -82.5t77 -222.5v-785q-16 -8 -51 -8q-16 0 -29 2t-18 4l-4 2v762q0 123 -55.5 181.5t-169.5 58.5q-95 0 -179.5 -61.5t-130.5 -174.5v-766 q-16 -8 -51 -8q-16 0 -28.5 2t-17.5 4l-5 2v762q0 123 -55.5 181.5t-169.5 58.5q-91 0 -175.5 -62.5t-129.5 -169.5v-770q-19 -8 -54 -8q-16 0 -28.5 2t-17.5 4z" />
<glyph unicode="n" horiz-adv-x="1122" d="M176 8v1061q16 8 51 8q16 0 29 -2t18 -4l5 -2v-158q131 187 364 187q145 0 228 -83t83 -222v-785q-16 -8 -51 -8q-16 0 -29 2t-18 4l-4 2v762q0 240 -246 240q-98 0 -187.5 -62.5t-139.5 -169.5v-770q-17 -8 -52 -8q-16 0 -28.5 2t-17.5 4z" />
<glyph unicode="o" horiz-adv-x="1105" d="M127 539q0 295 108.5 427t317.5 132t317.5 -132t108.5 -427t-108.5 -427t-317.5 -132t-317.5 132t-108.5 427zM233 539q0 -133 22 -226t65 -146.5t99.5 -77t133.5 -23.5t133.5 23.5t99.5 77t64.5 146.5t21.5 226t-21.5 226t-64.5 146.5t-99.5 77t-133.5 23.5 t-133.5 -23.5t-99.5 -77t-65 -146.5t-22 -226z" />
<glyph unicode="p" horiz-adv-x="1134" d="M176 -494v1563q14 8 51 8q16 0 29 -2t18 -4l5 -2v-151q99 180 329 180q95 0 166.5 -29t125 -93t81 -173.5t27.5 -263.5t-27.5 -263.5t-81 -173.5t-125 -93t-166.5 -29q-230 0 -329 180v-654q-15 -8 -52 -8q-16 0 -29 2t-18 4zM279 410q0 -84 32.5 -160t102.5 -128 t164 -52q171 0 246 108.5t75 360.5t-75 360.5t-246 108.5q-70 0 -128 -29t-94 -77t-55.5 -105.5t-21.5 -118.5v-268z" />
<glyph unicode="q" horiz-adv-x="1134" d="M127 539q0 154 27 263.5t80.5 173.5t125 93t166.5 29q231 0 330 -180v151q12 8 49 8q16 0 29.5 -2t18.5 -4l5 -2v-1563q-14 -8 -51 -8q-16 0 -29 2t-18 4l-4 2v654q-99 -180 -330 -180q-95 0 -166.5 29t-125 93t-80.5 173.5t-27 263.5zM236 539q0 -252 75 -360.5 t246 -108.5q91 0 159.5 49t102.5 122t37 156v281q-2 61 -22.5 118.5t-56.5 105.5t-93 77t-127 29q-171 0 -246 -108.5t-75 -360.5z" />
<glyph unicode="r" horiz-adv-x="794" d="M176 8v1061q14 8 51 8q16 0 29 -2t18 -4l5 -2v-188q109 215 296 215q103 0 173 -47q-3 -59 -50 -86q-68 36 -147 36q-78 0 -149.5 -66t-122.5 -177v-748q-15 -8 -52 -8q-16 0 -29 2t-18 4z" />
<glyph unicode="s" horiz-adv-x="907" d="M121 45v9q0 45 29 71q15 -6 41 -15t100 -23.5t139 -14.5q122 0 194 51.5t72 157.5q0 43 -14.5 76.5t-36.5 54.5t-58 38.5t-68 27.5t-78 23q-13 3 -19 5q-51 15 -87 28t-79.5 37t-70.5 52.5t-45.5 73t-18.5 98.5q0 140 92 221.5t270 81.5q74 0 140.5 -12t96.5 -24l30 -11 q2 -22 -7 -45t-24 -35q-100 37 -225 37q-132 0 -200.5 -53.5t-68.5 -155.5q0 -36 15 -66t36.5 -49.5t58.5 -37.5t67 -28.5t77 -23.5q136 -40 190 -72q134 -76 134 -237q0 -144 -92.5 -224.5t-272.5 -80.5q-88 0 -167.5 16t-114.5 32z" />
<glyph unicode="t" horiz-adv-x="735" d="M63 1034q0 14 2.5 24.5t4.5 14.5l2 4h164v203q39 26 84 26q9 0 18 -1v-228h313q11 -14 11 -43q0 -13 -3 -23.5t-5 -14.5l-3 -5h-313v-631q0 -156 49.5 -223t177.5 -67q26 0 54 2.5t43 5.5l14 2q10 -16 10 -45q0 -12 -1.5 -21.5t-2.5 -13.5l-2 -4q-80 -16 -139 -16 q-168 0 -236.5 93.5t-68.5 284.5v633h-164q-9 12 -9 43z" />
<glyph unicode="u" horiz-adv-x="1122" d="M168 285v784q16 8 51 8q16 0 29 -2t18 -4l4 -2v-762q0 -239 246 -239q98 0 188 61.5t140 169.5v770q16 8 51 8q16 0 28.5 -2t17.5 -4l5 -2v-1061q-16 -8 -51 -8q-16 0 -28.5 2t-17.5 4l-5 2v158q-136 -186 -365 -186q-145 0 -228 83t-83 222z" />
<glyph unicode="v" horiz-adv-x="1028" d="M57 1069q19 8 56 8q17 0 31 -2t19 -4l5 -2l283 -741q19 -50 35 -101.5t22 -77.5l6 -26h6q23 86 66 201l280 745q14 8 49 8q15 0 28 -2t19 -4l5 -2l-398 -1061q-20 -8 -53 -8q-16 0 -29 2t-19 4l-5 2z" />
<glyph unicode="w" horiz-adv-x="1626" d="M68 1069q18 8 53 8q16 0 28.5 -2t16.5 -4l4 -2l250 -766q26 -84 41 -174h6q13 80 45 174l254 766q18 8 51 8q16 0 29 -2t18 -4l4 -2l254 -762q23 -72 41 -178h6q12 72 45 176l248 764q16 8 47 8q16 0 28.5 -2t16.5 -4l5 -2l-342 -1061q-40 -8 -52 -8q-11 0 -51 8 l-227 684q-60 188 -68 256h-6q-8 -63 -74 -256l-227 -684q-32 -8 -49 -8q-13 0 -53 8z" />
<glyph unicode="x" horiz-adv-x="1001" d="M59 8l377 541l-364 520q18 8 57 8q18 0 33.5 -2t21.5 -4l6 -2l316 -446l311 446q14 8 55 8q17 0 31.5 -2t20.5 -4l6 -2l-367 -522l379 -539q-18 -8 -57 -8q-19 0 -34.5 2t-21.5 4l-6 2l-329 463l-322 -463q-16 -8 -59 -8q-16 0 -29.5 2t-19.5 4z" />
<glyph unicode="y" horiz-adv-x="1069" d="M59 1069q21 8 58 8q16 0 30 -2t19 -4l6 -2l311 -764q20 -51 38 -102t26 -76l8 -25h8q25 86 66 203l272 764q14 8 53 8q16 0 29.5 -2t18.5 -4l6 -2l-463 -1300q-51 -146 -110.5 -213.5t-168.5 -67.5q-26 0 -51 3.5t-37 6.5l-12 4q-8 24 -8 41q0 30 10 45q37 -10 88 -10 q64 0 107 46t86 169l75 209q-26 4 -37 10z" />
<glyph unicode="z" horiz-adv-x="929" d="M86 47q0 19 8 43l608 897h-561q-8 14 -8 45q0 15 2 26t4 15l2 4h674q8 -24 8 -43q0 -23 -8 -47l-606 -897h612q8 -12 8 -45q0 -14 -2 -25t-4 -16l-2 -4h-727q-8 24 -8 47z" />
<glyph unicode="{" horiz-adv-x="692" d="M72 684q0 23 8 47h67q43 0 64.5 29t21.5 74v552q0 126 70 199.5t203 73.5h98q8 -24 8 -45t-8 -45h-80q-188 0 -188 -187v-512q0 -71 -15 -114t-53 -70q38 -27 53 -71t15 -115v-512q0 -187 188 -187h80q8 -24 8 -45t-8 -45h-98q-133 0 -203 73.5t-70 199.5v553 q0 45 -21.5 73.5t-64.5 28.5h-67q-8 24 -8 45z" />
<glyph unicode="|" horiz-adv-x="512" d="M205 -395v2005q14 8 51 8q16 0 29 -2t17 -4l5 -2v-2005q-14 -8 -51 -8q-16 0 -29 2t-17 4z" />
<glyph unicode="}" horiz-adv-x="690" d="M80 -244q0 27 6 45h80q98 0 143 47.5t45 139.5v512q0 71 15 114t53 70q-38 27 -53 71t-15 115v512q0 92 -45 139.5t-143 47.5h-80q0 1 -3 14.5t-3 28.5q0 29 6 47h98q133 0 203 -73.5t70 -199.5v-552q0 -45 21.5 -74t64.5 -29h67q8 -24 8 -45q0 -23 -8 -47h-67 q-43 0 -64.5 -28.5t-21.5 -73.5v-553q0 -126 -70 -199.5t-203 -73.5h-98q-6 18 -6 45z" />
<glyph unicode="~" horiz-adv-x="1097" d="M170 606q3 4 8 11.5t25 26t43 32.5t62 25.5t83 11.5q45 0 89 -16.5t74 -36t73 -36t86 -16.5q44 0 82.5 18.5t55.5 37.5l17 18q50 -9 62 -57q-3 -4 -8 -11.5t-24.5 -26.5t-43 -33t-64 -26t-85.5 -12t-89 16.5t-74 36t-73 36t-86 16.5q-27 0 -53.5 -7.5t-44 -18.5 t-31.5 -22t-20 -19l-7 -7q-47 9 -57 59z" />
<glyph unicode="&#xa1;" horiz-adv-x="481" d="M174 938v115q23 8 66 8q19 0 35.5 -2t22.5 -4l7 -2v-115q-22 -8 -65 -8q-19 0 -35.5 2t-23.5 4zM184 -406l17 1131q10 10 39 10q12 0 22 -2.5t14 -4.5l3 -3l16 -1131q-2 -8 -55 -8z" />
<glyph unicode="&#xa2;" horiz-adv-x="952" d="M135 539q0 257 98.5 399.5t284.5 157.5l-10 188q20 8 51 8q33 0 49 -8l-10 -186q64 -3 117.5 -15t75.5 -23l22 -11q0 -53 -35 -78q-73 37 -192 37q-176 0 -260 -117t-84 -352q0 -236 86.5 -350.5t265.5 -114.5q56 0 107 11t75 21l23 11q34 -20 37 -78q-10 -6 -28.5 -15 t-80 -25t-129.5 -19l10 -187q-25 -10 -51 -10q-29 0 -49 10l10 189q-186 15 -284.5 157.5t-98.5 399.5z" />
<glyph unicode="&#xa3;" horiz-adv-x="1058" d="M123 690q0 31 8 43h143q-23 68 -35 106.5t-24 99t-12 112.5q0 185 111 274.5t304 89.5q74 0 150 -13t109.5 -23.5t54.5 -18.5q4 -59 -35 -82q-10 5 -43 14.5t-97.5 20t-127.5 10.5q-153 0 -233.5 -70t-80.5 -209q0 -21 2 -41.5t7.5 -46.5t8.5 -41t13 -47t13 -41.5 t16.5 -48.5t15.5 -45h400q10 -15 10 -41q0 -32 -10 -45h-373q21 -74 27.5 -135t-1.5 -132.5t-47.5 -142.5t-109.5 -139h641q10 -10 10 -49t-10 -49h-776v98q80 71 124.5 141.5t53.5 142t1.5 130t-30.5 135.5h-170q-8 24 -8 43z" />
<glyph unicode="&#xa4;" horiz-adv-x="1202" d="M141 154l152 151q-88 113 -88 250q0 139 90 250l-154 151q3 19 21 39q11 9 21 14t14 6l4 1l155 -152q113 88 246 88t246 -88l149 152q16 -1 39 -21q9 -9 14.5 -18.5t7.5 -14.5l1 -6l-150 -151q90 -115 90 -250q0 -139 -90 -250l154 -151q-3 -19 -21 -37 q-10 -11 -19.5 -17t-14.5 -6h-4l-154 152q-113 -88 -248 -88q-137 0 -250 88l-151 -152q-16 0 -39 23q-9 9 -14 18t-6 14zM289 555q0 -132 91 -222.5t222 -90.5q132 0 222.5 90.5t90.5 222.5t-90.5 222.5t-222.5 90.5q-131 0 -222 -90.5t-91 -222.5z" />
<glyph unicode="&#xa5;" horiz-adv-x="1243" d="M78 1391q18 10 55 10q18 0 33 -2t21 -4l6 -2l421 -713l447 713q18 8 55 8q16 0 30 -2t20 -4l5 -2l-475 -756h316q8 -24 8 -39q0 -23 -8 -39h-350v-162h350q8 -16 8 -39q0 -15 -8 -39h-350v-311q-13 -8 -50 -8q-16 0 -28.5 2t-16.5 4l-4 2v311h-350q-8 24 -8 39t8 39h350 v162h-350q-8 24 -8 39t8 39h315z" />
<glyph unicode="&#xa6;" horiz-adv-x="512" d="M203 -176v1587q16 8 53 8q16 0 29.5 -2t18.5 -4l5 -2v-1587q-16 -8 -53 -8q-16 0 -29.5 2t-18.5 4z" />
<glyph unicode="&#xa7;" horiz-adv-x="987" d="M143 705q0 145 160 243q-139 73 -139 211q0 125 89.5 189.5t252.5 64.5q161 0 276 -43q5 -21 -2 -43.5t-22 -32.5q-140 35 -230 35q-141 0 -202.5 -43.5t-61.5 -124.5q0 -49 32 -84.5t82.5 -57.5t112 -40.5t123 -40.5t112 -50t82.5 -76t32 -112q0 -137 -146 -235 q74 -36 116 -87t42 -130q0 -268 -387 -268q-81 0 -159.5 12.5t-117.5 24.5l-38 12q-7 56 24 80q156 -39 272 -39q155 0 228.5 42t73.5 136q0 48 -33.5 82.5t-86.5 55t-117.5 38.5t-129.5 39.5t-118 50t-86.5 77t-33.5 114.5zM244 719q0 -36 16 -65t38.5 -47t63.5 -35t73 -26 t85.5 -23.5t83.5 -24.5q135 83 135 190q0 34 -16 61.5t-39 45.5t-62 35t-71.5 27.5t-83 25.5t-80.5 26q-143 -84 -143 -190z" />
<glyph unicode="&#xa8;" horiz-adv-x="931" d="M244 1260v108q20 6 61 6q18 0 33.5 -1.5t21.5 -2.5l7 -2v-108q-21 -9 -62 -9q-18 0 -33.5 2.5t-21.5 4.5zM549 1260v108q20 6 61 6q18 0 33.5 -1.5t22.5 -2.5l6 -2v-108q-21 -9 -62 -9q-18 0 -33.5 2.5t-21.5 4.5z" />
<glyph unicode="&#xa9;" horiz-adv-x="1652" d="M135 696q0 188 92.5 347t251.5 251t348 92q141 0 269 -54.5t220.5 -146.5t147 -220t54.5 -269t-54.5 -269t-147 -221t-220.5 -147.5t-269 -54.5q-188 0 -347.5 92.5t-252 252t-92.5 347.5zM213 696q0 -166 82.5 -307.5t224 -224t307.5 -82.5t307.5 82.5t223.5 224 t82 307.5q0 124 -48.5 238t-130.5 196t-196 130.5t-238 48.5q-166 0 -307.5 -82t-224 -223.5t-82.5 -307.5zM483 711q0 201 87.5 304t260.5 103q60 0 111.5 -11t73.5 -23l22 -11q0 -39 -30 -63q-78 37 -166 37q-140 0 -205.5 -78.5t-65.5 -257.5q0 -334 271 -334 q43 0 87 8.5t67 16.5l22 8q27 -14 31 -62q-9 -5 -25.5 -13t-73 -21t-119.5 -13q-172 0 -260 106t-88 304z" />
<glyph unicode="&#xaa;" horiz-adv-x="739" d="M123 803q0 92 58.5 142t174.5 50q47 0 172 -10v80q0 84 -38.5 122t-116.5 38q-42 0 -86.5 -8.5t-68.5 -16.5l-23 -8q-24 28 -21 57q96 41 209 41q112 0 164.5 -53.5t52.5 -161.5v-448q-11 -9 -29 -9q-9 0 -16.5 2t-10.5 4l-3 3l-11 86q-29 -51 -85 -79t-128 -28 q-88 0 -141 52.5t-53 144.5zM131 436q-10 32 0 64h463q10 -32 0 -64h-463zM197 803q0 -133 137 -133q85 0 138 53t56 145v60q-100 8 -161 8q-88 0 -129 -32t-41 -101z" />
<glyph unicode="&#xab;" horiz-adv-x="1009" d="M104 551q0 13 2 24t4 16l3 5l422 446q32 -20 36 -69l-374 -420l374 -422q-3 -50 -36 -70l-422 447q-9 16 -9 43zM453 551q0 13 1.5 23.5t3.5 15.5l1 4l385 407q31 -19 35 -67l-336 -381l336 -383q-3 -49 -35 -68l-385 408q-6 14 -6 41z" />
<glyph unicode="&#xac;" horiz-adv-x="1230" d="M129 852q0 14 2 25.5t4 16.5l2 5h918v-520q-16 -8 -47 -8q-14 0 -25 2t-15 4l-5 2v428h-826q-8 16 -8 45z" />
<glyph unicode="&#xad;" horiz-adv-x="552" />
<glyph unicode="&#xae;" horiz-adv-x="1134" d="M141 965q0 177 124.5 301.5t301.5 124.5t301.5 -124.5t124.5 -301.5t-124.5 -301.5t-301.5 -124.5t-301.5 124.5t-124.5 301.5zM193 965q0 -157 109.5 -267t264.5 -110q157 0 266 110t109 267t-109 266.5t-266 109.5q-155 0 -264.5 -109.5t-109.5 -266.5zM422 745v461 h178q73 0 110.5 -35t37.5 -100q0 -97 -91 -125l119 -198q-10 -9 -28 -9q-8 0 -15 1.5t-11 3.5l-3 1l-117 195h-129v-195q-10 -6 -24 -6q-7 0 -14 1.5t-10 3.5zM473 985h127q51 0 72.5 21.5t21.5 64.5q0 46 -21.5 68t-72.5 22h-127v-176z" />
<glyph unicode="&#xaf;" horiz-adv-x="833" d="M102 1290q-20 41 0 82h596q19 -36 0 -82h-596z" />
<glyph unicode="&#xb0;" horiz-adv-x="737" d="M121 1264q0 99 67.5 173t184.5 74q116 0 179.5 -72t63.5 -169q0 -99 -63.5 -171.5t-179.5 -72.5q-121 0 -186.5 70.5t-65.5 167.5zM184 1266q0 -76 48 -129.5t139 -53.5q88 0 135 54t47 131t-47 131.5t-135 54.5t-137.5 -56.5t-49.5 -131.5z" />
<glyph unicode="&#xb1;" horiz-adv-x="1052" d="M172 336q0 13 2 23.5t4 14.5l2 5h692q9 -14 9 -43q0 -13 -2.5 -23.5t-4.5 -14.5l-2 -5h-692q-8 14 -8 43zM172 823q0 13 2 23.5t4 15.5l2 4h303v242q14 8 43 8q13 0 23.5 -2t14.5 -4l5 -2v-242h303q9 -14 9 -43q0 -13 -2.5 -23.5t-4.5 -15.5l-2 -4h-303v-241 q-14 -9 -43 -9q-13 0 -23.5 2t-14.5 4l-5 3v241h-303q-8 14 -8 43z" />
<glyph unicode="&#xb2;" horiz-adv-x="614" d="M72 793q0 57 21 101t55 72t75 50.5t81.5 42.5t74.5 41.5t55 53.5t21 73q0 58 -41 94.5t-131 36.5q-32 0 -68.5 -5t-56.5 -9.5t-23 -6.5q-22 26 -16 58q72 26 176 26q118 0 175.5 -50.5t57.5 -137.5q0 -53 -21.5 -94t-56 -67t-76 -48t-82.5 -43.5t-74.5 -47t-54 -65.5 t-18.5 -92h373q8 -13 8 -35q0 -19 -8 -32h-438q-8 37 -8 84z" />
<glyph unicode="&#xb3;" horiz-adv-x="612" d="M78 729q-4 34 18 53q72 -20 158 -20q116 0 158.5 37.5t42.5 103.5q0 72 -45 106.5t-121 34.5h-90q-14 32 0 64h90q69 0 105 33.5t36 91.5q0 61 -40.5 93t-117.5 32q-40 0 -79.5 -5t-59.5 -9l-20 -5q-20 20 -17 56q71 26 180 26q112 0 171 -47t59 -135q0 -59 -22.5 -97 t-73.5 -63q59 -24 88.5 -64.5t29.5 -115.5q0 -201 -270 -201q-47 0 -92 8t-66 16z" />
<glyph unicode="&#xb4;" horiz-adv-x="458" d="M61 1352l228 303q29 1 55.5 -12t40.5 -35l-256 -295q-48 6 -68 39z" />
<glyph unicode="&#xb5;" horiz-adv-x="1179" d="M197 -29v1098q16 8 51 8q17 0 30 -2t17 -4l4 -2v-766q0 -235 248 -235q107 0 194 67t131 162v772q15 8 52 8q16 0 29 -2t17 -4l5 -2v-1061q-14 -8 -51 -8q-16 0 -29 2t-18 4l-5 2v154q-130 -182 -344 -182q-159 0 -239 96q4 -194 19.5 -334t28.5 -184l13 -43 q-20 -18 -51.5 -24.5t-60.5 1.5q-5 15 -11.5 47.5t-18 156t-11.5 275.5z" />
<glyph unicode="&#xb6;" horiz-adv-x="958" d="M74 1194q2 97 64.5 167.5t172.5 70.5h80v-1889q-14 -8 -45 -8q-15 0 -25.5 2t-14.5 4l-3 2v1413q-110 3 -169.5 72.5t-59.5 165.5zM653 -457v1880q12 9 45 9q14 0 24.5 -2t14.5 -4l4 -3v-1880q-12 -8 -43 -8q-15 0 -26 2t-15 4z" />
<glyph unicode="&#xb7;" horiz-adv-x="450" d="M164 528v107q20 8 61 8q18 0 33.5 -2t21.5 -4l7 -2v-107q-21 -8 -62 -8q-18 0 -33.5 2t-21.5 4z" />
<glyph unicode="&#xb8;" horiz-adv-x="606" d="M100 -391q3 37 29 57l7 -3q8 -3 17 -7t23.5 -8.5t30 -8t35.5 -6t39 -2.5q72 0 111.5 33.5t39.5 99.5q0 56 -36 85.5t-105 29.5h-66l-16 21l33 186l69 -10l-22 -129q227 0 227 -185q0 -200 -235 -200q-47 0 -92.5 12t-66.5 24z" />
<glyph unicode="&#xb9;" horiz-adv-x="491" d="M61 1264q68 18 131 57t103 84q12 6 37 6q24 0 33 -6v-692q-16 -4 -33 -4q-27 0 -39 4v518q0 57 2 82q-97 -83 -217 -111q-24 24 -17 62z" />
<glyph unicode="&#xba;" horiz-adv-x="774" d="M125 948q0 178 64 260t198 82t199 -81t65 -261t-65 -262t-199 -82t-198 81.5t-64 262.5zM145 469q0 17 7 31h471q6 -12 6 -31q0 -21 -6 -33h-471q-7 14 -7 33zM201 948q0 -151 43 -214.5t143 -63.5q99 0 143.5 64t44.5 214q0 148 -44.5 213.5t-143.5 65.5 q-100 0 -143 -65t-43 -214z" />
<glyph unicode="&#xbb;" horiz-adv-x="1011" d="M131 170l338 383l-338 381q4 48 35 67l385 -407q6 -14 6 -43q0 -12 -1.5 -22t-3.5 -15l-1 -4l-385 -408q-32 19 -35 68zM438 131l375 422l-375 420q3 45 37 69l422 -446q8 -16 8 -45q0 -12 -2 -23t-4 -16l-2 -4l-422 -447q-34 24 -37 70z" />
<glyph unicode="&#xbc;" horiz-adv-x="1323" d="M80 1264q67 18 128.5 57t102.5 84q15 6 37 6q23 0 35 -6v-692q-16 -4 -35 -4q-25 0 -37 4v518q0 57 2 82q-97 -83 -217 -111q-23 23 -16 62zM225 -14l795 1444q12 8 41 8q12 0 21.5 -2t12.5 -4l3 -2l-793 -1444q-14 -6 -41 -6q-11 0 -21 1.5t-14 2.5zM696 213q0 13 6 25 l363 458q18 6 37 6q23 0 35 -6v-442h86q6 -18 6 -31q0 -21 -6 -33h-86v-184q-12 -6 -31 -6q-23 0 -35 6v184h-369q-6 12 -6 23zM791 254h280v350z" />
<glyph unicode="&#xbd;" horiz-adv-x="1441" d="M80 1264q67 18 128.5 57t102.5 84q15 6 37 6q23 0 35 -6v-692q-16 -4 -35 -4q-25 0 -37 4v518q0 57 2 82q-97 -83 -217 -111q-23 23 -16 62zM225 -14l795 1444q12 8 41 8q12 0 21.5 -2t12.5 -4l3 -2l-793 -1444q-14 -6 -41 -6q-11 0 -21 1.5t-14 2.5zM877 84q0 57 21 101 t55 72t75 50.5t81.5 42.5t74.5 41.5t55 53.5t21 73q0 58 -41 94.5t-132 36.5q-32 0 -68 -4.5t-56 -9t-23 -6.5q-22 25 -16 57q72 27 176 27q118 0 175.5 -51t57.5 -138q0 -53 -21.5 -94t-56 -67t-76 -47.5t-82.5 -43.5t-74.5 -47t-54 -65t-18.5 -92h373q8 -13 8 -35 q0 -20 -8 -33h-438q-8 37 -8 84z" />
<glyph unicode="&#xbe;" horiz-adv-x="1437" d="M113 729q-4 34 18 53q72 -20 158 -20q116 0 158 37.5t42 103.5q0 72 -44.5 106.5t-120.5 34.5h-91q-14 32 0 64h91q69 0 105 33.5t36 91.5q0 61 -40.5 93t-117.5 32q-40 0 -80 -5t-60 -9l-20 -5q-19 19 -16 56q71 26 180 26q112 0 171 -47t59 -135q0 -59 -23 -97t-74 -63 q59 -24 89 -64.5t30 -115.5q0 -201 -270 -201q-47 0 -92 8t-67 16zM340 -14l795 1444q12 8 41 8q12 0 21 -2t12 -4l3 -2l-792 -1444q-14 -6 -41 -6q-11 0 -21 1.5t-14 2.5zM811 215q0 11 6 23l363 458q18 6 37 6q22 0 34 -6v-442h86q6 -18 6 -31q0 -21 -6 -33h-86v-184 q-12 -6 -30 -6q-23 0 -35 6v184h-369q-6 12 -6 25zM905 254h281v350z" />
<glyph unicode="&#xbf;" horiz-adv-x="864" d="M98 -20q0 65 13 119.5t35.5 93.5t51.5 72.5t60.5 62t63.5 57t61 62t51.5 72t35.5 92.5t13 118q14 8 43 8q13 0 23.5 -2t14.5 -4l5 -2q0 -95 -20 -169t-51.5 -121t-70 -86t-77 -73.5t-70 -72.5t-51.5 -94t-20 -127q0 -111 68 -176.5t212 -65.5q75 0 142.5 13t98.5 25 l30 13q18 -12 27 -34t6 -44q-14 -7 -39.5 -18t-108 -29t-168.5 -18q-185 0 -282 91t-97 237zM461 942v115q22 8 65 8q19 0 35 -2t23 -4l6 -2v-115q-21 -8 -64 -8q-19 0 -35.5 2t-22.5 4z" />
<glyph unicode="&#xc0;" horiz-adv-x="1314" d="M41 8l563 1458q18 9 53 9q16 0 29.5 -2.5t19.5 -4.5l5 -2l563 -1458q-18 -8 -57 -8q-16 0 -30 2t-20 4l-6 2l-162 418h-690l-164 -418q-16 -8 -55 -8q-16 0 -28 2t-16 4zM342 520h623l-275 711q-11 29 -19.5 55.5t-10.5 38.5l-3 12h-4q-9 -43 -32 -106zM442 1841 q12 21 40 34.5t57 12.5l227 -303q-20 -33 -68 -39z" />
<glyph unicode="&#xc1;" horiz-adv-x="1314" d="M41 8l563 1458q18 9 53 9q16 0 29.5 -2.5t19.5 -4.5l5 -2l563 -1458q-18 -8 -57 -8q-16 0 -30 2t-20 4l-6 2l-162 418h-690l-164 -418q-16 -8 -55 -8q-16 0 -28 2t-16 4zM342 520h623l-275 711q-11 29 -19.5 55.5t-10.5 38.5l-3 12h-4q-9 -43 -32 -106zM563 1587l228 303 q29 1 55.5 -12t40.5 -35l-256 -295q-48 6 -68 39z" />
<glyph unicode="&#xc2;" horiz-adv-x="1314" d="M41 8l563 1458q18 9 53 9q16 0 29.5 -2.5t19.5 -4.5l5 -2l563 -1458q-18 -8 -57 -8q-16 0 -30 2t-20 4l-6 2l-162 418h-690l-164 -418q-16 -8 -55 -8q-16 0 -28 2t-16 4zM342 520h623l-275 711q-11 29 -19.5 55.5t-10.5 38.5l-3 12h-4q-9 -43 -32 -106zM367 1628l262 213 h53l260 -213q-14 -47 -49 -55l-240 174l-235 -176q-39 15 -51 57z" />
<glyph unicode="&#xc3;" horiz-adv-x="1314" d="M41 8l563 1458q18 9 53 9q16 0 29.5 -2.5t19.5 -4.5l5 -2l563 -1458q-18 -8 -57 -8q-16 0 -30 2t-20 4l-6 2l-162 418h-690l-164 -418q-16 -8 -55 -8q-16 0 -28 2t-16 4zM342 520h623l-275 711q-11 29 -19.5 55.5t-10.5 38.5l-3 12h-4q-9 -43 -32 -106zM397 1638 q2 4 5 11t16 25t29 31.5t42.5 25t57.5 12.5q55 0 121.5 -37t103.5 -37q25 1 45 15t27 28l8 14q47 0 66 -34q-2 -4 -5.5 -10.5t-17 -24t-29.5 -30.5t-43.5 -24t-58.5 -12q-43 -1 -82 17.5t-73.5 37t-67.5 17.5q-25 0 -45 -14.5t-28 -29.5l-7 -15q-22 0 -40 9.5t-24 24.5z" />
<glyph unicode="&#xc4;" horiz-adv-x="1314" d="M41 8l563 1458q18 9 53 9q16 0 29.5 -2.5t19.5 -4.5l5 -2l563 -1458q-18 -8 -57 -8q-16 0 -30 2t-20 4l-6 2l-162 418h-690l-164 -418q-16 -8 -55 -8q-16 0 -28 2t-16 4zM342 520h623l-275 711q-11 29 -19.5 55.5t-10.5 38.5l-3 12h-4q-9 -43 -32 -106zM442 1593v109 q19 6 62 6q17 0 32 -1.5t21 -2.5l6 -2v-109q-20 -8 -59 -8q-19 0 -34.5 2t-21.5 4zM745 1593v109q21 6 62 6q18 0 33.5 -1.5t21.5 -2.5l6 -2v-109q-20 -8 -61 -8q-18 0 -33.5 2t-21.5 4z" />
<glyph unicode="&#xc5;" horiz-adv-x="1316" d="M41 8l547 1415q-75 16 -120.5 69.5t-45.5 137.5q0 101 69 159t164 58t166.5 -58t71.5 -159q0 -82 -46 -135.5t-120 -69.5l547 -1417q-18 -8 -57 -8q-16 0 -30 2t-20 4l-6 2l-162 418h-690l-164 -418q-16 -8 -55 -8q-16 0 -28 2t-16 4zM342 520h623l-275 711 q-11 29 -19.5 55.5t-10.5 38.5l-3 12h-4q-9 -43 -32 -106zM502 1630q0 -60 39.5 -103.5t111.5 -43.5q75 0 117.5 44t42.5 103q0 61 -42 103.5t-118 42.5q-72 0 -111.5 -43t-39.5 -103z" />
<glyph unicode="&#xc6;" horiz-adv-x="1746" d="M25 8l886 1467h705q10 -21 9.5 -47.5t-9.5 -47.5h-586v-585h483q20 -51 0 -95h-483v-606h606q20 -49 0 -94h-710v406h-547l-240 -398q-32 -8 -55 -8q-40 0 -59 8zM434 500h492v815z" />
<glyph unicode="&#xc7;" horiz-adv-x="1138" d="M139 737q0 758 553 758q99 0 184.5 -17t121.5 -34l36 -17q4 -18 -6 -43q-4 -13 -11.5 -22.5t-12.5 -12.5l-5 -3q-13 6 -37.5 15t-101 24.5t-153.5 15.5q-85 0 -152 -19.5t-125 -67t-96.5 -123t-60 -190.5t-21.5 -266t21.5 -265.5t59.5 -189t96 -120.5t125 -65t153 -19 q84 0 163 14t116 28l36 13q17 -8 29 -35q4 -12 5.5 -24t1.5 -18l-1 -7q-5 -3 -14.5 -7.5t-44 -16t-73 -20.5t-100.5 -16t-129 -7l-30 -95q223 0 223 -180q0 -194 -236 -194q-47 0 -92 11.5t-67 23.5l-21 12q3 37 29 57l8 -3q7 -3 15.5 -7t23.5 -8.5t30 -8t35 -6t39 -2.5 q152 0 152 123q0 56 -36 85.5t-105 29.5h-66l-16 20l49 146q-492 44 -492 753z" />
<glyph unicode="&#xc8;" horiz-adv-x="1138" d="M209 0v1475h801q8 -24 8 -45q0 -31 -8 -50h-695v-585h592q8 -28 8 -45q0 -29 -8 -48h-592v-608h715q8 -28 8 -45q0 -30 -8 -49h-821zM375 1841q12 21 39.5 34.5t56.5 12.5l227 -303q-20 -33 -67 -39z" />
<glyph unicode="&#xc9;" horiz-adv-x="1138" d="M209 0v1475h801q8 -24 8 -45q0 -31 -8 -50h-695v-585h592q8 -28 8 -45q0 -29 -8 -48h-592v-608h715q8 -28 8 -45q0 -30 -8 -49h-821zM451 1589l227 303q29 1 55.5 -12t40.5 -35l-256 -295q-47 6 -67 39z" />
<glyph unicode="&#xca;" horiz-adv-x="1138" d="M209 0v1475h801q8 -24 8 -45q0 -31 -8 -50h-695v-585h592q8 -28 8 -45q0 -29 -8 -48h-592v-608h715q8 -28 8 -45q0 -30 -8 -49h-821zM313 1628l262 213h54l260 -213q-14 -47 -49 -55l-240 174l-235 -176q-40 15 -52 57z" />
<glyph unicode="&#xcb;" horiz-adv-x="1138" d="M209 0v1475h801q8 -24 8 -45q0 -31 -8 -50h-695v-585h592q8 -28 8 -45q0 -29 -8 -48h-592v-608h715q8 -28 8 -45q0 -30 -8 -49h-821zM406 1577v109q20 6 61 6q17 0 32 -1.5t21 -2.5l6 -2v-109q-20 -8 -59 -8q-18 0 -33.5 2t-21.5 4zM711 1577v109q18 6 59 6 q18 0 33.5 -1.5t21.5 -2.5l6 -2v-109q-20 -8 -61 -8q-18 0 -33 2t-21 4z" />
<glyph unicode="&#xcc;" horiz-adv-x="524" d="M59 1841q12 21 40 34.5t57 12.5l227 -303q-20 -33 -68 -39zM209 8v1458q16 9 53 9q16 0 29.5 -2.5t18.5 -4.5l5 -2v-1458q-16 -8 -53 -8q-17 0 -30.5 2t-17.5 4z" />
<glyph unicode="&#xcd;" horiz-adv-x="524" d="M115 1589l227 303q29 1 55.5 -12t40.5 -35l-256 -295q-47 6 -67 39zM209 8v1458q16 9 53 9q16 0 29.5 -2.5t18.5 -4.5l5 -2v-1458q-16 -8 -53 -8q-17 0 -30.5 2t-17.5 4z" />
<glyph unicode="&#xce;" horiz-adv-x="524" d="M-27 1628l263 213h53l260 -213q-14 -47 -49 -55l-240 174l-235 -176q-40 15 -52 57zM209 8v1458q16 9 53 9q16 0 29.5 -2.5t18.5 -4.5l5 -2v-1458q-16 -8 -53 -8q-17 0 -30.5 2t-17.5 4z" />
<glyph unicode="&#xcf;" horiz-adv-x="524" d="M49 1577v109q21 6 62 6q18 0 33.5 -1.5t21.5 -2.5l6 -2v-109q-20 -8 -61 -8q-18 0 -33.5 2t-21.5 4zM209 8v1458q16 9 53 9q16 0 29.5 -2.5t18.5 -4.5l5 -2v-1458q-16 -8 -53 -8q-17 0 -30.5 2t-17.5 4zM354 1577v109q21 6 62 6q18 0 33.5 -1.5t21.5 -2.5l6 -2v-109 q-20 -8 -61 -8q-18 0 -33.5 2t-22.5 4z" />
<glyph unicode="&#xd0;" horiz-adv-x="1361" d="M47 690q-9 43 0 82h174v703h406q151 0 257.5 -36.5t183.5 -121t114 -228t37 -352.5q0 -168 -24.5 -293t-71.5 -209.5t-120 -137t-164.5 -75t-211.5 -22.5h-406v690h-174zM328 94h288q98 0 171.5 17.5t135 61t100.5 116t60 184.5t21 264q0 153 -21.5 265t-60 184.5 t-100 116t-135 60.5t-171.5 17h-288v-608h299q10 -41 0 -82h-299v-596z" />
<glyph unicode="&#xd1;" horiz-adv-x="1421" d="M209 8v1458q22 9 63 9q18 0 33.5 -2.5t22.5 -4.5l6 -2l674 -1116q28 -48 55 -100.5t40 -80.5l13 -28h4q-10 113 -10 273v1052q16 9 53 9q16 0 28 -2.5t17 -4.5l4 -2v-1458q-18 -8 -61 -8q-19 0 -35 2t-22 4l-7 2l-677 1131q-32 51 -58 100t-36 73l-9 23h-4q8 -89 8 -286 v-1041q-16 -8 -53 -8q-16 0 -28 2t-16 4zM473 1634q2 4 5 9.5t16 21t28.5 27t42.5 21t58 9.5q55 0 120 -35.5t101 -35.5q26 0 48.5 13.5t31.5 26.5l10 13q18 -5 32 -20t17 -33q-10 -23 -51 -52.5t-98 -29.5q-44 0 -82 18.5t-71.5 36.5t-66.5 18q-26 0 -48.5 -15t-31.5 -29 l-10 -15q-39 15 -51 51z" />
<glyph unicode="&#xd2;" d="M143 737q0 385 144 571.5t409 186.5t409 -186t144 -572q0 -387 -143.5 -572t-409.5 -185t-409.5 185t-143.5 572zM258 737q0 -179 30.5 -308.5t88.5 -207t137 -113.5t182 -36q212 0 325.5 157t113.5 508q0 180 -30.5 310t-89 207t-137.5 113t-182 36t-182 -36t-137 -113 t-88.5 -207t-30.5 -310zM524 1841q12 21 40 34.5t57 12.5l213 -289q-20 -33 -68 -36z" />
<glyph unicode="&#xd3;" d="M143 737q0 385 144 571.5t409 186.5t409 -186t144 -572q0 -387 -143.5 -572t-409.5 -185t-409.5 185t-143.5 572zM258 737q0 -179 30.5 -308.5t88.5 -207t137 -113.5t182 -36q212 0 325.5 157t113.5 508q0 180 -30.5 310t-89 207t-137.5 113t-182 36t-182 -36t-137 -113 t-88.5 -207t-30.5 -310zM672 1614l217 289q29 2 56 -11.5t40 -36.5l-246 -278q-49 6 -67 37z" />
<glyph unicode="&#xd4;" d="M143 737q0 385 144 571.5t409 186.5t409 -186t144 -572q0 -387 -143.5 -572t-409.5 -185t-409.5 185t-143.5 572zM258 737q0 -179 30.5 -308.5t88.5 -207t137 -113.5t182 -36q212 0 325.5 157t113.5 508q0 180 -30.5 310t-89 207t-137.5 113t-182 36t-182 -36t-137 -113 t-88.5 -207t-30.5 -310zM412 1628l262 213h53l260 -213q-14 -47 -49 -55l-240 174l-235 -176q-39 15 -51 57z" />
<glyph unicode="&#xd5;" d="M143 737q0 385 144 571.5t409 186.5t409 -186t144 -572q0 -387 -143.5 -572t-409.5 -185t-409.5 185t-143.5 572zM258 737q0 -179 30.5 -308.5t88.5 -207t137 -113.5t182 -36q212 0 325.5 157t113.5 508q0 180 -30.5 310t-89 207t-137.5 113t-182 36t-182 -36t-137 -113 t-88.5 -207t-30.5 -310zM453 1671q1 4 4 9.5t14.5 21t26 27.5t41 22.5t57.5 11.5q55 2 121.5 -31t101.5 -32q26 1 48 15.5t31 28.5l9 15q37 -10 47 -47q-1 -4 -4 -10t-14.5 -21.5t-26 -28t-41 -23t-57.5 -11.5q-52 -2 -119 32t-104 33q-26 -1 -48 -15.5t-31 -29.5l-9 -14 q-37 18 -47 47z" />
<glyph unicode="&#xd6;" d="M143 737q0 385 144 571.5t409 186.5t409 -186t144 -572q0 -387 -143.5 -572t-409.5 -185t-409.5 185t-143.5 572zM258 737q0 -179 30.5 -308.5t88.5 -207t137 -113.5t182 -36q212 0 325.5 157t113.5 508q0 180 -30.5 310t-89 207t-137.5 113t-182 36t-182 -36t-137 -113 t-88.5 -207t-30.5 -310zM481 1618v108q21 7 62 7q18 0 33.5 -1.5t21.5 -3.5l6 -2v-108q-20 -8 -61 -8q-18 0 -33.5 2t-21.5 4zM786 1618v108q21 7 62 7q17 0 32.5 -1.5t21.5 -3.5l7 -2v-108q-22 -8 -61 -8q-18 0 -33.5 2t-22.5 4z" />
<glyph unicode="&#xd7;" horiz-adv-x="937" d="M166 354l235 238l-235 237q6 19 29 37q8 10 17 17.5t14 9.5l5 2l238 -236l238 236q18 -6 36 -29q10 -8 17.5 -17t9.5 -15l2 -5l-235 -237l235 -238q-6 -19 -29 -37q-8 -10 -17 -17t-14 -9l-5 -2l-238 235l-238 -235q-18 5 -36 28q-10 8 -17.5 17.5t-9.5 14.5z" />
<glyph unicode="&#xd8;" horiz-adv-x="1390" d="M141 737q0 385 144 571.5t409 186.5q183 0 305 -86l86 156q44 -9 84 -43l-100 -174q178 -184 178 -611q0 -387 -143.5 -572t-409.5 -185q-209 0 -336 110l-104 -182q-51 10 -82 41l119 209q-150 192 -150 579zM256 737q0 -309 96 -473l596 1059q-99 80 -254 80 q-103 0 -182 -36t-137 -113t-88.5 -207t-30.5 -310zM410 180q105 -108 284 -108q212 0 325.5 157t113.5 508q0 350 -123 508z" />
<glyph unicode="&#xd9;" horiz-adv-x="1366" d="M199 467v999q18 9 53 9q16 0 30 -2.5t20 -4.5l5 -2v-1013q0 -181 99.5 -281t279.5 -100q179 0 278 100t99 281v1013q16 9 51 9q16 0 29 -2.5t19 -4.5l5 -2v-999q0 -231 -131.5 -359t-353.5 -128q-221 0 -352 129t-131 358zM459 1841q12 21 39.5 34.5t56.5 12.5l211 -284 q-17 -32 -68 -39z" />
<glyph unicode="&#xda;" horiz-adv-x="1366" d="M199 467v999q18 9 53 9q16 0 30 -2.5t20 -4.5l5 -2v-1013q0 -181 99.5 -281t279.5 -100q179 0 278 100t99 281v1013q16 9 51 9q16 0 29 -2.5t19 -4.5l5 -2v-999q0 -231 -131.5 -359t-353.5 -128q-221 0 -352 129t-131 358zM555 1589l227 303q29 1 56 -12t41 -35 l-256 -295q-48 6 -68 39z" />
<glyph unicode="&#xdb;" horiz-adv-x="1366" d="M199 467v999q18 9 53 9q16 0 30 -2.5t20 -4.5l5 -2v-1013q0 -181 99.5 -281t279.5 -100q179 0 278 100t99 281v1013q16 9 51 9q16 0 29 -2.5t19 -4.5l5 -2v-999q0 -231 -131.5 -359t-353.5 -128q-221 0 -352 129t-131 358zM401 1628l263 213h53l260 -213q-14 -47 -49 -55 l-240 174l-235 -176q-40 15 -52 57z" />
<glyph unicode="&#xdc;" horiz-adv-x="1366" d="M199 467v999q18 9 53 9q16 0 30 -2.5t20 -4.5l5 -2v-1013q0 -181 99.5 -281t279.5 -100q179 0 278 100t99 281v1013q16 9 51 9q16 0 29 -2.5t19 -4.5l5 -2v-999q0 -231 -131.5 -359t-353.5 -128q-221 0 -352 129t-131 358zM467 1610v108q20 6 61 6q18 0 33.5 -1.5 t22.5 -2.5l6 -2v-108q-21 -8 -62 -8q-18 0 -33.5 2t-21.5 4zM772 1610v108q21 6 62 6q18 0 33.5 -1.5t21.5 -2.5l6 -2v-108q-20 -8 -61 -8q-18 0 -33.5 2t-22.5 4z" />
<glyph unicode="&#xdd;" horiz-adv-x="1269" d="M53 1466q23 9 66 9q18 0 33.5 -2.5t21.5 -4.5l6 -2l457 -731l469 731q18 9 57 9q19 0 35 -2.5t22 -4.5l7 -2l-541 -843v-615q-18 -8 -53 -8q-16 0 -29 2t-18 4l-6 2v613zM526 1589l228 303q29 1 55.5 -12t40.5 -35l-256 -295q-48 6 -68 39z" />
<glyph unicode="&#xde;" horiz-adv-x="1232" d="M209 8v1458q14 9 53 9q17 0 30.5 -2.5t17.5 -4.5l5 -2v-288h400q191 0 300 -114t109 -304q0 -189 -109 -302.5t-300 -113.5h-400v-336q-14 -8 -53 -8q-17 0 -30.5 2t-17.5 4zM315 440h396q144 0 222.5 84t78.5 234q0 154 -78.5 238.5t-222.5 84.5h-396v-641z" />
<glyph unicode="&#xdf;" horiz-adv-x="1167" d="M176 8v1131q0 397 410 397q95 0 169 -29.5t118 -80t66 -111.5t22 -129q0 -30 -4 -59.5t-10 -53t-11.5 -40t-11.5 -30.5l-6 -14q-5 0 -13.5 -0.5t-34 -4.5t-48 -10.5t-50.5 -21t-48 -34.5t-34 -52t-14 -71q0 -45 22 -81.5t57 -62.5t77.5 -50.5t84.5 -53.5t77 -64.5 t57 -90.5t22 -124q0 -135 -85 -211.5t-243 -76.5q-63 0 -115 9t-72 18l-21 9q-7 49 24 74q68 -22 168 -22q123 0 182.5 53.5t59.5 142.5q0 56 -22 101t-57.5 75t-78 56.5l-85 53t-78 57.5t-57.5 77t-22 104q0 67 27 118.5t65 77.5t76 42.5t65 20.5l27 4q21 63 21 133 q0 114 -66 189t-202 75q-159 0 -232 -79t-73 -230v-1131q-15 -8 -52 -8q-16 0 -29 2t-18 4z" />
<glyph unicode="&#xe0;" horiz-adv-x="1048" d="M102 297q0 153 95 234t286 81q154 0 295 -18v141q0 144 -65 208.5t-201 64.5q-70 0 -144 -13.5t-112 -26.5l-39 -14q-18 12 -27 33q-6 15 -6 47q18 7 49 17.5t120.5 28.5t170.5 18q108 0 179 -26.5t109.5 -84t53.5 -131.5t15 -184v-664q-12 -8 -41 -8q-12 0 -23 2t-15 4 l-5 2l-17 172q-46 -97 -139 -148.5t-221 -51.5q-144 0 -231 84t-87 233zM211 297q0 -115 62 -172t173 -57q147 0 239.5 98t92.5 258v90q-202 18 -278 18q-148 0 -218.5 -57.5t-70.5 -177.5zM270 1540q12 21 40 34.5t57 12.5l227 -303q-20 -33 -68 -39z" />
<glyph unicode="&#xe1;" horiz-adv-x="1048" d="M102 297q0 153 95 234t286 81q154 0 295 -18v139q0 145 -65 210t-201 65q-70 0 -144 -13.5t-112 -26.5l-39 -14q-18 12 -27 33q-11 27 -6 47q18 7 49 17.5t120.5 28.5t170.5 18q108 0 179 -26.5t109.5 -84t53.5 -131.5t15 -184v-664q-12 -8 -41 -8q-12 0 -23 2t-15 4 l-5 2l-17 172q-46 -97 -139 -148.5t-221 -51.5q-144 0 -231 84t-87 233zM211 297q0 -115 62 -172t173 -57q147 0 239.5 98t92.5 258v90q-202 18 -278 18q-148 0 -218.5 -57.5t-70.5 -177.5zM395 1284l228 303q29 1 55.5 -12t40.5 -35l-256 -295q-48 6 -68 39z" />
<glyph unicode="&#xe2;" horiz-adv-x="1048" d="M102 297q0 153 95 234t286 81q154 0 295 -18v141q0 144 -65 208.5t-201 64.5q-70 0 -144 -13.5t-112 -26.5l-39 -14q-18 12 -27 33q-11 27 -6 47q18 7 49 17.5t120.5 28.5t170.5 18q108 0 179 -26.5t109.5 -84t53.5 -131.5t15 -184v-664q-12 -8 -41 -8q-12 0 -23 2t-15 4 l-5 2l-17 172q-46 -97 -139 -148.5t-221 -51.5q-144 0 -231 84t-87 233zM211 297q0 -115 62 -172t173 -57q147 0 239.5 98t92.5 258v90q-202 18 -278 18q-148 0 -218.5 -57.5t-70.5 -177.5zM240 1286l256 211h51l256 -211q-15 -43 -49 -51l-234 170l-231 -172q-36 13 -49 53 z" />
<glyph unicode="&#xe3;" horiz-adv-x="1048" d="M102 297q0 153 95 234t286 81q154 0 295 -18v143q0 145 -64.5 208t-201.5 63q-70 0 -144 -13.5t-112 -26.5l-39 -14q-18 12 -27 33q-11 26 -6 47q18 7 49 17.5t120.5 28.5t170.5 18q108 0 179 -26.5t109.5 -84t53.5 -131.5t15 -184v-664q-12 -8 -41 -8q-12 0 -23 2t-15 4 l-5 2l-17 172q-46 -97 -139 -148.5t-221 -51.5q-144 0 -231 84t-87 233zM211 297q0 -115 62 -172t173 -57q147 0 239.5 98t92.5 258v90q-202 18 -278 18q-148 0 -218.5 -57.5t-70.5 -177.5zM274 1362q59 88 150 88q55 0 118.5 -36t100.5 -36q60 0 90 54q36 -9 47 -50 q-3 -10 -18.5 -27.5t-50.5 -37t-76 -19.5q-55 0 -120 36t-101 36q-26 0 -49 -14t-33 -28l-10 -15q-37 16 -48 49z" />
<glyph unicode="&#xe4;" horiz-adv-x="1048" d="M102 297q0 153 95 234t286 81q154 0 295 -18v141q0 144 -65 208.5t-201 64.5q-70 0 -144 -13.5t-112 -26.5l-39 -14q-18 12 -27 33q-11 27 -6 47q18 7 49 17.5t120.5 28.5t170.5 18q108 0 179 -26.5t109.5 -84t53.5 -131.5t15 -184v-664q-12 -8 -41 -8q-12 0 -23 2t-15 4 l-5 2l-17 172q-46 -97 -139 -148.5t-221 -51.5q-144 0 -231 84t-87 233zM211 297q0 -115 62 -172t173 -57q147 0 239.5 98t92.5 258v90q-202 18 -278 18q-148 0 -218.5 -57.5t-70.5 -177.5zM307 1333v109q21 6 62 6q18 0 33.5 -1.5t21.5 -2.5l6 -2v-109q-20 -8 -61 -8 q-18 0 -33.5 2t-21.5 4zM612 1333v109q21 6 62 6q18 0 33.5 -1.5t21.5 -2.5l6 -2v-109q-20 -8 -61 -8q-18 0 -33.5 2t-22.5 4z" />
<glyph unicode="&#xe5;" horiz-adv-x="1048" d="M102 297q0 153 95 234t286 81q154 0 295 -18v139q0 145 -65 210t-201 65q-70 0 -144 -13.5t-112 -26.5l-39 -14q-18 12 -27 33q-6 15 -6 47q18 7 49 17.5t120.5 28.5t170.5 18q108 0 179 -26.5t109.5 -84t53.5 -131.5t15 -184v-664q-12 -8 -41 -8q-12 0 -23 2t-15 4l-5 2 l-17 172q-46 -97 -139 -148.5t-221 -51.5q-144 0 -231 84t-87 233zM211 297q0 -115 62 -172t173 -57q147 0 239.5 98t92.5 258v90q-202 18 -278 18q-148 0 -218.5 -57.5t-70.5 -177.5zM299 1427q0 96 66.5 151.5t158.5 55.5t160 -55t68 -152t-66 -152.5t-164 -55.5 q-99 0 -161 55t-62 153zM379 1427q0 -57 37.5 -97t105.5 -40q71 0 110.5 41t39.5 96q0 57 -39 96.5t-111 39.5q-68 0 -105.5 -39.5t-37.5 -96.5z" />
<glyph unicode="&#xe6;" horiz-adv-x="1593" d="M102 297q0 309 365 309h272v131q0 146 -58.5 208.5t-186.5 62.5q-67 0 -136 -13.5t-105 -26.5l-36 -14q-33 30 -33 80q17 7 46 17.5t114 28.5t162 18q132 0 206 -53.5t101 -157.5q43 104 127 157.5t193 53.5q169 0 258.5 -104t89.5 -281q0 -49 -5.5 -97t-11.5 -71l-6 -23 h-614q10 -230 85 -340t220 -110q43 0 83.5 7.5t67 18t47 21.5t29.5 19l10 7q38 -23 41 -73q-4 -4 -11.5 -10t-34 -22t-57.5 -28t-82 -22t-107 -10q-132 0 -220.5 71t-123.5 195q-33 -123 -131 -194.5t-250 -71.5q-142 0 -225 84t-83 233zM211 297q0 -114 56.5 -171.5 t158.5 -57.5q141 0 227 93.5t86 260.5v100h-256q-143 0 -207.5 -53.5t-64.5 -171.5zM844 606h522q10 37 10 119q0 60 -13 109t-40 90t-75.5 63.5t-114.5 22.5q-126 0 -204 -97t-85 -307z" />
<glyph unicode="&#xe7;" horiz-adv-x="909" d="M125 539q0 273 111 416t319 143q74 0 136 -12t87 -24l25 -13q0 -53 -35 -78q-74 37 -193 37q-176 0 -260 -117t-84 -352t86.5 -350t266.5 -115q56 0 107 11t74 21l23 11q34 -20 37 -78q-10 -7 -31 -16.5t-96 -26t-163 -16.5l-19 -105q229 0 229 -176q0 -97 -59 -142.5 t-176 -45.5q-47 0 -92 11.5t-66 23.5l-22 12q3 38 28 57l8 -3q7 -3 16 -7t23.5 -8.5t30 -8t35.5 -6t39 -2.5q74 0 113 28t39 93q0 111 -142 111h-65l-17 20l25 156q-165 29 -251.5 169.5t-86.5 381.5z" />
<glyph unicode="&#xe8;" horiz-adv-x="1042" d="M125 545q0 280 114.5 416.5t313.5 136.5q181 0 279 -104.5t98 -280.5q0 -56 -6 -108t-12 -75l-5 -24h-676q10 -230 93 -330t251 -100q72 0 136.5 19t93.5 38l29 19q40 -28 43 -80q-5 -4 -13.5 -10t-39.5 -22t-65.5 -28t-91 -22t-116.5 -10q-209 0 -317.5 143.5 t-108.5 421.5zM231 590h582q0 1 1 7.5t2.5 18.5t3 27t2.5 37t1 45q0 59 -15 109t-46.5 90t-84.5 63t-124 23q-145 0 -230 -103.5t-92 -316.5zM336 1540q12 21 39.5 34.5t56.5 12.5l227 -303q-20 -33 -67 -39z" />
<glyph unicode="&#xe9;" horiz-adv-x="1042" d="M125 545q0 280 114.5 416.5t313.5 136.5q181 0 279 -104.5t98 -280.5q0 -56 -6 -108t-12 -75l-5 -24h-676q10 -230 93 -330t251 -100q72 0 136.5 19t93.5 38l29 19q40 -28 43 -80q-5 -4 -13.5 -10t-39.5 -22t-65.5 -28t-91 -22t-116.5 -10q-209 0 -317.5 143.5 t-108.5 421.5zM231 590h582q0 1 1 7.5t2.5 18.5t3 27t2.5 37t1 45q0 59 -15 109t-46.5 90t-84.5 63t-124 23q-145 0 -230 -103.5t-92 -316.5zM393 1284l228 303q29 1 55.5 -12t40.5 -35l-256 -295q-48 6 -68 39z" />
<glyph unicode="&#xea;" horiz-adv-x="1042" d="M125 545q0 280 114.5 416.5t313.5 136.5q181 0 279 -104.5t98 -280.5q0 -56 -6 -108t-12 -75l-5 -24h-676q10 -230 93 -330t251 -100q72 0 136.5 19t93.5 38l29 19q40 -28 43 -80q-5 -4 -13.5 -10t-39.5 -22t-65.5 -28t-91 -22t-116.5 -10q-209 0 -317.5 143.5 t-108.5 421.5zM231 590h582q0 1 1 7.5t2.5 18.5t3 27t2.5 37t1 45q0 59 -15 109t-46.5 90t-84.5 63t-124 23q-145 0 -230 -103.5t-92 -316.5zM270 1286l254 211h51l256 -211q-15 -43 -49 -51l-233 170l-230 -172q-36 13 -49 53z" />
<glyph unicode="&#xeb;" horiz-adv-x="1042" d="M125 545q0 280 114.5 416.5t313.5 136.5q181 0 279 -104.5t98 -280.5q0 -56 -6 -108t-12 -75l-5 -24h-676q10 -230 93 -330t251 -100q72 0 136.5 19t93.5 38l29 19q40 -28 43 -80q-5 -4 -13.5 -10t-39.5 -22t-65.5 -28t-91 -22t-116.5 -10q-209 0 -317.5 143.5 t-108.5 421.5zM231 590h582q0 1 1 7.5t2.5 18.5t3 27t2.5 37t1 45q0 59 -15 109t-46.5 90t-84.5 63t-124 23q-145 0 -230 -103.5t-92 -316.5zM338 1307v108q20 6 61 6q18 0 33.5 -1.5t21.5 -3.5l7 -1v-108q-21 -9 -62 -9q-18 0 -33.5 2t-21.5 4zM643 1307v108q21 6 62 6 q18 0 33.5 -1.5t21.5 -3.5l6 -1v-108q-20 -9 -61 -9q-18 0 -33.5 2t-21.5 4z" />
<glyph unicode="&#xec;" horiz-adv-x="466" d="M18 1544q12 21 40 34.5t57 12.5l227 -303q-20 -33 -68 -39zM182 8v1061q14 8 51 8q16 0 29 -2t18 -4l5 -2v-1061q-15 -8 -52 -8q-16 0 -29 2t-18 4z" />
<glyph unicode="&#xed;" horiz-adv-x="466" d="M106 1284l228 303q29 1 55.5 -12t40.5 -35l-256 -295q-48 6 -68 39zM182 8v1061q14 8 51 8q16 0 29 -2t18 -4l5 -2v-1061q-15 -8 -52 -8q-16 0 -29 2t-18 4z" />
<glyph unicode="&#xee;" horiz-adv-x="466" d="M-45 1286l256 211h51l256 -211q-15 -43 -49 -51l-233 170l-232 -172q-36 13 -49 53zM182 8v1061q14 8 51 8q16 0 29 -2t18 -4l5 -2v-1061q-15 -8 -52 -8q-16 0 -29 2t-18 4z" />
<glyph unicode="&#xef;" horiz-adv-x="466" d="M14 1319v108q21 9 62 9q18 0 33.5 -2t21.5 -4l6 -3v-108q-20 -6 -61 -6q-18 0 -33.5 1.5t-22.5 3.5zM182 8v1061q14 8 51 8q16 0 29 -2t18 -4l5 -2v-1061q-15 -8 -52 -8q-16 0 -29 2t-18 4zM319 1319v108q21 9 62 9q18 0 33.5 -2t21.5 -4l6 -3v-108q-20 -6 -61 -6 q-18 0 -33.5 1.5t-21.5 3.5z" />
<glyph unicode="&#xf0;" horiz-adv-x="1134" d="M127 516q0 277 109 407t303 130q121 0 207.5 -48t132.5 -133q-52 266 -244 428l-268 -167q-38 21 -45 67l239 152q-121 79 -272 108q-7 47 22 76q185 -34 330 -131l154 96q39 -22 45 -69l-129 -80q140 -120 215 -302.5t75 -420.5q0 -183 -29 -310t-88 -201t-138.5 -106 t-188.5 -32q-430 0 -430 536zM236 516q0 -126 23 -215t67 -139.5t100.5 -73t130.5 -22.5q75 0 132 22.5t102 73t68.5 139.5t23.5 215q0 128 -24.5 217.5t-71.5 139t-105.5 71t-136.5 21.5q-75 0 -130 -22t-96.5 -73t-62 -139t-20.5 -215z" />
<glyph unicode="&#xf1;" horiz-adv-x="1122" d="M176 8v1061q16 8 51 8q16 0 29 -2t18 -4l5 -2v-158q131 187 364 187q145 0 228 -83t83 -222v-785q-16 -8 -51 -8q-16 0 -29 2t-18 4l-4 2v762q0 240 -246 240q-98 0 -187.5 -62.5t-139.5 -169.5v-770q-17 -8 -52 -8q-16 0 -28.5 2t-17.5 4zM309 1374l5 10t16 22t29 28 t42.5 22t57.5 10q55 0 120.5 -35.5t102.5 -35.5q26 0 48 15.5t31 31.5l9 16q20 -5 35 -19.5t18 -33.5q-2 -4 -5.5 -10t-16.5 -22t-29 -28t-43.5 -22t-58.5 -10q-43 0 -81.5 18.5t-72.5 36.5t-67 18q-26 0 -48.5 -17t-31.5 -33l-9 -17q-45 17 -51 55z" />
<glyph unicode="&#xf2;" horiz-adv-x="1105" d="M127 539q0 295 108.5 427t317.5 132t317.5 -132t108.5 -427t-108.5 -427t-317.5 -132t-317.5 132t-108.5 427zM233 539q0 -133 22 -226t65 -146.5t99.5 -77t133.5 -23.5t133.5 23.5t99.5 77t64.5 146.5t21.5 226t-21.5 226t-64.5 146.5t-99.5 77t-133.5 23.5 t-133.5 -23.5t-99.5 -77t-65 -146.5t-22 -226zM313 1540q12 20 40.5 34t56.5 13l227 -303q-20 -33 -68 -39z" />
<glyph unicode="&#xf3;" horiz-adv-x="1105" d="M127 539q0 295 108.5 427t317.5 132t317.5 -132t108.5 -427t-108.5 -427t-317.5 -132t-317.5 132t-108.5 427zM233 539q0 -133 22 -226t65 -146.5t99.5 -77t133.5 -23.5t133.5 23.5t99.5 77t64.5 146.5t21.5 226t-21.5 226t-64.5 146.5t-99.5 77t-133.5 23.5 t-133.5 -23.5t-99.5 -77t-65 -146.5t-22 -226zM389 1284l227 303q29 1 56 -12t41 -35l-256 -295q-48 6 -68 39z" />
<glyph unicode="&#xf4;" horiz-adv-x="1105" d="M127 539q0 295 108.5 427t317.5 132t317.5 -132t108.5 -427t-108.5 -427t-317.5 -132t-317.5 132t-108.5 427zM233 539q0 -133 22 -226t65 -146.5t99.5 -77t133.5 -23.5t133.5 23.5t99.5 77t64.5 146.5t21.5 226t-21.5 226t-64.5 146.5t-99.5 77t-133.5 23.5 t-133.5 -23.5t-99.5 -77t-65 -146.5t-22 -226zM268 1286l256 211h51l256 -211q-15 -43 -49 -51l-233 170l-232 -172q-36 13 -49 53z" />
<glyph unicode="&#xf5;" horiz-adv-x="1105" d="M127 539q0 295 108.5 427t317.5 132t317.5 -132t108.5 -427t-108.5 -427t-317.5 -132t-317.5 132t-108.5 427zM233 539q0 -133 22 -226t65 -146.5t99.5 -77t133.5 -23.5t133.5 23.5t99.5 77t64.5 146.5t21.5 226t-21.5 226t-64.5 146.5t-99.5 77t-133.5 23.5 t-133.5 -23.5t-99.5 -77t-65 -146.5t-22 -226zM295 1358q2 4 5.5 10t16.5 22t28.5 28t42.5 22t58 10q55 0 121 -36t103 -36q26 0 48 16t31 32l9 16q41 -12 53 -53q-2 -4 -5.5 -10t-17 -22t-29.5 -28.5t-43.5 -22.5t-58.5 -10q-43 0 -81.5 18.5t-72.5 37t-67 18.5 q-26 0 -49 -16t-33 -32l-10 -15q-40 14 -49 51z" />
<glyph unicode="&#xf6;" horiz-adv-x="1105" d="M127 539q0 295 108.5 427t317.5 132t317.5 -132t108.5 -427t-108.5 -427t-317.5 -132t-317.5 132t-108.5 427zM233 539q0 -133 22 -226t65 -146.5t99.5 -77t133.5 -23.5t133.5 23.5t99.5 77t64.5 146.5t21.5 226t-21.5 226t-64.5 146.5t-99.5 77t-133.5 23.5 t-133.5 -23.5t-99.5 -77t-65 -146.5t-22 -226zM338 1331v109q20 8 61 8q17 0 32.5 -2t22.5 -4l7 -2v-109q-23 -8 -62 -8q-18 0 -33.5 2t-21.5 4zM643 1331v109q19 8 62 8q17 0 32 -2t21 -4l6 -2v-109q-20 -8 -59 -8q-19 0 -34.5 2t-21.5 4z" />
<glyph unicode="&#xf7;" horiz-adv-x="1148" d="M168 594q0 13 2 23.5t4 14.5l2 5h797q8 -14 8 -43q0 -13 -2 -23.5t-4 -14.5l-2 -5h-797q-8 14 -8 43zM510 207v115q22 8 65 8q19 0 35.5 -2t23.5 -4l7 -2v-115q-23 -8 -66 -8q-19 0 -35.5 2t-23.5 4zM510 866v115q22 8 65 8q19 0 35.5 -2t23.5 -4l7 -2v-115 q-23 -8 -66 -8q-19 0 -35.5 2t-23.5 4z" />
<glyph unicode="&#xf8;" horiz-adv-x="1105" d="M127 539q0 295 108.5 427t317.5 132q150 0 242 -66l77 135q45 -6 74 -39l-86 -151q119 -134 119 -438q0 -295 -108.5 -427t-317.5 -132q-136 0 -227 55l-70 -125q-47 10 -72 41l76 133q-133 133 -133 455zM233 539q0 -244 84 -355l433 766q-76 62 -197 62 q-77 0 -133.5 -23.5t-99.5 -77t-65 -146.5t-22 -226zM373 115q69 -49 180 -49q77 0 133.5 23.5t99.5 77t64.5 146.5t21.5 226q0 224 -71 338z" />
<glyph unicode="&#xf9;" horiz-adv-x="1122" d="M168 285v784q16 8 51 8q16 0 29 -2t18 -4l4 -2v-762q0 -239 246 -239q98 0 188 61.5t140 169.5v770q16 8 51 8q16 0 28.5 -2t17.5 -4l5 -2v-1061q-16 -8 -51 -8q-16 0 -28.5 2t-17.5 4l-5 2v158q-136 -186 -365 -186q-145 0 -228 83t-83 222zM340 1540q12 21 39.5 34.5 t56.5 12.5l228 -303q-20 -33 -68 -39z" />
<glyph unicode="&#xfa;" horiz-adv-x="1122" d="M168 285v784q16 8 51 8q16 0 29 -2t18 -4l4 -2v-762q0 -239 246 -239q98 0 188 61.5t140 169.5v770q16 8 51 8q16 0 28.5 -2t17.5 -4l5 -2v-1061q-16 -8 -51 -8q-16 0 -28.5 2t-17.5 4l-5 2v158q-136 -186 -365 -186q-145 0 -228 83t-83 222zM414 1284l227 303 q29 1 55.5 -12t40.5 -35l-256 -295q-47 6 -67 39z" />
<glyph unicode="&#xfb;" horiz-adv-x="1122" d="M168 285v784q16 8 51 8q16 0 29 -2t18 -4l4 -2v-762q0 -239 246 -239q98 0 188 61.5t140 169.5v770q16 8 51 8q16 0 28.5 -2t17.5 -4l5 -2v-1061q-16 -8 -51 -8q-16 0 -28.5 2t-17.5 4l-5 2v158q-136 -186 -365 -186q-145 0 -228 83t-83 222zM276 1286l256 211h52 l256 -211q-15 -43 -49 -51l-234 170l-231 -172q-37 14 -50 53z" />
<glyph unicode="&#xfc;" horiz-adv-x="1122" d="M168 285v784q16 8 51 8q16 0 29 -2t18 -4l4 -2v-762q0 -239 246 -239q98 0 188 61.5t140 169.5v770q16 8 51 8q16 0 28.5 -2t17.5 -4l5 -2v-1061q-16 -8 -51 -8q-16 0 -28.5 2t-17.5 4l-5 2v158q-136 -186 -365 -186q-145 0 -228 83t-83 222zM338 1335v109q20 8 61 8 q17 0 32.5 -2t22.5 -4l7 -2v-109q-23 -6 -62 -6q-18 0 -33.5 1.5t-21.5 3.5zM643 1335v109q18 8 59 8q18 0 33.5 -2t22.5 -4l6 -2v-109q-21 -6 -62 -6q-18 0 -33 1.5t-21 3.5z" />
<glyph unicode="&#xfd;" horiz-adv-x="1071" d="M59 1069q21 8 58 8q16 0 30 -2t19 -4l6 -2l311 -764q20 -51 38 -102t26 -76l8 -25h8q25 86 66 203l272 764q14 8 53 8q16 0 29.5 -2t18.5 -4l6 -2l-463 -1300q-51 -146 -110.5 -213.5t-168.5 -67.5q-26 0 -51 3.5t-37 6.5l-12 4q-8 24 -8 41q0 30 10 45q37 -10 88 -10 q64 0 107 46t86 169l75 209q-26 4 -37 10zM397 1284l228 303q29 1 55.5 -12t40.5 -35l-256 -295q-48 6 -68 39z" />
<glyph unicode="&#xfe;" horiz-adv-x="1134" d="M176 -494v2022q14 8 51 8q16 0 29 -2t18 -4l5 -2v-610q99 180 329 180q95 0 166.5 -29t125 -93t81 -173.5t27.5 -263.5t-27.5 -263.5t-81 -173.5t-125 -93t-166.5 -29q-230 0 -329 180v-654q-15 -8 -52 -8q-16 0 -29 2t-18 4zM279 410q0 -84 32.5 -160t102.5 -128 t164 -52q171 0 246 108.5t75 360.5t-75 360.5t-246 108.5q-70 0 -128 -29t-94 -77t-55.5 -105.5t-21.5 -118.5v-268z" />
<glyph unicode="&#xff;" horiz-adv-x="1071" d="M59 1069q21 8 58 8q16 0 30 -2t19 -4l6 -2l311 -764q20 -51 38 -102t26 -76l8 -25h8q25 86 66 203l272 764q14 8 53 8q16 0 29.5 -2t18.5 -4l6 -2l-463 -1300q-51 -146 -110.5 -213.5t-168.5 -67.5q-26 0 -51 3.5t-37 6.5l-12 4q-8 24 -8 41q0 30 10 45q37 -10 88 -10 q64 0 107 46t86 169l75 209q-26 4 -37 10zM315 1337v109q21 8 62 8q18 0 33.5 -2t21.5 -4l6 -2v-109q-20 -8 -61 -8q-18 0 -33.5 2t-21.5 4zM621 1337v109q20 8 61 8q18 0 33.5 -2t21.5 -4l6 -2v-109q-20 -8 -61 -8q-18 0 -33.5 2t-21.5 4z" />
<glyph unicode="&#x152;" horiz-adv-x="1718" d="M141 737q0 386 149.5 572t422.5 186q90 0 176 -20h700q8 -16 8 -48q0 -31 -8 -47h-598v-585h496q8 -19 8 -45q0 -29 -8 -48h-496v-608h619q8 -19 8 -45q0 -30 -8 -49h-723q-86 -20 -174 -20q-273 0 -422.5 186t-149.5 571zM254 737q0 -665 459 -665q102 0 170 28v1276 q-79 27 -170 27q-459 0 -459 -666z" />
<glyph unicode="&#x153;" horiz-adv-x="1693" d="M127 539q0 294 106.5 426.5t311.5 132.5q132 0 216 -61.5t126 -196.5q88 258 334 258q174 0 267 -104t93 -281q0 -56 -5.5 -108t-11.5 -75l-5 -24h-623q10 -232 82 -333t225 -101q64 0 124.5 18t88.5 36l29 19q36 -20 43 -73q-4 -4 -12 -10t-37 -22t-62 -28t-86.5 -22 t-111.5 -10q-248 0 -334 256q-44 -134 -125.5 -195t-214.5 -61q-205 0 -311.5 132.5t-106.5 426.5zM236 539q0 -133 21 -226t62.5 -146.5t96.5 -77t129 -23.5q99 0 159.5 42.5t93.5 148.5t33 286q0 178 -33 282.5t-93.5 145.5t-159.5 41q-74 0 -129 -23.5t-96.5 -77 t-62.5 -146.5t-21 -226zM936 590h528q0 1 1 7.5t3 18.5t3.5 27t2.5 37t1 45q0 125 -61.5 205t-192.5 80q-130 0 -204 -103t-81 -317z" />
<glyph unicode="&#x178;" horiz-adv-x="1269" d="M53 1466q23 9 66 9q18 0 33.5 -2.5t21.5 -4.5l6 -2l457 -731l469 731q18 9 57 9q19 0 35 -2.5t22 -4.5l7 -2l-541 -843v-615q-18 -8 -53 -8q-16 0 -29 2t-18 4l-6 2v613zM422 1612v108q20 6 61 6q18 0 33.5 -1.5t21.5 -2.5l7 -2v-108q-21 -8 -62 -8q-18 0 -33.5 2 t-21.5 4zM727 1612v108q20 6 61 6q18 0 33.5 -1.5t22.5 -2.5l6 -2v-108q-21 -8 -62 -8q-18 0 -33.5 2t-21.5 4z" />
<glyph unicode="&#x2c6;" horiz-adv-x="811" d="M117 1204l262 215h53l260 -215q-14 -45 -49 -53l-240 174l-235 -176q-39 14 -51 55z" />
<glyph unicode="&#x2dc;" horiz-adv-x="669" d="M98 1323q2 4 5.5 10t16.5 22.5t29 29t43 22.5t58 10q55 0 120 -35.5t101 -35.5q26 0 49 15t33 31l10 15q41 -14 47 -51l-5 -10t-15.5 -22t-28 -28t-42.5 -22t-58 -10q-54 0 -119.5 35.5t-101.5 35.5q-26 0 -48.5 -15.5t-31.5 -30.5l-10 -15q-46 16 -52 49z" />
<glyph unicode="&#x2000;" horiz-adv-x="951" />
<glyph unicode="&#x2001;" horiz-adv-x="1903" />
<glyph unicode="&#x2002;" horiz-adv-x="951" />
<glyph unicode="&#x2003;" horiz-adv-x="1903" />
<glyph unicode="&#x2004;" horiz-adv-x="634" />
<glyph unicode="&#x2005;" horiz-adv-x="475" />
<glyph unicode="&#x2006;" horiz-adv-x="317" />
<glyph unicode="&#x2007;" horiz-adv-x="317" />
<glyph unicode="&#x2008;" horiz-adv-x="237" />
<glyph unicode="&#x2009;" horiz-adv-x="380" />
<glyph unicode="&#x200a;" horiz-adv-x="105" />
<glyph unicode="&#x2010;" horiz-adv-x="729" d="M164 594q0 13 2 23.5t4 14.5l2 5h385q8 -14 8 -43q0 -13 -2 -23.5t-4 -14.5l-2 -5h-385q-8 14 -8 43z" />
<glyph unicode="&#x2011;" horiz-adv-x="729" d="M164 594q0 13 2 23.5t4 14.5l2 5h385q8 -14 8 -43q0 -13 -2 -23.5t-4 -14.5l-2 -5h-385q-8 14 -8 43z" />
<glyph unicode="&#x2012;" horiz-adv-x="729" d="M164 594q0 13 2 23.5t4 14.5l2 5h385q8 -14 8 -43q0 -13 -2 -23.5t-4 -14.5l-2 -5h-385q-8 14 -8 43z" />
<glyph unicode="&#x2013;" horiz-adv-x="1138" d="M164 594q0 13 2 23.5t4 14.5l2 5h795q8 -14 8 -43q0 -13 -2 -23.5t-4 -14.5l-2 -5h-795q-8 14 -8 43z" />
<glyph unicode="&#x2014;" horiz-adv-x="1650" d="M164 594q0 13 2 23.5t4 14.5l2 5h1307q8 -14 8 -43q0 -13 -2 -23.5t-4 -14.5l-2 -5h-1307q-8 14 -8 43z" />
<glyph unicode="&#x2018;" horiz-adv-x="425" d="M141 1141v84q0 46 11.5 88.5t27.5 70.5t32.5 49.5t27.5 31.5l12 10l43 -33q-7 -7 -17.5 -20t-30.5 -59t-24 -99l49 -7v-116q-22 -8 -65 -8q-19 0 -35.5 2t-23.5 4z" />
<glyph unicode="&#x2019;" horiz-adv-x="411" d="M133 1165q7 7 17 20.5t29.5 59.5t23.5 98q-14 0 -25 2.5t-16 4.5l-4 2v114q20 9 63 9q19 0 35.5 -2.5t23.5 -4.5l7 -2v-82q0 -46 -11.5 -89t-27.5 -71.5t-32.5 -49.5t-27.5 -31l-12 -10z" />
<glyph unicode="&#x201a;" horiz-adv-x="446" d="M133 -178q7 7 17.5 20.5t29.5 59.5t23 98q-13 0 -24 2t-16 4l-5 2v115q22 8 65 8q19 0 35.5 -2t23.5 -4l7 -2v-82q0 -46 -11.5 -89t-27.5 -71t-32.5 -49.5t-27.5 -31.5l-12 -9z" />
<glyph unicode="&#x201c;" horiz-adv-x="585" d="M121 1139v82q0 46 11 89.5t27 71.5t32 49.5t27 31.5l11 10l45 -33q-7 -7 -17 -20.5t-29 -59.5t-23 -98q14 0 25 -2t16 -4l4 -3v-114q-21 -9 -66 -9q-18 0 -34 2t-22 4zM350 1139v82q0 46 11 89.5t27 71.5t32.5 49.5t27.5 31.5l11 10l45 -33q-7 -7 -17.5 -20.5 t-29.5 -59.5t-23 -98q14 0 25 -2t15 -4l5 -3v-114q-20 -9 -65 -9q-19 0 -35 2t-23 4z" />
<glyph unicode="&#x201d;" horiz-adv-x="641" d="M133 1165q7 7 17.5 20.5t29.5 59.5t23 98q-14 0 -25 2.5t-16 4.5l-4 2v114q20 9 65 9q19 0 35 -2.5t22 -4.5l7 -2v-82q0 -46 -11 -89t-27.5 -71.5t-32.5 -49.5t-27 -31l-11 -10zM362 1165q7 7 17 20.5t29.5 59.5t23.5 98q-14 0 -25 2.5t-15 4.5l-5 2v114q21 9 66 9 q18 0 34 -2.5t23 -4.5l6 -2v-82q0 -46 -11 -89t-27 -71.5t-32 -49.5t-27 -31l-11 -10z" />
<glyph unicode="&#x201e;" horiz-adv-x="677" d="M133 -178q7 7 17 20.5t29.5 59.5t23.5 98q-14 0 -25 2t-16 4l-4 2v115q20 8 65 8q19 0 35 -2t22 -4l7 -2v-82q0 -46 -11 -89t-27.5 -71t-32.5 -49.5t-27 -31.5l-11 -9zM367 -178q7 7 17.5 20.5t29 59.5t22.5 98q-14 0 -25 2t-15 4l-5 2v115q21 8 66 8q19 0 35 -2t22 -4 l6 -2v-82q0 -46 -11 -89t-27 -71t-32 -49.5t-27 -31.5l-11 -9z" />
<glyph unicode="&#x2022;" horiz-adv-x="610" d="M213 578q0 42 26.5 67t65.5 25q40 0 66 -25t26 -67q0 -41 -26 -66t-66 -25q-39 0 -65.5 25.5t-26.5 65.5z" />
<glyph unicode="&#x2026;" horiz-adv-x="1114" d="M158 8v115q22 8 65 8q19 0 35.5 -2t23.5 -4l7 -2v-115q-23 -8 -66 -8q-19 0 -35.5 2t-23.5 4zM494 8v115q20 8 63 8q19 0 35.5 -2t23.5 -4l7 -2v-115q-23 -8 -66 -8q-19 0 -35 2t-22 4zM827 8v115q21 8 64 8q19 0 35.5 -2t23.5 -4l6 -2v-115q-22 -8 -65 -8q-19 0 -35 2 t-22 4z" />
<glyph unicode="&#x202f;" horiz-adv-x="380" />
<glyph unicode="&#x2039;" horiz-adv-x="692" d="M104 551q0 13 2 24t4 16l3 5l422 446q32 -20 36 -69l-374 -420l374 -422q-3 -50 -36 -70l-422 447q-9 16 -9 43z" />
<glyph unicode="&#x203a;" horiz-adv-x="692" d="M121 131l375 422l-375 420q4 49 37 69l422 -446q8 -16 8 -45q0 -12 -2 -23t-4 -16l-2 -4l-422 -447q-34 20 -37 70z" />
<glyph unicode="&#x205f;" horiz-adv-x="475" />
<glyph unicode="&#x20ac;" horiz-adv-x="1198" d="M113 487q-6 35 12 76h149q-4 78 -4 123q0 82 4 127h-161q-6 37 12 78h158q65 502 481 502q92 0 167.5 -16t104.5 -32l29 -16q-3 -48 -33 -74q-11 6 -32 14t-87.5 22t-134.5 14q-163 0 -261.5 -95t-127.5 -319h553q7 -44 -14 -78h-549q-2 -41 -2 -129q0 -84 2 -121h479 q7 -41 -14 -76h-457q14 -118 47.5 -200.5t85.5 -129t114.5 -67t143.5 -20.5q75 0 143.5 12t100.5 24l31 13q29 -26 32 -76q-12 -7 -35.5 -17.5t-106.5 -28t-179 -17.5q-212 0 -331.5 125t-151.5 382h-168z" />
<glyph unicode="&#x2122;" horiz-adv-x="1288" d="M88 1450q0 17 4 25h416q6 -12 6 -25q0 -12 -6 -27h-178v-532q-9 -6 -29 -6q-8 0 -14.5 1.5t-9.5 3.5l-3 1v532h-182q-4 16 -4 27zM616 891v577q10 7 33 7q10 0 31 -7l113 -221q38 -73 69 -149q33 79 72 143l115 227q12 7 32 7q10 0 18.5 -1.5t11.5 -3.5l3 -2v-577 q-8 -6 -24 -6q-8 0 -15 1.5t-9 3.5l-3 1v262v240q-35 -76 -64 -127l-112 -217q-9 -7 -27 -7q-8 0 -14.5 2t-9.5 4l-2 1l-107 217q-8 15 -21.5 41t-24 46.5t-19.5 39.5q4 -72 4 -238v-264q-9 -6 -25 -6q-7 0 -13.5 1.5t-9.5 3.5z" />
<glyph unicode="&#x25fc;" horiz-adv-x="1075" d="M0 0v1075h1075v-1075h-1075z" />
</font>
</defs>
</svg>
