<?xml version="1.0" standalone="no"?>
<!DOCTYPE svg PUBLIC "-//W3C//DTD SVG 1.1//EN" "http://www.w3.org/Graphics/SVG/1.1/DTD/svg11.dtd" >
<svg xmlns="http://www.w3.org/2000/svg">
<metadata></metadata>
<defs>
<font id="globerbold_italic" horiz-adv-x="1124" >
<font-face units-per-em="2048" ascent="1536" descent="-512" />
<missing-glyph horiz-adv-x="452" />
<glyph unicode="&#xfb01;" horiz-adv-x="1208" d="M78 16l184 871h-131q-4 41 8 98q5 24 13.5 47t13.5 34l6 11h131l27 123q33 159 153 247.5t316 88.5q122 0 230.5 -17.5t156.5 -34.5l47 -18q-25 -101 -105 -178q-15 5 -43.5 12.5t-121.5 20t-191 12.5q-156 0 -182 -123l-29 -133h475q37 0 68.5 -4t43.5 -8l13 -4 l-221 -1045q-49 -16 -133 -16q-40 0 -71.5 4t-42.5 8l-11 4l184 871h-346l-184 -871q-49 -16 -133 -16q-40 0 -71.5 4t-42.5 8z" />
<glyph unicode="&#xfb02;" horiz-adv-x="1210" d="M78 16l184 871h-131q0 44 10 96q9 48 31 94h131l27 123q33 159 153 247.5t316 88.5q109 0 221 -17.5t170 -34.5l57 -18l-307 -1450q-49 -16 -133 -16q-40 0 -71.5 4t-42.5 8l-11 4l276 1307q-88 10 -186 10q-156 0 -182 -123l-29 -133h168q3 -39 -8 -94q-6 -32 -33 -96 h-168l-184 -871q-49 -16 -133 -16q-40 0 -71.5 4t-42.5 8z" />
<glyph horiz-adv-x="0" />
<glyph horiz-adv-x="682" />
<glyph unicode=" "  horiz-adv-x="452" />
<glyph unicode="&#x09;" horiz-adv-x="452" />
<glyph unicode="&#xa0;" horiz-adv-x="452" />
<glyph unicode="!" horiz-adv-x="587" d="M37 16l49 236q43 16 133 16q37 0 68.5 -4t44.5 -8l12 -4l-49 -236q-49 -16 -133 -16q-40 0 -71 4t-43 8zM156 424l176 1034q53 17 143 17q37 0 71 -4.5t49 -8.5l15 -4l-262 -1034q-39 -18 -98 -18q-26 0 -49.5 4.5t-34.5 9.5z" />
<glyph unicode="&#x22;" horiz-adv-x="786" d="M225 1038l45 420q41 17 131 17q37 0 68 -4.5t43 -8.5l12 -4l-131 -420q-33 -14 -88 -14q-24 0 -44 3.5t-28 6.5zM561 1038l45 420q41 17 131 17q37 0 68 -4.5t43 -8.5l12 -4l-131 -420q-33 -14 -88 -14q-24 0 -44 3.5t-28 6.5z" />
<glyph unicode="#" horiz-adv-x="1363" d="M-4 229q-6 38 6 101q6 31 15.5 57t15.5 37l6 10h205l190 387h-143q-3 56 8 105q13 58 35 100h201l114 231q59 19 113 19q59 0 108 -19l-114 -231h250l114 231q62 19 117 19q58 0 104 -19l-114 -231h137q7 -47 -2 -94q-13 -59 -41 -111h-195l-190 -387h133q8 -41 -6 -102 q-5 -26 -14.5 -52t-16.5 -38l-6 -13h-190l-105 -211q-53 -18 -113 -18q-58 0 -108 18l104 211h-249l-105 -211q-56 -18 -119 -18q-55 0 -102 18l104 211h-147zM465 434h250l190 387h-250z" />
<glyph unicode="$" horiz-adv-x="1150" d="M-12 86q-1 35 28 98q13 27 30 51t28 34l10 10q21 -7 57 -17t135 -26.5t183 -16.5q135 0 208.5 37t92.5 127q11 54 -11.5 93t-68 60.5t-105.5 42t-123.5 36.5t-121.5 44.5t-100 66.5t-59.5 102t1.5 151q35 168 156.5 265.5t320.5 117.5l33 237q46 17 109 17q30 0 55.5 -4 t35.5 -8l11 -5l-68 -233q82 -4 161 -17.5t117 -24.5l38 -11q-6 -46 -37 -103q-14 -24 -32.5 -45.5t-29.5 -30.5l-12 -10q-13 5 -37 12t-98 19t-147 12q-138 0 -217.5 -37t-98.5 -124q-11 -52 21 -88.5t91.5 -59t132.5 -43t144 -51t125.5 -72.5t79 -117t2.5 -176 q-72 -352 -493 -391l-35 -256q-37 -16 -107 -16q-29 0 -55 4t-38 8l-11 4l71 252q-65 3 -127.5 12.5t-105 21t-75.5 22.5t-48 18z" />
<glyph unicode="%" horiz-adv-x="1568" d="M162 1061q74 354 362 354q141 0 197 -84t16 -270t-131.5 -270t-232.5 -84q-142 0 -196.5 84t-14.5 270zM166 -6l1094 1429q32 15 98 15q28 0 51.5 -4t32.5 -8l10 -3l-1094 -1429q-32 -14 -98 -14q-28 0 -51.5 3.5t-32.5 6.5zM327 926q5 -47 22 -61.5t54 -14.5 q54 0 87.5 42t60.5 169q20 86 16 133.5t-21 63.5t-52 16q-55 0 -89.5 -44t-60.5 -169q-22 -88 -17 -135zM864 334q74 354 361 354q141 0 197 -84t18 -270q-40 -186 -132 -270t-233 -84q-142 0 -196.5 84t-14.5 270zM1030 199q5 -47 22 -61.5t54 -14.5q54 0 86.5 42t60.5 169 q20 86 16 133.5t-21 63.5t-52 16q-55 0 -89 -44t-60 -169q-22 -88 -17 -135z" />
<glyph unicode="&#x26;" horiz-adv-x="1310" d="M14 174.5q-19 69.5 0 159.5q13 65 48 127t76.5 106.5t94 85t92.5 65t81 44.5q-42 181 -9 323q31 149 137 238.5t281 89.5q149 0 221.5 -68t46.5 -190q-15 -73 -54 -137t-100.5 -117.5t-117 -91t-135.5 -82.5q70 -157 198 -293q40 50 117 174q60 7 108 -13t68 -60 q-68 -106 -170 -211q95 -72 195 -121q-7 -59 -53 -118t-103 -87q-126 56 -241 147q-82 -66 -197 -115.5t-256 -49.5q-79 0 -145 21t-115 62.5t-68 111zM262 371q-18 -81 26.5 -133t139.5 -52q130 0 248 72q-146 162 -221 354q-164 -110 -193 -241zM623 1098q-21 -103 6 -224 q89 54 144.5 115.5t74.5 149.5q11 51 -10 79.5t-72 28.5q-110 0 -143 -149z" />
<glyph unicode="'" horiz-adv-x="450" d="M225 1038l45 420q41 17 131 17q37 0 68 -4.5t43 -8.5l12 -4l-131 -420q-33 -14 -88 -14q-24 0 -44 3.5t-28 6.5z" />
<glyph unicode="(" horiz-adv-x="622" d="M61 337q6 163 39 318t94.5 316t125.5 279.5t123.5 214.5t96.5 146l38 50q51 2 102 -29q24 -15 41.5 -33t22.5 -29l6 -11q-11 -14 -31 -41.5t-74.5 -118.5t-102.5 -189t-102.5 -249.5t-87.5 -305.5t-43.5 -303.5t-2.5 -253t21 -185t25 -121.5l13 -40q-31 -45 -97 -74 q-29 -13 -58 -20t-44 -8h-14q-7 18 -18 52t-34 141.5t-34 219t-5 274.5z" />
<glyph unicode=")" horiz-adv-x="622" d="M-115 -248q11 14 31 41.5t74.5 118t102.5 189t102.5 249.5t87.5 305t43.5 303.5t2.5 253.5t-21 185.5t-26 121.5l-12 40q31 40 99 73q30 14 58.5 21t42.5 7l13 1q7 -18 18 -52t34 -141.5t34 -219t5 -275t-39 -318.5t-94.5 -316t-125.5 -279t-123.5 -214.5t-97.5 -145.5 l-37 -50q-51 -1 -104 28q-24 13 -41 31.5t-22 30.5z" />
<glyph unicode="*" horiz-adv-x="688" d="M211 1223q15 76 68 125l137 -50l33 158q70 21 133 -2l-33 -156l160 50q28 -44 12 -125l-158 -49l68 -127q-64 -56 -127 -76l-64 125l-116 -125q-67 22 -95 76l117 124z" />
<glyph unicode="+" horiz-adv-x="952" d="M70 500q-6 37 6 94q5 25 13.5 48.5t14.5 34.5l5 11h284l62 285q39 14 96 14q25 0 48 -3.5t33 -7.5l11 -3l-61 -285h284q8 -37 -4 -94q-5 -25 -14 -48.5t-15 -34.5l-6 -11h-284l-62 -285q-39 -14 -96 -14q-25 0 -48 3.5t-33 7.5l-11 3l61 285h-284z" />
<glyph unicode="," horiz-adv-x="501" d="M-55 -219q10 9 25 25.5t49 73.5t51 120q-24 2 -43 6t-26 7l-7 3l49 236q49 16 133 16q37 0 68.5 -4t43.5 -8l13 -4l-33 -154q-15 -71 -45.5 -136t-64 -107t-64.5 -74.5t-51 -46.5l-20 -15z" />
<glyph unicode="-" horiz-adv-x="741" d="M119 500q-6 37 6 94q5 25 13.5 48.5t13.5 34.5l6 11h450q8 -37 -4 -94q-5 -25 -14 -48.5t-15 -34.5l-6 -11h-450z" />
<glyph unicode="." horiz-adv-x="497" d="M-6 16l49 236q43 16 133 16q37 0 68.5 -4t43.5 -8l13 -4l-49 -236q-49 -16 -133 -16q-40 0 -71 4t-42 8z" />
<glyph unicode="/" horiz-adv-x="1019" d="M-106 -78l1019 1596q49 18 129 18q37 0 68.5 -4.5t43.5 -9.5l13 -4l-1020 -1596q-49 -18 -129 -18q-37 0 -68 4.5t-44 9.5z" />
<glyph unicode="0" horiz-adv-x="1257" d="M135 735q40 187 102 318.5t146 210t185 114t229 35.5q252 0 344.5 -188t11.5 -566q-40 -189 -101.5 -321t-146 -210t-185 -113t-228.5 -35q-252 0 -345 188.5t-12 566.5zM360 445q-5 -100 17.5 -153.5t60 -74t99.5 -20.5q63 0 110 20.5t91.5 74t80.5 153t68 251.5 q32 153 38.5 252.5t-15 153t-59.5 74t-101 20.5q-62 0 -108.5 -20.5t-92 -73.5t-83 -153.5t-69.5 -252.5q-32 -151 -37 -251z" />
<glyph unicode="1" horiz-adv-x="866" d="M135.5 1001q-4.5 57 18.5 119q134 34 236 94t198 160q41 19 129 19q38 0 70 -4.5t45 -9.5l12 -5l-289 -1356q-45 -18 -133 -18q-36 0 -68.5 4.5t-46.5 9.5l-14 4l166 785q34 146 65 256q-153 -106 -354 -152q-30 37 -34.5 94z" />
<glyph unicode="2" horiz-adv-x="1089" d="M-31 0q5 65 17 137q15 82 40 149.5t60.5 118.5t72 90t87 73.5t93 59.5t101.5 57q37 20 56 30q164 91 229 151.5t86 153.5q20 91 -35 135.5t-168 44.5q-62 0 -131.5 -11t-108.5 -23l-38 -11q-73 69 -35 184q20 8 56.5 20.5t141.5 33t201 20.5q204 0 309.5 -105.5 t63.5 -306.5q-10 -46 -23 -84.5t-33 -72t-39.5 -60t-50.5 -53t-57 -46t-68.5 -44.5t-75.5 -43t-87 -46q-35 -18 -53 -28q-19 -11 -64.5 -34.5t-69.5 -37t-61 -37.5t-58 -44.5t-40 -49t-25 -59.5q-2 -10 -2 -31h608q14 -40 0 -114q-13 -67 -49 -117h-850z" />
<glyph unicode="3" horiz-adv-x="1085" d="M-35 53q9 53 38 106t67 85q122 -43 276 -43q142 0 220.5 47t103.5 166q23 109 -24.5 159t-176.5 50h-174q-11 50 0.5 104t42.5 100h174q200 0 240 181q21 101 -29 145.5t-168 44.5q-65 0 -129.5 -11t-96.5 -21l-32 -11q-79 67 -41 184q17 8 47.5 20.5t127.5 33t196 20.5 q223 0 327.5 -95t65.5 -280q-49 -226 -229 -305q196 -84 139 -350q-43 -199 -190 -301t-423 -102q-66 0 -126.5 7.5t-100 18t-69 21.5t-43.5 19z" />
<glyph unicode="4" horiz-adv-x="1189" d="M12 338q-12 36 2 102q5 29 15.5 55t18.5 37l7 11l791 831q47 19 133 19q38 0 69 -4.5t42 -9.5l12 -5l-178 -831h168q10 -37 -2 -103q-6 -29 -16.5 -54.5t-17.5 -36.5l-7 -11h-168l-68 -320q-49 -18 -123 -18q-35 0 -65.5 4.5t-44.5 9.5l-13 4l68 320h-623zM309 543h369 l106 499z" />
<glyph unicode="5" horiz-adv-x="1079" d="M-35 53q9 53 38 106t67 85q11 -5 31.5 -12t88 -19t138.5 -12q144 0 230 50t110 163q8 39 8.5 69.5t-6.5 53t-23 39t-37.5 27.5t-54 17t-68.5 8.5t-84 2.5q-127 0 -231 -8l162 770h747q19 -119 -47 -226h-493l-70 -327q23 2 76 2q236 0 334.5 -103.5t52.5 -324.5 q-45 -213 -203 -323.5t-426 -110.5q-71 0 -132 7.5t-97.5 18t-63 21.5t-36.5 19z" />
<glyph unicode="6" horiz-adv-x="1132" d="M86 526q89 420 336.5 631.5t642.5 235.5q11 -45 -1 -101.5t-42 -105.5q-217 -24 -354 -108t-219 -253q118 27 217 27q90 0 161 -29t119.5 -87.5t62.5 -146.5t-10 -206q-23 -112 -69 -190.5t-116 -125t-156 -67t-199 -20.5q-227 0 -329.5 135t-43.5 411zM348 518 q-73 -342 133 -342q203 0 256 240q27 118 -17 176.5t-140 58.5t-209 -33q-17 -68 -23 -100z" />
<glyph unicode="7" horiz-adv-x="1015" d="M78 12q29 137 77 257t104 208.5t117.5 165.5t125 142t119 123t106 124t80.5 131h-612q-10 45 6 117q6 33 16.5 61t17.5 40l7 12h858q7 -57 -15 -144q-24 -94 -72.5 -181t-107.5 -158t-126.5 -143t-135.5 -150.5t-128.5 -164t-111 -199t-77.5 -241.5q-58 -12 -125 -12 q-71 0 -123 12z" />
<glyph unicode="8" horiz-adv-x="1181" d="M51 375q44 203 309 332q-79 56 -113.5 147t-8.5 215q35 165 170 254.5t348 89.5q198 0 292 -103t58 -270q-13 -58 -36 -104t-60 -82t-67 -58t-79 -53q96 -60 141.5 -160.5t16.5 -234.5q-79 -368 -578 -368q-221 0 -327 105t-66 290zM291 365q-19 -88 34.5 -136.5 t170.5 -48.5q105 0 177.5 48t92.5 134q8 37 -2 69.5t-27.5 54.5t-55.5 47t-66.5 39.5t-80.5 39.5q-24 11 -36 17q-173 -107 -207 -264zM485 1067q-9 -44 2.5 -78.5t53.5 -66.5t71.5 -48.5t98.5 -49.5q7 -3 10 -5q135 100 162 232q17 83 -26 127.5t-142 44.5 q-94 0 -154.5 -41.5t-75.5 -114.5z" />
<glyph unicode="9" d="M88 0q-15 109 43 207q216 22 353.5 106t222.5 254q-102 -26 -220 -26q-85 0 -153.5 27.5t-116.5 84.5t-63 143.5t8 204.5q48 219 186.5 315.5t366.5 96.5q225 0 319.5 -134t34.5 -413q-90 -420 -338 -631t-643 -235zM416 977q-49 -236 159 -236q92 0 205 31q3 13 13 47 t14 55q73 343 -135 343q-203 0 -256 -240z" />
<glyph unicode=":" horiz-adv-x="520" d="M2 16l49 236q43 16 133 16q37 0 68.5 -4t43.5 -8l13 -4l-49 -236q-49 -16 -133 -16q-40 0 -71 4t-42 8zM174 825l49 236q43 16 133 16q37 0 68.5 -4t43.5 -8l13 -4l-49 -236q-49 -16 -133 -16q-40 0 -71 4t-42 8z" />
<glyph unicode=";" horiz-adv-x="520" d="M-47 -219q10 9 25 25.5t49 73.5t51 120q-24 2 -43 6t-26 7l-7 3l49 236q43 16 133 16q37 0 68.5 -4t43.5 -8l13 -4l-33 -154q-15 -71 -45.5 -136t-64 -107t-64.5 -74.5t-51 -46.5l-20 -15zM174 825l49 236q43 16 133 16q37 0 68.5 -4t43.5 -8l13 -4l-49 -236 q-49 -16 -133 -16q-40 0 -71 4t-42 8z" />
<glyph unicode="&#x3c;" horiz-adv-x="894" d="M70 498q-6 43 6 98q5 25 13.5 48t14.5 34l5 10l718 293q8 -31 -6 -94q-5 -27 -14 -51t-15 -34l-6 -11l-485 -201l401 -195q8 -31 -6 -94q-5 -27 -13.5 -51t-14.5 -34l-6 -11z" />
<glyph unicode="=" horiz-adv-x="1069" d="M88 307q-6 107 41 191h758q6 -42 -5.5 -94t-35.5 -97h-758zM168 688q-6 107 41 191h758q13 -94 -41 -191h-758z" />
<glyph unicode="&#x3e;" horiz-adv-x="894" d="M53 205q-6 35 6 96q6 28 15 51.5t14 33.5l6 9l484 195l-400 201q-6 35 6 96q6 28 15 51.5t15 33.5l5 9l592 -293q8 -35 -4 -92q-5 -24 -14 -48.5t-15 -37.5l-6 -12z" />
<glyph unicode="?" horiz-adv-x="894" d="M111 16l49 236q43 16 133 16q37 0 68.5 -4t44.5 -8l12 -4l-49 -236q-49 -16 -133 -16q-40 0 -71 4t-43 8zM207 1339q15 8 44 20.5t120 33t186 20.5q72 0 131.5 -12.5t110 -39.5t80 -70.5t40.5 -106t-8 -144.5q-17 -81 -50 -143t-72.5 -101t-84 -70t-88.5 -58t-81.5 -57 t-67 -75t-41.5 -104q-34 -24 -102 -24q-28 0 -52.5 6t-34.5 12l-10 6q18 86 48 152t63.5 105t71 69.5t73.5 55t67 51t56 68t37 97.5q21 98 -26 135t-144 37q-61 0 -117 -12t-82 -24l-26 -11q-79 67 -41 184z" />
<glyph unicode="@" horiz-adv-x="1869" d="M83 211.5q-35 152.5 5 359.5q41 190 140 346t237 260t308.5 160t356.5 56q245 0 405 -95t218 -269t8 -408q-45 -216 -170 -331.5t-301 -115.5q-211 0 -250 115q-98 -115 -286 -115q-152 0 -215.5 92t-18.5 303q45 213 147.5 305.5t254.5 92.5q157 0 217 -72l12 61 q39 21 115 21q34 0 59.5 -5.5t34.5 -10.5l8 -5l-106 -505q-12 -54 4.5 -80.5t66.5 -26.5q79 0 136.5 71t86.5 206q60 276 -61 442t-399 166q-298 0 -504.5 -175t-272.5 -483q-30 -137 -16 -242.5t56 -180t114.5 -122.5t158.5 -70t187 -22q130 0 275 38.5t280 109.5 q62 -37 49 -127q-329 -193 -671 -193q-162 0 -298 48.5t-236 148.5t-135 252.5zM741.5 450.5q-1.5 -46.5 16 -72.5t43.5 -36t67 -10q65 0 114 39t67 100l43 201q8 61 -24 99t-97 38q-85 0 -135 -49.5t-80 -190.5q-13 -72 -14.5 -118.5z" />
<glyph unicode="A" horiz-adv-x="1359" d="M-98 18l794 1438q72 19 164 19q44 0 83 -4.5t56 -9.5l17 -5l184 -1438q-51 -18 -147 -18q-39 0 -65 4.5t-32 9.5l-6 4l-41 328h-559l-180 -328q-70 -18 -152 -18q-35 0 -64 4.5t-40 9.5zM467 557h416l-56 416q-7 56 -11 115t-4 90l-1 30h-8q-41 -112 -109 -235z" />
<glyph unicode="B" horiz-adv-x="1292" d="M37 0l313 1475h578q182 1 266 -125q57 -84 57 -199q0 -55 -14 -117q-42 -188 -219 -274q82 -43 118 -144q21 -59 22 -124q0 -46 -11 -95q-39 -190 -174.5 -293.5t-335.5 -103.5h-600zM342 201h268q111 0 179 58.5t90 166.5q9 43 9 78q0 60 -26 94q-42 56 -155 55h-269z M479 846h256q96 0 157.5 58.5t82.5 154.5q8 36 8 67q0 54 -24 90q-37 58 -134 58h-256z" />
<glyph unicode="C" horiz-adv-x="1148" d="M137 778q79 366 270.5 541.5t499.5 175.5q101 0 186 -18t119 -36l35 -18q-25 -111 -121 -194q-106 43 -237 43q-68 0 -126 -15t-114 -52.5t-101 -97.5t-84 -154t-65 -218q-25 -123 -27 -217v-14q0 -84 18 -138q20 -58 60.5 -94.5t91.5 -50.5t120 -14q65 0 134.5 11.5 t106.5 22.5l37 11q30 -34 39 -90q4 -23 4 -45q0 -33 -8 -66q-6 -3 -17.5 -7.5t-50.5 -17t-81.5 -22t-107.5 -17t-132 -7.5q-300 0 -414 211q-67 125 -67 307q0 126 32 280z" />
<glyph unicode="D" horiz-adv-x="1359" d="M37 0l313 1475h481q287 1 405 -189q69 -111 69 -289q0 -127 -35 -288q-42 -196 -109 -334t-160.5 -220t-206.5 -118.5t-257 -36.5h-500zM344 217h201q64 0 115.5 12.5t104 46.5t93.5 91t78 150.5t63 219.5q29 127 31 221v23q0 77 -14 127q-16 57 -55 91t-85 46t-110 12 h-201z" />
<glyph unicode="E" horiz-adv-x="1134" d="M37 0l313 1475h846q4 -24 4 -48.5t-4 -50.5q-13 -63 -45 -112h-584l-88 -414h482q4 -25 4.5 -50.5t-4.5 -51.5q-13 -58 -46 -109h-481l-90 -428h604q3 -27 3 -50q0 -29 -5 -52q-14 -65 -43 -109h-866z" />
<glyph unicode="F" horiz-adv-x="1089" d="M41 18l309 1457h826q4 -23 4 -47q0 -29 -6 -58q-13 -58 -44 -106h-563l-94 -443h502q6 -22 6 -47t-6 -53q-13 -66 -45 -111h-502l-125 -592q-49 -18 -137 -18q-38 0 -69.5 4.5t-43.5 9.5z" />
<glyph unicode="G" horiz-adv-x="1294" d="M137 774q79 366 280.5 543.5t524.5 177.5q110 0 204 -18t132 -36l39 -18q-12 -54 -44 -106t-75 -86q-122 43 -274 43q-75 0 -138 -15t-123.5 -53t-108.5 -98t-88.5 -154.5t-66.5 -218.5t-26 -217.5t22.5 -152.5t67.5 -95.5t101.5 -50.5t131.5 -14q34 0 70 2t55 4l19 2 l88 416h-264q-6 18 -6 41q0 27 8 63q6 30 17 57t19 38l7 12h503l-168 -789q-19 -8 -53.5 -20t-144.5 -31.5t-225 -19.5q-316 0 -439 210q-76 127 -76 317q0 121 31 267z" />
<glyph unicode="H" horiz-adv-x="1400" d="M39 18l305 1438q47 19 133 19q39 0 71.5 -4.5t45.5 -9.5l12 -5l-125 -588h541l125 588q49 19 135 19q38 0 70 -4.5t44 -9.5l13 -5l-305 -1438q-47 -18 -133 -18q-43 0 -75 4.5t-43 9.5l-11 4l133 625h-541l-133 -625q-51 -18 -135 -18q-42 0 -73.5 4.5t-42.5 9.5z" />
<glyph unicode="I" horiz-adv-x="598" d="M39 18l305 1438q47 19 133 19q39 0 71.5 -4.5t45.5 -9.5l12 -5l-305 -1438q-51 -18 -135 -18q-42 0 -73.5 4.5t-42.5 9.5z" />
<glyph unicode="J" horiz-adv-x="927" d="M-92 41q22 122 112 197q76 -31 170 -31q103 0 176.5 49t96.5 156l221 1044q41 19 135 19q39 0 71 -4.5t44 -9.5l12 -5l-219 -1036q-46 -215 -188 -327.5t-334 -112.5q-75 0 -149 15t-111 31z" />
<glyph unicode="K" horiz-adv-x="1263" d="M39 18l305 1438q49 19 137 19q38 0 69.5 -4.5t43.5 -9.5l12 -5l-125 -586h90l516 586q74 19 150 19q61 0 135 -19l-598 -684l356 -754q-45 -18 -147 -18q-42 0 -76.5 4.5t-48.5 9.5l-14 4l-299 644h-107l-137 -644q-41 -18 -135 -18q-37 0 -69 4.5t-45 9.5z" />
<glyph unicode="L" horiz-adv-x="1069" d="M37 0l309 1456q47 19 133 19q39 0 71.5 -4.5t45.5 -9.5l12 -5l-262 -1231h588q5 -22 5 -47q0 -30 -7 -65q-10 -48 -45 -113h-850z" />
<glyph unicode="M" horiz-adv-x="1708" d="M39 18l305 1438q68 19 162 19q35 0 68 -4.5t49 -9.5l16 -5l199 -776h10l512 776q90 19 190 19q44 0 85.5 -4.5t60.5 -9.5l20 -5l-305 -1438q-49 -18 -133 -18q-37 0 -69.5 4.5t-46.5 9.5l-13 4l94 449q11 51 36.5 172t41 192.5t38.5 162.5t44 151h-12q-22 -45 -65 -114.5 t-79 -122.5t-101 -148l-91 -133l-207 -301q-33 -11 -78 -11q-20 0 -36 2.5t-22 5.5l-5 3q-8 29 -37 131t-45 159q-36 126 -55 195t-40.5 171.5t-23.5 162.5h-12q0 -41 -6.5 -95.5t-20 -128t-24 -126.5t-30.5 -146t-28 -131l-106 -500q-47 -18 -127 -18q-32 0 -60 4.5 t-40 9.5z" />
<glyph unicode="N" horiz-adv-x="1441" d="M39 18l305 1438q60 19 162 19q46 0 84 -4.5t52 -9.5l15 -5l242 -819q20 -67 39.5 -143.5t29.5 -119.5l9 -44h8q21 172 66 381l157 745q41 19 127 19q38 0 67 -4.5t38 -9.5l10 -5l-305 -1438q-54 -18 -158 -18q-45 0 -84 4.5t-55 9.5l-17 4l-245 824q-19 64 -37.5 139.5 t-27.5 118.5l-9 43h-8q-19 -162 -64 -375l-159 -750q-43 -18 -127 -18q-36 0 -65 4.5t-39 9.5z" />
<glyph unicode="O" horiz-adv-x="1388" d="M137 774q42 194 111 333.5t163 224t206.5 124t250.5 39.5q278 1 396 -199q69 -117 69 -298q0 -129 -35 -289q-82 -386 -263 -557.5t-466 -171.5q-283 0 -399 202q-68 118 -68 301q0 129 35 291zM370 515q-1 -26 -2 -49q0 -62 10 -106q14 -60 46.5 -97t75.5 -51.5 t102 -14.5q77 0 137 24.5t116 83t100 166.5t77 266q34 159 36 267v13q0 98 -28 154q-30 59 -79.5 83t-126.5 24q-75 0 -134.5 -24t-116 -83t-102.5 -167t-80 -267q-26 -127 -31 -222z" />
<glyph unicode="P" horiz-adv-x="1241" d="M41 18l309 1457h549q134 0 223 -67q90 -68 120 -180q15 -57 16 -119q0 -62 -15 -130q-42 -203 -186.5 -314.5t-354.5 -111.5h-286l-113 -535q-47 -18 -133 -18q-43 0 -75 4.5t-43 9.5zM463 770h250q106 0 175.5 63.5t94.5 180.5q9 43 9 78q0 62 -27 102q-43 64 -150 63 h-250z" />
<glyph unicode="Q" horiz-adv-x="1388" d="M137 774q42 194 111 333.5t163 224t206.5 124t250.5 39.5q278 0 396 -199q69 -117 69 -298q0 -128 -35 -289q-88 -423 -309 -598q92 -86 248 -115q-22 -68 -75.5 -130.5t-114.5 -90.5q-170 65 -259 233q-95 -28 -219 -28q-282 0 -399 202q-68 119 -68 301q0 129 35 291z M370 515q-1 -26 -1 -49q0 -62 9 -106q14 -60 46.5 -97t75.5 -51.5t102 -14.5q77 0 137 24.5t116 83t100 166.5t77 266q34 159 36 267v13q0 99 -28 154q-30 59 -79.5 83t-126.5 24q-75 0 -134.5 -24t-116 -83t-102.5 -167t-80 -267q-26 -127 -31 -222z" />
<glyph unicode="R" horiz-adv-x="1294" d="M41 18l309 1457h539q203 -1 301 -135q67 -93 67 -217q0 -56 -14 -119q-32 -151 -126 -248.5t-238 -139.5l231 -598q-47 -18 -149 -18q-42 0 -75.5 4.5t-45.5 9.5l-13 4l-209 572h-194l-121 -572q-47 -18 -133 -18q-43 0 -75 4.5t-43 9.5zM471 807h240q106 0 174.5 58.5 t91.5 166.5q8 37 8 68q0 60 -29 98q-44 58 -151 59h-240z" />
<glyph unicode="S" horiz-adv-x="1169" d="M-16 70q9 51 38 107t68 102q21 -7 56.5 -17.5t133 -28.5t181.5 -18q140 0 215.5 49.5t97.5 149.5q4 21 4 39q0 50 -32 85q-44 47 -138 83q-18 7 -54 20q-153 57 -218 101q-141 95 -141 261q0 24 3 49t9 52q39 187 189.5 289t406.5 102q113 0 212.5 -15.5t142.5 -30.5 l44 -15q-13 -57 -43 -112.5t-72 -92.5q-14 5 -39 12.5t-102 20t-153 12.5q-150 0 -232 -47t-102 -146q-4 -18 -4 -34q-1 -21 7 -41q12 -32 53.5 -58t72.5 -39t99 -37q51 -18 77 -28q39 -15 71.5 -32.5t65.5 -41.5t56.5 -52t44.5 -64t29 -78q9 -42 11 -94v-16q0 -45 -12 -95 q-40 -209 -189 -300t-419 -91q-79 0 -153 9.5t-123.5 22.5t-87.5 26t-56 22z" />
<glyph unicode="T" d="M197 1249q-6 20 -6 45q0 29 8 66q6 29 17.5 58t19.5 43l8 14h997q5 -23 5 -48q0 -30 -7 -63q-6 -29 -17.5 -58t-19.5 -43l-8 -14h-363l-262 -1231q-51 -18 -135 -18q-42 0 -73.5 4.5t-42.5 9.5l-11 4l262 1231h-372z" />
<glyph unicode="U" horiz-adv-x="1386" d="M135 516l201 940q47 19 133 19q39 0 71.5 -4.5t45.5 -9.5l12 -5l-209 -969q-9 -43 -9 -80q0 -77 38 -129q58 -78 188 -77q131 0 216.5 72t113.5 202l209 981q45 19 131 19q38 0 70 -4.5t44 -9.5l13 -5l-207 -979q-104 -497 -614 -497q-248 0 -374 144q-89 101 -89 254 q0 65 16 138z" />
<glyph unicode="V" horiz-adv-x="1335" d="M207 1450q55 25 151 25q39 0 66 -5.5t34 -10.5l7 -5l104 -879q7 -71 11 -145q3 -57 3 -93v-19l-1 -37h8q51 131 141 297l479 876q56 21 140 21q36 0 69 -5.5t47 -10.5l15 -5l-785 -1438q-71 -16 -161 -16q-41 0 -79.5 4t-56.5 8l-18 4z" />
<glyph unicode="W" horiz-adv-x="1990" d="M221 1456q49 19 137 19q40 0 68.5 -4.5t37.5 -9.5l9 -5l43 -876q3 -63 3 -139t-1 -121l-2 -44h8q54 159 117 302l387 878q62 19 158 19q44 0 75.5 -4.5t40.5 -9.5l9 -5l12 -876v-31q-1 -54 -3 -113q-4 -76 -7 -118l-4 -42h8q49 140 127 302l418 878q63 19 133 19 q34 0 66 -4.5t47 -9.5l16 -5l-694 -1438q-66 -18 -158 -18q-40 0 -79.5 4.5t-58.5 9.5l-20 4l-8 842q0 96 6 183.5t12 126.5l6 40h-10q-35 -133 -129 -350l-362 -842q-77 -18 -178 -18q-85 0 -152 18z" />
<glyph unicode="X" horiz-adv-x="1310" d="M-115 16l647 766l-278 674q58 19 156 19q39 0 72 -4.5t46 -9.5l13 -5l200 -471l400 471q68 19 151 19q76 0 135 -19l-575 -678l315 -753q-59 -25 -157 -25q-39 0 -71 5t-44 10l-12 5l-234 551l-467 -555q-62 -16 -145 -16q-100 0 -152 16z" />
<glyph unicode="Y" horiz-adv-x="1302" d="M203 1456q60 19 164 19q42 0 73 -4.5t42 -9.5l10 -5l210 -579l461 579q70 19 158 19q37 0 72.5 -4.5t52.5 -9.5l16 -5l-684 -842l-127 -596q-47 -18 -131 -18q-42 0 -74.5 4.5t-44.5 9.5l-12 4l125 590z" />
<glyph unicode="Z" horiz-adv-x="1224" d="M-45 0q-2 20 -2 40q0 40 8 79q12 57 43 112l932 1014h-660v11q0 42 13 112q12 59 37 107h960q4 -17 4 -38q0 -31 -8 -71q-17 -71 -45 -121l-944 -1014h756q1 -10 1 -21q0 -42 -10 -89q-17 -68 -41 -121h-1044z" />
<glyph unicode="[" horiz-adv-x="690" d="M-31 -348l426 2007h436q8 -33 -6 -96q-5 -28 -13.5 -51.5t-14.5 -33.5l-6 -10h-199l-344 -1626h198q6 -33 -6 -96q-6 -28 -14.5 -51.5t-13.5 -32.5l-6 -10h-437z" />
<glyph unicode="\" horiz-adv-x="1024" d="M229 1518q52 18 138 18q36 0 67.5 -4.5t44.5 -9.5l13 -4l344 -1596q-52 -18 -138 -18q-36 0 -67.5 4.5t-44.5 9.5l-13 4z" />
<glyph unicode="]" horiz-adv-x="690" d="M-127 -348q-8 31 6 94q5 28 14 52t15 34l6 10h199l344 1626h-199q-6 32 6 95q6 28 15 52t15 34l5 10h436l-426 -2007h-436z" />
<glyph unicode="^" horiz-adv-x="1067" d="M152 940l464 520q40 15 103 15q28 0 52.5 -3.5t34.5 -7.5l11 -4l244 -520q-41 -14 -98 -14q-26 0 -52.5 3.5t-39.5 6.5l-13 4l-174 371l-330 -371q-53 -14 -112 -14q-25 0 -47.5 3.5t-32.5 6.5z" />
<glyph unicode="_" horiz-adv-x="1134" d="M-57 -209q-8 27 4 84q5 25 13.5 46t13.5 29l6 9h901q8 -27 -4 -84q-5 -25 -13.5 -46t-13.5 -29l-6 -9h-901z" />
<glyph unicode="`" horiz-adv-x="487" d="M66 1567q37 43 109.5 71t131.5 21l117 -281q-55 -61 -160 -78z" />
<glyph unicode="a" horiz-adv-x="1136" d="M63 237q-10 49 -10 107q0 102 29 234q26 122 65 214t85.5 150t105.5 93.5t119 49t133 13.5q82 0 142.5 -33t92.5 -88l31 88q31 14 117 14q38 0 69 -4t42 -8l12 -4l-222 -1047q-49 -16 -112 -16q-29 0 -57 3.5t-41 6.5l-13 4l-2 90q-115 -124 -293 -124q-118 0 -192.5 62 t-100.5 195zM314 366v-10q0 -64 19 -100q20 -38 52.5 -53t83.5 -15q84 0 145.5 61.5t83.5 160.5l54 247q7 34 7 65q0 55 -24 99q-38 68 -119 68q-52 0 -90 -14t-74 -50.5t-64 -106t-50 -175.5t-24 -177z" />
<glyph unicode="b" horiz-adv-x="1142" d="M6 16l320 1504q43 16 129 16q38 0 70.5 -4t45.5 -8l13 -4l-113 -529q110 107 295 107q118 0 188 -60t94 -190q8 -44 9 -97q0 -104 -31 -241q-32 -153 -81 -258.5t-114 -164t-136.5 -83t-162.5 -24.5q-173 0 -249 124l-31 -92q-37 -12 -123 -12q-38 0 -69 4t-42 8z M352 438q-8 -41 -8 -77q0 -57 22 -101q36 -72 119 -72q52 0 90 14.5t74 52t64.5 108t50.5 176.5t24 176q0 8 1 15q1 58 -17 92q-20 38 -51.5 52.5t-83.5 14.5q-86 0 -151 -61.5t-85 -159.5z" />
<glyph unicode="c" horiz-adv-x="905" d="M78 573q58 273 194 399t371 126q59 0 108.5 -5.5t77.5 -13.5t48 -16t27 -13l7 -6q-25 -120 -104 -182q-64 27 -166 27q-130 0 -202 -82t-111 -268q-18 -89 -19 -153q-1 -70 21 -110q40 -80 172 -79q46 0 93.5 7t72.5 14l24 7q26 -29 36 -81q5 -26 6 -52q0 -25 -5 -51 q-12 -7 -35 -17t-107 -27t-181 -17q-228 0 -308 156q-45 89 -46 218q0 98 26 219z" />
<glyph unicode="d" horiz-adv-x="1140" d="M82 575q32 153 80 257.5t111.5 161.5t134 80.5t161.5 23.5q83 0 150.5 -37.5t97.5 -97.5l119 557q47 16 133 16q38 0 69.5 -4t43.5 -8l12 -4l-320 -1504q-49 -16 -112 -16q-29 0 -58 4t-43 8l-14 4l2 88q-115 -124 -307 -124q-180 0 -252 146q-38 78 -38 199 q0 108 30 250zM316 392q-1 -21 -1 -39q0 -37 5 -63q8 -40 29.5 -62.5t50 -31t69.5 -8.5q85 0 146.5 61.5t82.5 160.5l58 266q5 30 5 56q1 58 -25 98q-38 59 -120 59q-52 0 -90 -14.5t-74 -52t-64 -107.5t-50 -176q-18 -85 -22 -147z" />
<glyph unicode="e" horiz-adv-x="1042" d="M56 386q2 91 24 198q30 142 84 243t128 159.5t160 85t191 26.5q86 0 154.5 -25t116.5 -77t64 -132q7 -34 7 -73q0 -53 -12 -117q-13 -58 -29 -112t-26 -78l-9 -25h-592q-5 -55 -5 -95.5t12 -69.5t27.5 -48t42 -30t54.5 -15t66 -4q61 0 122 12.5t92 24.5l30 12 q26 -30 38 -82q6 -29 7 -59q0 -23 -4 -46q-6 -3 -16.5 -8.5t-47 -19t-76.5 -24t-101.5 -19t-125.5 -8.5q-98 0 -171.5 29t-118 82t-66.5 129q-21 71 -21 154q1 6 1 12zM358 637h371q2 7 9.5 31t9.5 37q5 31 5 58q0 51 -20 84q-31 50 -123 50q-93 0 -152 -59.5t-100 -200.5z " />
<glyph unicode="f" horiz-adv-x="739" d="M78 16l184 871h-131q0 43 10 98q14 56 31 92h131l27 123q69 336 428 336q68 0 126 -12t82 -24l25 -13q-26 -103 -104 -178q-58 24 -156 24q-61 0 -94 -29t-47 -94l-29 -133h225q0 -54 -8 -98q-11 -44 -33 -92h-225l-184 -871q-49 -16 -133 -16q-40 0 -71.5 4t-42.5 8z " />
<glyph unicode="g" horiz-adv-x="1148" d="M-37 -428q14 51 42.5 98t64.5 74q10 -5 28 -12t75.5 -19t115.5 -12q52 0 91.5 7t81.5 29t73 59.5t58 102.5t44 154l8 33q-112 -106 -280 -106q-314 0 -314 346q0 104 29 241q26 123 64 215.5t83 152t102.5 96.5t117 52t131.5 15q93 0 156 -35t91 -92l33 90q37 16 123 16 q38 0 69 -4t42 -8l12 -4l-217 -1032q-62 -292 -206.5 -416.5t-397.5 -124.5q-64 0 -120.5 8.5t-91.5 21t-61 25t-36 21.5zM324 392q-1 -21 -1 -39q0 -36 5 -63q8 -39 29.5 -62t50 -31.5t69.5 -8.5q82 0 144 58.5t84 152.5l57 269q8 37 8 68q0 53 -23 92q-37 61 -122 61 q-52 0 -90 -14.5t-74 -52t-64.5 -107.5t-50.5 -176q-18 -85 -22 -147z" />
<glyph unicode="h" d="M6 16l320 1504q41 16 131 16q37 0 69 -4t45 -8l13 -4l-111 -521q126 99 281 99q156 0 228 -99q48 -67 49 -163q0 -45 -11 -97l-154 -723q-49 -16 -133 -16q-40 0 -71.5 4t-42.5 8l-11 4l154 725q5 23 5 42q0 106 -138 106q-102 0 -197 -76l-168 -797q-49 -16 -133 -16 q-40 0 -71 4t-42 8z" />
<glyph unicode="i" horiz-adv-x="532" d="M8 16l221 1045q43 16 133 16q37 0 68.5 -4t43.5 -8l13 -4l-221 -1045q-49 -16 -133 -16q-40 0 -71 4t-42 8zM270 1257l52 236q43 16 133 16q37 0 68.5 -4t44.5 -8l12 -4l-52 -236q-47 -16 -131 -16q-40 0 -72 4t-43 8z" />
<glyph unicode="j" horiz-adv-x="536" d="M-295 -494q-1 9 -1 19q0 19 5 41q8 40 21.5 73t23.5 47l10 13q31 -8 66 -8q112 0 135 121l266 1249q44 16 134 16q37 0 68 -4t43 -8l13 -4l-264 -1241q-34 -160 -130.5 -246t-248.5 -86q-38 0 -73.5 4.5t-51.5 9.5zM272 1257l52 236q43 16 133 16q37 0 68.5 -4t44.5 -8 l12 -4l-52 -236q-47 -16 -131 -16q-40 0 -72 4t-43 8z" />
<glyph unicode="k" horiz-adv-x="1034" d="M6 16l320 1508q55 12 133 12q30 0 61.5 -3t47.5 -6l16 -3l-185 -867h70l319 404q74 16 150 16q31 0 61.5 -4t44.5 -8l15 -4l-400 -506l236 -539q-72 -18 -156 -18q-36 0 -65.5 4.5t-41.5 9.5l-11 4l-181 451h-82l-94 -451q-55 -16 -131 -16q-36 0 -67.5 4t-45.5 8z" />
<glyph unicode="l" horiz-adv-x="540" d="M12 16l320 1504q41 16 131 16q37 0 69 -4t45 -8l13 -4l-320 -1504q-49 -16 -133 -16q-40 0 -71.5 4t-42.5 8z" />
<glyph unicode="m" horiz-adv-x="1685" d="M6 16l221 1045q43 16 133 16q37 0 66 -4t39 -8l10 -4l-6 -74q60 51 133 81t139 30q194 0 256 -121q147 121 328 121q149 0 219 -102q47 -69 46 -164q0 -46 -11 -99l-152 -717q-49 -16 -133 -16q-40 0 -71 4t-43 8l-11 4l154 725q5 24 5 45q0 103 -128 103 q-101 0 -184 -74l-170 -799q-49 -16 -133 -16q-40 0 -71.5 4t-42.5 8l-11 4l153 725q5 24 5 45q0 103 -128 103q-101 0 -184 -74l-170 -799q-49 -16 -133 -16q-40 0 -71 4t-42 8z" />
<glyph unicode="n" d="M6 16l221 1045q37 16 127 16q37 0 66 -4t39 -8l10 -4l-2 -78q69 60 138 87.5t153 27.5q158 0 228 -96q46 -64 46 -161q0 -49 -12 -106l-154 -719q-49 -16 -133 -16q-40 0 -71.5 4t-42.5 8l-11 4l154 725q5 23 5 42q0 106 -138 106q-91 0 -199 -90l-166 -783 q-49 -16 -133 -16q-40 0 -71 4t-42 8z" />
<glyph unicode="o" horiz-adv-x="1114" d="M78 569q32 150 83.5 253.5t124 163.5t158.5 86t199 26q227 0 323 -149q58 -90 58 -234q0 -94 -25 -211q-32 -150 -82.5 -253t-122.5 -162t-157.5 -84t-198.5 -25q-226 0 -324 147q-60 90 -60 236q0 92 24 206zM309 357q1 -70 21 -109t51.5 -55.5t79.5 -16.5q49 0 88 16.5 t75.5 55.5t66.5 112t52 179q23 106 23 179v3q0 70 -20 109t-52 55t-80 16q-50 0 -89 -16t-75.5 -55.5t-66 -111.5t-51.5 -179q-23 -108 -23 -182z" />
<glyph unicode="p" horiz-adv-x="1140" d="M-92 -442l319 1503q45 16 131 16q38 0 67.5 -4t39.5 -8l10 -4l-8 -82q122 119 283 119q181 0 258 -148q42 -82 42 -210q0 -105 -28 -240q-26 -122 -64.5 -214t-83.5 -149.5t-102 -93.5t-114.5 -49.5t-125.5 -13.5q-170 0 -253 106l-113 -528q-49 -17 -135 -17 q-38 0 -69 4.5t-42 8.5zM350 434q-8 -36 -8 -69q0 -58 24 -104q39 -73 123 -73q101 0 166.5 79t108.5 272q20 94 20 163q0 187 -151 187q-85 0 -147.5 -61t-84.5 -160z" />
<glyph unicode="q" horiz-adv-x="1136" d="M82 571q32 153 79.5 258t111 163t133.5 82t161 24q92 0 156 -37t94 -94l27 94q35 16 121 16q38 0 70.5 -4t45.5 -8l13 -4l-320 -1503q-45 -17 -131 -17q-38 0 -70 4.5t-45 8.5l-12 4l113 528q-58 -55 -121.5 -80.5t-157.5 -25.5q-298 0 -298 341q0 108 30 250zM314 392 q-1 -21 -1 -39q0 -36 5 -63q8 -39 29.5 -62t50 -31.5t69.5 -8.5q82 0 143.5 58.5t83.5 152.5l58 269q7 32 7 61q0 56 -27 97q-40 63 -118 63q-52 0 -90 -14.5t-74 -52t-64 -107.5t-50 -176q-18 -85 -22 -147z" />
<glyph unicode="r" horiz-adv-x="815" d="M6 16l221 1045q43 16 133 16q37 0 68.5 -4t43.5 -8l13 -4l-24 -117q143 152 260 152q96 0 168 -54q-22 -71 -59.5 -123t-98.5 -96q-42 45 -108 45q-103 0 -201 -106l-158 -746q-49 -16 -133 -16q-40 0 -71 4t-42 8z" />
<glyph unicode="s" horiz-adv-x="907" d="M-39 57q33 114 102 191q132 -49 271 -49q161 0 182 114q7 32 -3.5 56t-41 42.5t-57.5 29.5t-76 26q-34 11 -62 24t-57.5 33.5t-48 45t-34 59t-15.5 75.5t8 95q33 150 144.5 224.5t310.5 74.5q163 0 280 -62q-21 -117 -96 -180q-90 33 -203 33q-91 0 -139.5 -26.5 t-60.5 -88.5q-4 -21 3.5 -38.5t21 -29t39 -23.5t47.5 -19t57.5 -18.5t58.5 -20.5q46 -17 81.5 -44t62.5 -69q28 -42 34 -98q2 -18 3 -39q0 -41 -9 -90q-33 -161 -143.5 -233t-313.5 -72q-62 0 -121 8t-98 19t-69 22.5t-44 19.5z" />
<glyph unicode="t" horiz-adv-x="784" d="M102 887q-1 11 -1 23q0 30 8 71q5 28 13.5 52t14.5 34l6 10h156l37 176q100 54 219 54q24 0 49 -2l-47 -228h242q2 -12 2 -26q0 -29 -8 -68q-5 -24 -14 -48t-15 -36l-6 -12h-242l-104 -488q-13 -63 -13 -106q-1 -43 13 -65q28 -42 129 -42l94 7q3 -18 3 -39q0 -30 -7 -64 q-4 -24 -12.5 -47t-14.5 -34l-6 -11q-68 -18 -156 -18q-194 0 -264 101q-43 62 -42 164q0 63 16 142l106 500h-156z" />
<glyph unicode="u" d="M58 206q-3 21 -3 42q0 48 13 100l151 713q49 16 133 16q40 0 71.5 -4t42.5 -8l11 -4l-153 -725q-5 -23 -5 -42q0 -106 138 -106q54 0 108.5 26t89.5 75l166 772q49 16 133 16q40 0 71.5 -4t42.5 -8l11 -4l-221 -1045q-43 -16 -133 -16q-35 0 -62 4t-37 8l-10 4l7 86 q-110 -122 -291 -122q-87 0 -148.5 29.5t-89.5 80t-36 116.5z" />
<glyph unicode="v" horiz-adv-x="1071" d="M121 1061q53 16 137 16q40 0 68.5 -4t36.5 -8l8 -4l61 -594q5 -52 7 -109q1 -38 1 -64v-24v-32h9q46 110 112 231l316 592q63 16 137 16q36 0 64.5 -4t39.5 -8l10 -4l-561 -1045q-72 -16 -164 -16q-44 0 -82.5 4t-55.5 8l-17 4z" />
<glyph unicode="w" horiz-adv-x="1624" d="M125 1061q51 16 133 16q39 0 63 -4t29 -8l4 -4l39 -594q3 -39 3 -85q0 -59 -5 -130h6q43 115 92 217l277 592q69 16 147 16q37 0 68 -4t43 -8l12 -4l21 -590v-40q0 -82 -6 -179h6q16 41 98 217l281 592q55 16 137 16q35 0 61 -4t34 -8l9 -4l-514 -1045q-73 -16 -155 -16 q-85 0 -150 16l-18 488q-1 27 -1 54q0 125 19 259h-8q-49 -171 -119 -313l-227 -488q-68 -16 -156 -16q-94 0 -151 16z" />
<glyph unicode="x" horiz-adv-x="1044" d="M-109 16l465 535l-215 510q56 16 144 16q42 0 72 -4t39 -8l10 -4l135 -318l274 318q67 16 143 16q37 0 69.5 -4t46.5 -8l13 -4l-430 -494l238 -551q-55 -16 -143 -16q-42 0 -71 4t-37 8l-9 4l-156 359l-311 -359q-72 -16 -148 -16q-37 0 -69.5 4t-46.5 8z" />
<glyph unicode="y" d="M-59 -428q14 51 42 96t64 72q10 -5 28 -13t75.5 -21t115.5 -13q51 0 89.5 7t79 28.5t70 59.5t56.5 102t45 153l6 25q-64 -49 -125.5 -68.5t-146.5 -19.5q-168 0 -237 100q-46 68 -46 160q0 45 11 96l153 725q49 16 133 16q40 0 71.5 -4t42.5 -8l11 -4l-153 -725 q-5 -23 -5 -42q0 -106 138 -106q102 0 194 76l170 797q49 16 133 16q40 0 71.5 -4t42.5 -8l11 -4l-217 -1018q-62 -294 -208 -424.5t-396 -130.5q-64 0 -120.5 8.5t-91.5 21t-60.5 25t-35.5 21.5z" />
<glyph unicode="z" horiz-adv-x="966" d="M-45 0q-1 10 -1 21q0 39 9 90q12 51 37 100l649 655h-483q-1 12 -1 25q0 38 9 84q6 28 15.5 53.5t15.5 37.5l6 11h754q1 -8 1 -18q0 -29 -8 -80q-12 -60 -38 -113l-648 -655h504q3 -14 3 -32q0 -32 -9 -75q-6 -27 -16 -53t-16 -39l-7 -12h-776z" />
<glyph unicode="{" horiz-adv-x="731" d="M70 590q-5 34 6 96q10 43 35 94h51q85 0 104 86l111 520q27 127 112 200t218 73h163q6 -44 -6 -94q-7 -39 -35 -97h-112q-86 0 -105 -86l-100 -479q-32 -148 -137 -217q74 -69 43 -219l-101 -479q-19 -86 68 -86h113q5 -37 -6 -99q-12 -51 -35 -92h-164 q-133 0 -187.5 73.5t-27.5 199.5l110 520q19 86 -67 86h-51z" />
<glyph unicode="|" horiz-adv-x="606" d="M-41 -387l422 1989q43 16 133 16q37 0 68.5 -4t43.5 -8l13 -4l-422 -1989q-49 -16 -133 -16q-40 0 -71.5 4t-42.5 8z" />
<glyph unicode="}" horiz-adv-x="729" d="M-117 -289q-6 43 6 92q8 47 35 99h113q85 0 104 86l101 479q31 149 135 219q-72 69 -41 217l100 479q19 86 -67 86h-113q-3 46 6 97q13 55 35 94h164q133 0 187.5 -73.5t27.5 -199.5l-111 -520q-19 -86 68 -86h51q4 -54 -6 -94q-8 -47 -35 -96h-51q-86 0 -105 -86 l-110 -520q-27 -127 -112 -200t-218 -73h-164z" />
<glyph unicode="~" horiz-adv-x="1050" d="M102 567q4 6 12 16t35 35t57 44t78.5 35t100.5 16q45 0 85.5 -16.5t66.5 -36t65 -36t82 -16.5q27 0 53.5 8t44 19t31.5 22t21 19l6 8q42 -15 63.5 -48t18.5 -75q-2 -3 -6 -8t-18 -20.5t-29.5 -29t-41 -30t-52 -29t-62.5 -20.5t-74 -8q-45 0 -85.5 16t-66.5 36t-65 36 t-82 16q-27 0 -53.5 -8t-44 -19t-31.5 -22t-21 -19l-6 -8q-42 15 -63.5 48t-18.5 75z" />
<glyph unicode="&#xa1;" horiz-adv-x="561" d="M-76 -397l262 1034q40 14 99 14q26 0 49.5 -3.5t33.5 -7.5l11 -3l-176 -1034q-54 -17 -144 -17q-37 0 -71 4t-49 8zM190 809l50 235q49 17 133 17q40 0 71 -4.5t42 -8.5l12 -4l-49 -235q-44 -16 -134 -16q-37 0 -68.5 4t-44.5 8z" />
<glyph unicode="&#xa2;" horiz-adv-x="946" d="M80 539q107 502 489 553l25 192q49 21 108 21q30 0 56 -5.5t36 -10.5l11 -5l-60 -190q63 -5 110 -17.5t63 -22.5l16 -10q-21 -97 -107 -170q-66 27 -168 27q-129 0 -202.5 -87.5t-112.5 -274.5q-39 -184 1.5 -269.5t170.5 -85.5q46 0 94 7t72 15l25 7q53 -59 34 -170 q-8 -5 -24.5 -13t-76.5 -24t-130 -22l-23 -191q-42 -20 -110 -20q-26 0 -51.5 5t-37.5 10l-12 5l58 193q-361 48 -254 553z" />
<glyph unicode="&#xa3;" horiz-adv-x="1099" d="M2 0l49 231q127 104 176 191t49 178h-167q-6 33 6 92q4 24 12 46t14 32l6 10h115q-15 135 8 246q22 102 71.5 178t120 121.5t155.5 67.5t184 22q183 0 346 -76q-12 -113 -113 -184q-111 44 -233 47q-227 0 -264 -182q-20 -93 -9 -240h357q8 -33 -4 -86q-5 -24 -14 -47.5 t-15 -34.5l-6 -12h-316q-7 -100 -55 -190t-160 -179h586q10 -44 -4 -114q-6 -32 -17.5 -61.5t-19.5 -42.5l-8 -13h-850z" />
<glyph unicode="&#xa4;" horiz-adv-x="1222" d="M8 162v10l185 152q-48 102 -21 231q22 115 119 231l-121 152q12 39 63 80q23 20 45 31t33 13l11 1l118 -152q118 70 248 70q124 0 217 -70l182 152q37 0 72 -45q14 -18 20.5 -38t6.5 -31v-11l-182 -152q44 -101 20 -231q-25 -118 -121 -233l121 -150q-10 -41 -61 -82 q-23 -20 -45.5 -31t-33.5 -11l-12 -1l-120 150q-117 -68 -246 -68q-126 0 -219 68l-181 -150q-38 2 -71 47q-15 18 -21.5 37.5t-5.5 30.5zM346 555q-23 -105 34.5 -178.5t162.5 -73.5q106 0 195 73t112 179q22 106 -35.5 179t-163.5 73q-105 0 -194 -73.5t-111 -178.5z" />
<glyph unicode="&#xa5;" horiz-adv-x="1280" d="M106 279q-3 39 7 83q5 30 26 74h328l31 139h-328q-3 49 4 80q7 33 29 78h239l-231 645q53 23 147 23q39 0 72.5 -5.5t47.5 -10.5l14 -5l190 -555l448 559q52 17 136 17q33 0 63.5 -4.5t44.5 -8.5l15 -4l-533 -651h236q5 -32 -5 -78q-8 -34 -28 -80h-322l-30 -139h321 q6 -34 -4 -76q-9 -42 -29 -81h-321l-56 -261q-46 -18 -124 -18q-34 0 -62.5 4.5t-40.5 9.5l-12 4l55 261h-328z" />
<glyph unicode="&#xa6;" horiz-adv-x="593" d="M-47 -387l186 883q43 16 133 16q37 0 68.5 -4t43.5 -8l13 -4l-186 -883q-49 -16 -133 -16q-40 0 -71.5 4t-42.5 8zM193 739l182 863q43 16 133 16q37 0 68.5 -4t43.5 -8l13 -4l-182 -863q-50 -16 -134 -16q-40 0 -71 4t-42 8z" />
<glyph unicode="&#xa7;" horiz-adv-x="995" d="M0 33q0 45 23 91.5t65 72.5q124 -33 254 -33q215 0 238 117q7 33 -11 56.5t-53 36.5t-81 26t-94 24t-91.5 31t-75.5 47t-45 72.5t0 107.5q23 117 143 221q-59 71 -32 205q31 150 154 227.5t302 77.5q149 0 279 -47q-3 -41 -26 -87t-60 -73q-97 27 -197 27 q-205 0 -231 -121q-8 -37 15.5 -61.5t66.5 -38t96.5 -25t105 -29.5t91.5 -45t58 -78t3 -122q-23 -108 -133 -207q84 -77 53 -230q-16 -77 -62.5 -135.5t-113 -93t-144.5 -51t-165 -16.5q-86 0 -169 13.5t-123 26.5zM350 715q-5 -24 4.5 -42t26.5 -29t47 -20.5t57 -15 t66.5 -14t66.5 -16.5q47 50 58 102q6 28 -6.5 47.5t-42.5 32t-60.5 20.5t-78.5 18.5t-78 20.5q-50 -54 -60 -104z" />
<glyph unicode="&#xa8;" horiz-adv-x="931" d="M117 1266l43 198q36 15 112 15q32 0 59.5 -3.5t38.5 -7.5l11 -4l-43 -198q-41 -15 -113 -15q-34 0 -61 3.5t-37 7.5zM487 1266l43 198q37 15 113 15q32 0 59.5 -3.5t38.5 -7.5l11 -4l-43 -198q-41 -15 -113 -15q-34 0 -61 3.5t-37 7.5z" />
<glyph unicode="&#xa9;" horiz-adv-x="1632" d="M103.5 469q-10.5 107 11.5 227q31 146 116 279t201.5 229t261.5 152.5t291 56.5q195 0 339.5 -96t204.5 -261t19 -360q-31 -146 -115.5 -279t-200.5 -228.5t-261 -152t-291 -56.5q-117 0 -219 36.5t-175.5 101.5t-122.5 154.5t-59.5 196.5zM272.5 521.5 q8.5 -82.5 46 -151.5t93.5 -119t134.5 -78t168.5 -28q150 0 292.5 73.5t243 200.5t131.5 277q32 150 -14.5 277t-158 200.5t-261.5 73.5q-228 0 -422.5 -161t-244.5 -390q-17 -92 -8.5 -174.5zM477 711q43 201 158 304t295 103q60 0 112 -11t74 -23l23 -11q-17 -83 -88 -135 q-66 29 -138 29q-89 0 -151.5 -59t-91.5 -199q-13 -75 -12 -123t23.5 -75.5t52 -38.5t73.5 -11q36 0 75 5.5t60 11.5l21 5q52 -37 32 -135q-11 -5 -31 -13t-82.5 -21t-125.5 -13q-179 0 -250 106t-29 304z" />
<glyph unicode="&#xaa;" horiz-adv-x="739" d="M51 350q-3 87 33 150h512q9 -70 -33 -150h-512zM135 823q46 207 295 207l107 -4l6 27q9 40 -10.5 64t-69.5 24q-35 0 -76.5 -7.5t-65.5 -15.5l-24 -8q-36 59 -25 125q13 6 35 15t86.5 24.5t122.5 15.5q136 0 183 -57t20 -178l-90 -424q-27 -17 -74 -17q-17 0 -34.5 4 t-26.5 8l-9 5l-6 45q-72 -72 -190 -72q-93 0 -135 56.5t-19 162.5zM313 823q-9 -44 7.5 -63t56.5 -19q52 0 85 41t44 95l6 26q-39 2 -90 2q-90 0 -109 -82z" />
<glyph unicode="&#xab;" horiz-adv-x="1091" d="M63 438q-9 39 5 105q7 32 18 61t18 42l7 13l493 383q49 -47 53 -149l-362 -342l217 -340q-46 -101 -117 -150zM487 444q-10 38 2 99q6 30 17 57.5t18 39.5l8 13l469 365q46 -46 50 -141l-344 -326l206 -324q-48 -97 -110 -141z" />
<glyph unicode="&#xac;" horiz-adv-x="1239" d="M125 682q-14 45 0 106q6 29 17.5 57t19.5 41l8 13h983l-117 -553q-44 -22 -112 -22q-30 0 -57 5.5t-39 10.5l-11 6l72 336h-764z" />
<glyph unicode="&#xad;" horiz-adv-x="624" />
<glyph unicode="&#xae;" horiz-adv-x="1075" d="M160 965q40 186 199.5 317t345.5 131q122 0 212.5 -60t128 -163t11.5 -225q-40 -186 -198.5 -317.5t-344.5 -131.5q-122 0 -213 60t-129 163.5t-12 225.5zM270 965q-29 -141 49 -239.5t218 -98.5q141 0 260.5 98.5t148.5 239.5q31 141 -47 239.5t-219 98.5 q-140 0 -259.5 -98.5t-150.5 -239.5zM401 750l97 456h190q73 0 110 -40t23 -105q-9 -46 -41 -82t-78 -51l82 -172q-32 -17 -71 -17q-16 0 -29.5 2.5t-19.5 5.5l-5 3l-81 165h-33l-35 -165q-28 -11 -55 -11q-15 0 -28.5 2.5t-19.5 5.5zM563 1006h72q61 0 74 55q12 55 -50 55 h-71z" />
<glyph unicode="&#xaf;" horiz-adv-x="833" d="M33 1290q-6 80 30 148h662q10 -72 -31 -148h-661z" />
<glyph unicode="&#xb0;" horiz-adv-x="706" d="M217 1264q24 106 114 186t216 80q84 0 138 -38.5t70.5 -96.5t2.5 -125q-23 -106 -110 -183t-212 -77q-130 0 -185.5 74.5t-33.5 179.5zM365 1266q-10 -49 14.5 -84t83.5 -35q57 0 95.5 35.5t49.5 85.5q10 50 -14 86.5t-80 36.5q-58 0 -97.5 -37.5t-51.5 -87.5z" />
<glyph unicode="&#xb1;" horiz-adv-x="1034" d="M57 242q-6 37 6 94q5 25 14 48.5t15 34.5l6 11h758q6 -37 -6 -94q-5 -25 -14 -48.5t-15 -34.5l-6 -11h-758zM162 729q-8 37 4 94q5 25 14 49t15 35l6 11h284l47 223q42 14 99 14q25 0 47.5 -3.5t32.5 -7.5l10 -3l-47 -223h284q6 -38 -6 -95q-5 -25 -13 -48.5t-13 -34.5 l-6 -11h-285l-49 -223q-40 -14 -97 -14q-25 0 -48 3.5t-33 6.5l-11 4l49 223h-284z" />
<glyph unicode="&#xb2;" horiz-adv-x="618" d="M82 709q-2 37 8 84q16 77 62 135t101.5 91t109 59t94.5 56.5t49 67.5q15 76 -103 76q-62 0 -127 -18q-39 50 -16 126q94 35 211 35q112 0 174.5 -53.5t40.5 -155.5q-13 -60 -46.5 -104.5t-80 -73.5t-94 -52.5t-100 -55.5t-86.5 -68h296q6 -39 -2 -76q-5 -32 -28 -73h-463 z" />
<glyph unicode="&#xb3;" horiz-adv-x="614" d="M78 743q6 33 26 66.5t48 54.5q59 -22 141 -22q126 0 143 84q9 42 -10.5 61t-75.5 19h-98q-9 70 31 137h98q80 0 94 63q9 39 -12 56.5t-72 17.5q-32 0 -67.5 -5t-55.5 -10l-20 -5q-17 19 -22.5 52t3.5 70q86 39 205 39q121 0 181.5 -50t41.5 -140q-25 -108 -116 -152 q93 -46 67 -174q-44 -207 -338 -207q-58 0 -106 11t-67 23z" />
<glyph unicode="&#xb4;" horiz-adv-x="458" d="M12 1378l236 281q62 7 124 -21t81 -71l-314 -267q-94 17 -127 78z" />
<glyph unicode="&#xb5;" horiz-adv-x="1200" d="M-43 -498q0 128 74 469l231 1090q49 16 133 16q40 0 71.5 -4t42.5 -8l11 -4l-153 -725q-30 -148 133 -148q99 0 194 76l170 797q49 16 133 16q40 0 71.5 -4t42.5 -8l11 -4l-221 -1045q-43 -16 -133 -16q-37 0 -68.5 4t-43.5 8l-13 4l8 39q-103 -75 -229 -75 q-103 0 -162 59q-16 -136 -18.5 -260t2.5 -180l6 -56q-59 -41 -149.5 -52t-143.5 11z" />
<glyph unicode="&#xb6;" horiz-adv-x="1341" d="M113.5 842.5q-0.5 64.5 11.5 132.5q20 88 67.5 168.5t116 145.5t165 104t204.5 39h184l-401 -1885q-37 -12 -103 -12q-31 0 -55.5 3t-33.5 6l-9 3l207 973q-86 2 -153.5 28.5t-108.5 70t-66 101.5t-25.5 122.5zM723 -453l397 1872q35 13 105 13q29 0 53 -3t34 -7l9 -3 l-397 -1872q-37 -12 -103 -12q-31 0 -55.5 3t-33.5 6z" />
<glyph unicode="&#xb7;" horiz-adv-x="483" d="M100 483l43 199q35 16 113 16q32 0 59 -4t39 -8l11 -4l-43 -199q-43 -16 -115 -16q-35 0 -61.5 4t-35.5 8z" />
<glyph unicode="&#xb8;" horiz-adv-x="606" d="M-315 -412q6 33 26 61.5t47 43.5q52 -27 119 -27q117 0 135 88q8 38 -11.5 61t-70.5 23h-80l-20 33l92 238l127 -37l-49 -125q109 0 147 -54.5t19 -146.5q-23 -101 -102.5 -154t-198.5 -53q-56 0 -101 12.5t-62 24.5z" />
<glyph unicode="&#xb9;" horiz-adv-x="507" d="M174 1284q133 33 223 115q36 10 88 10q35 0 80 -10l-145 -682q-45 -10 -84 -10q-51 0 -92 10l86 399q5 29 18 82q-68 -43 -158 -53q-41 50 -16 139z" />
<glyph unicode="&#xba;" horiz-adv-x="763" d="M63 350q-2 20 7 78q12 48 26 72h512q4 -41 -4 -72q-5 -36 -29 -78h-512zM162 948q40 183 129 262.5t231 79.5t198.5 -79t16.5 -263q-38 -184 -128 -264t-232 -80q-143 0 -198 79.5t-17 264.5zM330 821q6 -44 23.5 -57.5t54.5 -13.5q36 0 59.5 13.5t45 58t38.5 126.5 q14 62 16 102t-7.5 61.5t-25 29.5t-42.5 8q-55 0 -88.5 -41t-59.5 -160q-20 -83 -14 -127z" />
<glyph unicode="&#xbb;" horiz-adv-x="1089" d="M10 227l342 324l-205 326q43 95 111 141l313 -365q8 -42 -6 -110q-5 -27 -15 -52t-17 -36l-7 -11l-467 -358q-49 46 -49 141zM403 211l361 340l-215 342q40 95 115 149l329 -383q10 -44 -6 -116q-6 -29 -16.5 -55.5t-17.5 -37.5l-7 -12l-491 -377q-52 52 -52 150z" />
<glyph unicode="&#xbc;" horiz-adv-x="1396" d="M74 -6l1093 1429q33 15 99 15q29 0 52.5 -4t32.5 -8l9 -3l-1096 -1429q-41 -14 -98 -14q-24 0 -47 3.5t-34 6.5zM193 1284q133 33 223 115q36 10 88 10q35 0 80 -10l-146 -682q-45 -10 -84 -10q-51 0 -92 10l86 399q2 12 19 82q-68 -43 -158 -53q-41 50 -16 139zM662 158 q-4 32 2 57q8 36 20 55l410 420q40 12 86 12q42 0 80 -12l-89 -407h76q5 -29 -2 -64q-5 -24 -24 -61h-76l-31 -148q-39 -10 -76 -10q-40 0 -71 10l30 148h-335zM860 283h164l47 217z" />
<glyph unicode="&#xbd;" horiz-adv-x="1490" d="M74 -6l1093 1429q33 15 99 15q29 0 52.5 -4t32.5 -8l9 -3l-1096 -1429q-41 -14 -98 -14q-24 0 -47 3.5t-34 6.5zM193 1284q133 33 223 115q36 10 88 10q35 0 80 -10l-146 -682q-45 -10 -84 -10q-51 0 -92 10l86 399q2 12 19 82q-68 -43 -158 -53q-41 50 -16 139zM788 0 q1 37 11 84q12 57 40 103t63 76.5t75 55.5t79 44.5t71.5 38t55.5 42t29 50.5q8 40 -19.5 57.5t-76.5 17.5q-72 3 -133 -18q-38 53 -16 127q96 35 213 35q111 0 173 -53.5t40 -155.5q-13 -60 -46.5 -104.5t-79.5 -73.5t-93.5 -52.5t-100.5 -55.5t-88 -68h297q7 -29 0 -76 q-10 -41 -31 -74h-463z" />
<glyph unicode="&#xbe;" horiz-adv-x="1476" d="M98 743q6 33 26 66.5t48 54.5q59 -22 141 -22q127 0 144 84q9 42 -10.5 61t-75.5 19h-99q-9 70 31 137h98q81 0 95 63q9 39 -12 56.5t-72 17.5q-32 0 -68 -5t-56 -10l-20 -5q-17 19 -22 52t4 70q86 39 205 39q121 0 181.5 -50t41.5 -140q-24 -107 -117 -152 q94 -46 68 -174q-44 -207 -338 -207q-58 0 -106.5 11t-67.5 23zM156 -6l1093 1429q33 15 99 15q29 0 52.5 -4t32.5 -8l9 -3l-1096 -1429q-41 -14 -98 -14q-24 0 -47 3.5t-34 6.5zM743 158q-3 27 5 61t18 51l410 420q40 12 86 12q42 0 79 -12l-88 -407h76q5 -29 -2 -64 q-5 -24 -24 -61h-76l-31 -148q-39 -10 -76 -10q-40 0 -71 10l30 148h-336zM942 283h164l47 217z" />
<glyph unicode="&#xbf;" horiz-adv-x="884" d="M-67 -119.5q-11 62.5 8 144.5q17 81 50 143t72.5 101t84 70t88 58t81.5 57t67 75t42 104q30 14 98 14q28 0 53.5 -3.5t36.5 -7.5l11 -3q-19 -86 -49 -152t-64 -105t-71.5 -69.5t-73 -55t-67 -51t-56 -68t-35.5 -97.5q-21 -98 26 -135t144 -37q61 0 117 11.5t82 23.5 l26 12q77 -68 39 -184q-15 -8 -43.5 -20.5t-119 -33t-185.5 -20.5q-72 0 -131.5 12.5t-110 39.5t-80 70.5t-40.5 106zM432 813l51 236q47 16 131 16q40 0 72 -4t44 -8l11 -4l-51 -236q-41 -16 -131 -16q-37 0 -69 4t-45 8z" />
<glyph unicode="&#xc0;" horiz-adv-x="1359" d="M-98 18l794 1438q72 19 164 19q44 0 83 -4.5t56 -9.5l17 -5l184 -1438q-51 -18 -147 -18q-39 0 -65 4.5t-32 9.5l-6 4l-41 328h-559l-180 -328q-70 -18 -152 -18q-35 0 -64 4.5t-40 9.5zM467 557h416l-56 416q-7 56 -11 115t-4 90l-1 30h-8q-41 -112 -109 -235zM670 1800 q37 43 109.5 71t131.5 21l117 -284q-61 -68 -160 -74z" />
<glyph unicode="&#xc1;" horiz-adv-x="1359" d="M-98 18l794 1438q72 19 164 19q44 0 83 -4.5t56 -9.5l17 -5l184 -1438q-51 -18 -147 -18q-39 0 -65 4.5t-32 9.5l-6 4l-41 328h-559l-180 -328q-70 -18 -152 -18q-35 0 -64 4.5t-40 9.5zM467 557h416l-56 416q-7 56 -11 115t-4 90l-1 30h-8q-41 -112 -109 -235zM760 1614 l237 282q62 7 126 -22t83 -72l-297 -266q-118 21 -149 78z" />
<glyph unicode="&#xc2;" horiz-adv-x="1359" d="M-98 18l794 1438q72 19 164 19q44 0 83 -4.5t56 -9.5l17 -5l184 -1438q-51 -18 -147 -18q-39 0 -65 4.5t-32 9.5l-6 4l-41 328h-559l-180 -328q-70 -18 -152 -18q-35 0 -64 4.5t-40 9.5zM467 557h416l-56 416q-7 56 -11 115t-4 90l-1 30h-8q-41 -112 -109 -235zM569 1649 l336 241h53l252 -241q-67 -89 -141 -111l-176 129l-227 -127q-69 24 -97 109z" />
<glyph unicode="&#xc3;" horiz-adv-x="1359" d="M-98 18l794 1438q72 19 164 19q44 0 83 -4.5t56 -9.5l17 -5l184 -1438q-51 -18 -147 -18q-39 0 -65 4.5t-32 9.5l-6 4l-41 328h-559l-180 -328q-70 -18 -152 -18q-35 0 -64 4.5t-40 9.5zM467 557h416l-56 416q-7 56 -11 115t-4 90l-1 30h-8q-41 -112 -109 -235zM573 1706 q2 5 7 12.5t22 28t37 36.5t54 30.5t71 17.5q42 3 79.5 -8t60.5 -25.5t53 -25.5t59 -9q24 2 47.5 15t34.5 25l12 12q63 -32 96 -89q-3 -4 -8.5 -11.5t-24.5 -27t-40.5 -35t-56.5 -29t-72 -15.5q-53 -3 -96 14t-78 34t-70 15q-29 -2 -53.5 -14t-34.5 -23l-10 -12 q-64 29 -89 84z" />
<glyph unicode="&#xc4;" horiz-adv-x="1359" d="M-98 18l794 1438q72 19 164 19q44 0 83 -4.5t56 -9.5l17 -5l184 -1438q-51 -18 -147 -18q-39 0 -65 4.5t-32 9.5l-6 4l-41 328h-559l-180 -328q-70 -18 -152 -18q-35 0 -64 4.5t-40 9.5zM467 557h416l-56 416q-7 56 -11 115t-4 90l-1 30h-8q-41 -112 -109 -235zM573 1591 l41 199q39 14 115 14q32 0 59 -3.5t38 -6.5l10 -4l-41 -199q-43 -14 -115 -14q-34 0 -60.5 3.5t-36.5 7.5zM944 1591l41 199q39 14 115 14q32 0 58.5 -3.5t37.5 -6.5l10 -4l-41 -199q-42 -14 -114 -14q-34 0 -60.5 3.5t-36.5 7.5z" />
<glyph unicode="&#xc5;" horiz-adv-x="1359" d="M-98 18l768 1391q-67 64 -43 182q24 108 110.5 169t190.5 61q102 0 165 -60.5t40 -169.5q-22 -106 -113 -174l180 -1399q-51 -18 -147 -18q-39 0 -65.5 4.5t-33.5 9.5l-6 4l-41 328h-559l-180 -328q-68 -18 -150 -18q-35 0 -64 4.5t-40 9.5zM465 557h416l-52 416 q-7 56 -10.5 113t-3.5 86v28h-8q-43 -104 -111 -227zM764 1591q-10 -44 13 -76t77 -32q55 0 93 32.5t46 75.5q10 44 -14.5 76.5t-79.5 32.5q-53 0 -89 -32.5t-46 -76.5z" />
<glyph unicode="&#xc6;" horiz-adv-x="1767" d="M-127 20l1196 1455h762q22 -98 -45 -211h-522l-88 -414h419q16 -112 -45 -211h-420l-90 -428h543q8 -55 -4 -112t-41 -99h-770l74 346h-426l-262 -326q-65 -20 -148 -20q-89 0 -133 20zM586 557h301l125 537z" />
<glyph unicode="&#xc7;" horiz-adv-x="1150" d="M139 778q79 366 270.5 541.5t499.5 175.5q101 0 186 -18t119 -36l35 -18q-4 -43 -39 -102q-17 -28 -37 -50.5t-31 -30.5l-12 -9q-108 43 -239 43q-86 0 -156.5 -25.5t-135.5 -84.5t-115 -167t-83 -262q-26 -124 -27.5 -217.5t18 -152.5t60.5 -95.5t92 -50.5t120 -14 q65 0 134.5 10.5t106.5 21.5l37 11q27 -29 39 -88q5 -29 4 -53.5t-5 -40.5l-3 -15q-16 -8 -46.5 -19t-128 -30.5t-198.5 -21.5l-31 -74q109 0 146.5 -54.5t17.5 -146.5q-21 -101 -100.5 -154t-198.5 -53q-56 0 -101 12t-62 24l-17 13q4 32 25 61t49 44q48 -27 119 -27 q117 0 135 88q8 38 -11.5 61t-70.5 23h-80l-23 33l64 160q-231 36 -313.5 244t-12.5 544z" />
<glyph unicode="&#xc8;" horiz-adv-x="1134" d="M37 0l313 1475h846q9 -47 0 -99q-13 -63 -45 -112h-584l-88 -414h482q9 -50 0 -102q-13 -58 -46 -109h-481l-90 -428h604q7 -61 -2 -102q-14 -65 -43 -109h-866zM590 1800q37 43 109.5 71t131.5 21l117 -280q-55 -61 -160 -78z" />
<glyph unicode="&#xc9;" horiz-adv-x="1134" d="M37 0l313 1475h846q9 -47 0 -99q-13 -63 -45 -112h-584l-88 -414h482q9 -50 0 -102q-13 -58 -46 -109h-481l-90 -428h604q7 -61 -2 -102q-14 -65 -43 -109h-866zM643 1616l236 280q62 7 122.5 -21t79.5 -71l-311 -266q-99 17 -127 78z" />
<glyph unicode="&#xca;" horiz-adv-x="1134" d="M37 0l313 1475h846q9 -47 0 -99q-13 -63 -45 -112h-584l-88 -414h482q9 -50 0 -102q-13 -58 -46 -109h-481l-90 -428h604q7 -61 -2 -102q-14 -65 -43 -109h-866zM492 1649l344 241h53l244 -241q-67 -88 -142 -111l-176 129l-227 -127q-68 23 -96 109z" />
<glyph unicode="&#xcb;" horiz-adv-x="1134" d="M37 0l313 1475h846q9 -47 0 -99q-13 -63 -45 -112h-584l-88 -414h482q9 -50 0 -102q-13 -58 -46 -109h-481l-90 -428h604q7 -61 -2 -102q-14 -65 -43 -109h-866zM492 1571l40 198q39 15 115 15q32 0 59 -4t38 -8l10 -3l-41 -198q-43 -15 -115 -15q-34 0 -60.5 4t-35.5 8z M862 1571l41 198q39 15 115 15q32 0 58.5 -4t37.5 -8l10 -3l-41 -198q-42 -15 -114 -15q-34 0 -60.5 4t-36.5 8z" />
<glyph unicode="&#xcc;" horiz-adv-x="598" d="M39 18l305 1438q47 19 133 19q39 0 71.5 -4.5t45.5 -9.5l12 -5l-305 -1438q-51 -18 -135 -18q-42 0 -73.5 4.5t-42.5 9.5zM301 1800q37 43 110 71t132 21l116 -280q-55 -61 -159 -78z" />
<glyph unicode="&#xcd;" horiz-adv-x="598" d="M39 18l305 1438q47 19 133 19q39 0 71.5 -4.5t45.5 -9.5l12 -5l-305 -1438q-51 -18 -135 -18q-42 0 -73.5 4.5t-42.5 9.5zM334 1616l235 280q62 7 123 -21t80 -71l-311 -266q-99 17 -127 78z" />
<glyph unicode="&#xce;" horiz-adv-x="598" d="M39 18l305 1438q47 19 133 19q39 0 71.5 -4.5t45.5 -9.5l12 -5l-305 -1438q-51 -18 -135 -18q-42 0 -73.5 4.5t-42.5 9.5zM197 1649l344 241h53l244 -241q-67 -88 -142 -111l-176 129l-227 -127q-68 23 -96 109z" />
<glyph unicode="&#xcf;" horiz-adv-x="598" d="M39 18l305 1438q47 19 133 19q39 0 71.5 -4.5t45.5 -9.5l12 -5l-305 -1438q-51 -18 -135 -18q-42 0 -73.5 4.5t-42.5 9.5zM201 1567l41 198q38 15 114 15q32 0 59 -4t37 -8l11 -3l-41 -198q-43 -15 -115 -15q-34 0 -60.5 4t-36.5 8zM571 1567l41 198q39 15 115 15 q32 0 59 -4t38 -8l10 -3l-41 -198q-43 -15 -115 -15q-34 0 -60.5 4t-36.5 8z" />
<glyph unicode="&#xd0;" horiz-adv-x="1396" d="M53 643q-3 40 7.5 90t29.5 84h158l139 658h481q288 0 405.5 -190.5t33.5 -577.5q-42 -195 -112 -333.5t-167.5 -219.5t-212.5 -117.5t-260 -36.5h-481l137 643h-158zM381 217h201q64 0 115.5 12.5t104 46.5t93.5 91t78 150.5t63 219.5q28 127 30.5 220.5t-14 150.5 t-55 91t-84.5 46t-110 12h-201l-92 -440h246q4 -35 -7 -86.5t-30 -87.5h-246z" />
<glyph unicode="&#xd1;" horiz-adv-x="1441" d="M39 18l305 1438q60 19 162 19q46 0 84 -4.5t52 -9.5l15 -5l242 -819q20 -67 39.5 -143.5t29.5 -119.5l9 -44h8q21 172 66 381l157 745q41 19 127 19q38 0 67 -4.5t38 -9.5l10 -5l-305 -1438q-54 -18 -158 -18q-45 0 -84 4.5t-55 9.5l-17 4l-243 824q-19 64 -38 139.5 t-28 118.5l-10 43h-8q-19 -162 -64 -375l-159 -750q-43 -18 -127 -18q-36 0 -65 4.5t-39 9.5zM647 1681q3 4 9 11t26 25.5t42.5 32t57.5 25t72 11.5q53 0 95 -16.5t76 -33t69 -16.5q29 0 57 13.5t41 26.5l14 14q30 -15 48 -48t16 -69q-3 -4 -9 -11t-25.5 -25.5t-41.5 -32 t-57 -25t-72 -11.5q-53 0 -95.5 16.5t-77 33t-69.5 16.5q-29 0 -56.5 -13t-40.5 -27l-13 -13q-69 43 -66 116z" />
<glyph unicode="&#xd2;" horiz-adv-x="1388" d="M137 774q42 194 111 333.5t163 224t206.5 124t250.5 39.5q278 0 396 -199.5t34 -586.5q-82 -386 -263 -557.5t-466 -171.5q-282 0 -398.5 202.5t-33.5 591.5zM370 515q-5 -95 8.5 -155t46 -97t75.5 -51.5t102 -14.5q77 0 137 24.5t116 83t100 166.5t77 266q34 159 36 267 t-28 167t-79.5 83t-126.5 24q-75 0 -134.5 -24t-116 -83t-102.5 -167t-80 -267q-26 -127 -31 -222zM698 1796q35 42 105.5 69t128.5 21l112 -270q-56 -59 -153 -76z" />
<glyph unicode="&#xd3;" horiz-adv-x="1388" d="M137 774q42 194 111 333.5t163 224t206.5 124t250.5 39.5q278 0 396 -199.5t34 -586.5q-82 -386 -263 -557.5t-466 -171.5q-282 0 -398.5 202.5t-33.5 591.5zM370 515q-5 -95 8.5 -155t46 -97t75.5 -51.5t102 -14.5q77 0 137 24.5t116 83t100 166.5t77 266q34 159 36 267 t-28 167t-79.5 83t-126.5 24q-75 0 -134.5 -24t-116 -83t-102.5 -167t-80 -267q-26 -127 -31 -222zM791 1649l235 280q62 7 124 -21t81 -71l-313 -266q-94 17 -127 78z" />
<glyph unicode="&#xd4;" horiz-adv-x="1388" d="M137 774q42 194 111 333.5t163 224t206.5 124t250.5 39.5q278 0 396 -199.5t34 -586.5q-82 -386 -263 -557.5t-466 -171.5q-282 0 -398.5 202.5t-33.5 591.5zM370 515q-5 -95 8.5 -155t46 -97t75.5 -51.5t102 -14.5q77 0 137 24.5t116 83t100 166.5t77 266q34 159 36 267 t-28 167t-79.5 83t-126.5 24q-75 0 -134.5 -24t-116 -83t-102.5 -167t-80 -267q-26 -127 -31 -222zM594 1649l336 241h53l252 -241q-67 -89 -141 -111l-176 133l-228 -131q-68 23 -96 109z" />
<glyph unicode="&#xd5;" horiz-adv-x="1388" d="M139 774q42 194 111 333.5t163 224t206.5 124t250.5 39.5q278 0 396 -199.5t34 -586.5q-82 -386 -263 -557.5t-466 -171.5q-282 0 -398.5 202.5t-33.5 591.5zM372 515q-5 -95 8.5 -155t46 -97t75.5 -51.5t102 -14.5q77 0 137 24.5t116 83t100 166.5t77 266q34 159 36 267 t-28 167t-79.5 83t-126.5 24q-75 0 -134.5 -24t-116 -83t-102.5 -167t-80 -267q-26 -127 -31 -222zM614 1688q3 4 8.5 11.5t25 26t41.5 32.5t57.5 26.5t72.5 13.5q67 2 136 -28t108 -29q29 1 57 15t41 28l13 14q31 -13 50 -46t19 -69q-3 -4 -8.5 -11.5t-25 -26t-41.5 -32.5 t-57.5 -26.5t-72.5 -13.5q-53 -2 -127.5 28t-115.5 29q-29 -1 -57 -15t-41 -28l-13 -14q-70 39 -70 115z" />
<glyph unicode="&#xd6;" horiz-adv-x="1388" d="M137 774q42 194 111 333.5t163 224t206.5 124t250.5 39.5q278 0 396 -199.5t34 -586.5q-82 -386 -263 -557.5t-466 -171.5q-282 0 -398.5 202.5t-33.5 591.5zM370 515q-5 -95 8.5 -155t46 -97t75.5 -51.5t102 -14.5q77 0 137 24.5t116 83t100 166.5t77 266q34 159 36 267 t-28 167t-79.5 83t-126.5 24q-75 0 -134.5 -24t-116 -83t-102.5 -167t-80 -267q-26 -127 -31 -222zM604 1612l43 198q37 15 113 15q32 0 59 -3.5t38 -7.5l11 -4l-43 -198q-40 -15 -112 -15q-34 0 -61 3.5t-38 7.5zM975 1612l43 198q36 15 112 15q32 0 59.5 -3.5t38.5 -7.5 l11 -4l-43 -198q-41 -15 -113 -15q-34 0 -61 3.5t-37 7.5z" />
<glyph unicode="&#xd7;" horiz-adv-x="974" d="M53 350l293 242l-190 242q22 36 73 77q22 18 44 32t33 19l11 5l191 -242l293 242q34 -15 67 -56q14 -18 23 -37.5t11 -29.5l3 -10l-293 -242l191 -242q-23 -37 -72 -78q-22 -18 -44.5 -32t-34.5 -18l-11 -5l-188 242l-295 -242q-33 14 -66 55q-15 18 -24.5 37.5 t-11.5 30.5z" />
<glyph unicode="&#xd8;" horiz-adv-x="1388" d="M-23 -16l183 219q-100 211 -23 571q42 194 111 333.5t163 224t206.5 124t250.5 39.5q177 0 289 -80l131 158q49 0 92 -23t68 -57l-176 -213q107 -202 26 -571q-82 -386 -263 -557.5t-466 -171.5q-182 0 -297 86l-133 -164q-114 0 -162 82zM369 457l632 768 q-56 53 -167 53q-75 0 -134.5 -24t-116 -83t-102.5 -167t-80 -267q-35 -162 -32 -280zM430 254q57 -57 172 -57q77 0 137 24.5t116 83t100 166.5t77 266q38 174 35 293z" />
<glyph unicode="&#xd9;" horiz-adv-x="1386" d="M135 516l201 940q47 19 133 19q39 0 71.5 -4.5t45.5 -9.5l12 -5l-209 -969q-28 -131 29.5 -208.5t187.5 -77.5q131 0 216.5 72t113.5 202l209 981q45 19 131 19q38 0 70 -4.5t44 -9.5l13 -5l-207 -979q-104 -497 -614 -497q-248 0 -374 144t-73 392zM682 1800 q37 43 110 71t132 21l116 -280q-55 -61 -159 -78z" />
<glyph unicode="&#xda;" horiz-adv-x="1386" d="M135 516l201 940q47 19 133 19q39 0 71.5 -4.5t45.5 -9.5l12 -5l-209 -969q-28 -131 29.5 -208.5t187.5 -77.5q131 0 216.5 72t113.5 202l209 981q45 19 131 19q38 0 70 -4.5t44 -9.5l13 -5l-207 -979q-104 -497 -614 -497q-248 0 -374 144t-73 392zM752 1626l239 270 q62 7 123 -21t80 -71l-311 -266q-43 8 -79.5 32t-51.5 56z" />
<glyph unicode="&#xdb;" horiz-adv-x="1386" d="M135 516l201 940q47 19 133 19q39 0 71.5 -4.5t45.5 -9.5l12 -5l-209 -969q-28 -131 29.5 -208.5t187.5 -77.5q131 0 216.5 72t113.5 202l209 981q45 19 131 19q38 0 70 -4.5t44 -9.5l13 -5l-207 -979q-104 -497 -614 -497q-248 0 -374 144t-73 392zM590 1649l344 241h53 l244 -241q-67 -89 -141 -111l-177 135l-227 -133q-68 23 -96 109z" />
<glyph unicode="&#xdc;" horiz-adv-x="1386" d="M135 516l201 940q47 19 133 19q39 0 71.5 -4.5t45.5 -9.5l12 -5l-209 -969q-28 -131 29.5 -208.5t187.5 -77.5q131 0 216.5 72t113.5 202l209 981q45 19 131 19q38 0 70 -4.5t44 -9.5l13 -5l-207 -979q-104 -497 -614 -497q-248 0 -374 144t-73 392zM600 1591l41 199 q39 14 115 14q32 0 58.5 -3.5t37.5 -6.5l10 -4l-41 -199q-42 -14 -114 -14q-34 0 -60.5 3.5t-36.5 7.5zM971 1591l41 199q38 14 114 14q32 0 59 -3.5t37 -6.5l11 -4l-41 -199q-43 -14 -115 -14q-34 0 -60.5 3.5t-36.5 7.5z" />
<glyph unicode="&#xdd;" horiz-adv-x="1302" d="M203 1456q60 19 164 19q42 0 73 -4.5t42 -9.5l10 -5l210 -579l461 579q70 19 158 19q37 0 72.5 -4.5t52.5 -9.5l16 -5l-684 -842l-127 -596q-47 -18 -131 -18q-42 0 -74.5 4.5t-44.5 9.5l-12 4l125 590zM707 1616l231 285q62 7 125 -23t82 -74l-309 -276q-43 8 -78.5 32 t-50.5 56z" />
<glyph unicode="&#xde;" horiz-adv-x="1245" d="M39 18l305 1438q47 19 133 19q39 0 71.5 -4.5t45.5 -9.5l12 -5l-53 -248h287q135 0 225.5 -65t123 -174.5t3.5 -243.5q-42 -198 -187.5 -306t-355.5 -108h-287l-61 -293q-51 -18 -135 -18q-42 0 -73.5 4.5t-42.5 9.5zM410 528h249q107 0 176.5 60.5t92.5 171.5t-20 171 t-150 60h-250z" />
<glyph unicode="&#xdf;" horiz-adv-x="1173" d="M6 16l238 1123q42 200 179.5 298.5t354.5 98.5q82 0 147 -19t105.5 -52t66 -78.5t28 -99t-8.5 -111.5q-22 -101 -84 -191q-4 -1 -10.5 -2t-25.5 -7t-37 -14t-40.5 -22t-40.5 -31t-33.5 -42t-21.5 -54q-9 -46 7 -86.5t46.5 -71t66 -68.5t64 -78.5t40 -101.5t-4.5 -137 q-61 -290 -424 -290q-63 0 -120 10t-83 20l-26 10q9 102 90 177q67 -23 139 -23q68 0 117 28t62 91q7 35 -4 68t-33.5 60t-51.5 58t-56.5 62.5t-48.5 73t-28 89t5 111.5q13 59 41.5 106.5t61 73.5t62.5 43.5t50 23.5l20 5q35 68 41 102q14 72 -17.5 118t-105.5 46 q-96 0 -152.5 -47t-78.5 -147l-238 -1123q-49 -16 -133 -16q-40 0 -71 4t-42 8z" />
<glyph unicode="&#xe0;" horiz-adv-x="1136" d="M63 237q-26 133 19 341q26 122 65 214t85.5 150t105.5 93.5t119 49t133 13.5q82 0 142.5 -33t92.5 -88l31 88q31 14 117 14q38 0 69 -4t42 -8l12 -4l-222 -1047q-49 -16 -112 -16q-29 0 -57 3.5t-41 6.5l-13 4l-2 90q-115 -124 -293 -124q-118 0 -192.5 62t-100.5 195z M314.5 366q-1.5 -71 18.5 -109.5t52.5 -53.5t83.5 -15q84 0 145.5 61.5t83.5 160.5l54 247q21 96 -17 164t-119 68q-52 0 -90 -14t-74 -50.5t-64 -106t-50 -175.5t-23.5 -177zM506 1499q38 44 112 74.5t132 23.5l114 -286q-55 -61 -159 -78z" />
<glyph unicode="&#xe1;" horiz-adv-x="1136" d="M63 237q-26 133 19 341q26 122 65 214t85.5 150t105.5 93.5t119 49t133 13.5q82 0 142.5 -33t92.5 -88l31 88q31 14 117 14q38 0 69 -4t42 -8l12 -4l-222 -1047q-49 -16 -112 -16q-29 0 -57 3.5t-41 6.5l-13 4l-2 90q-115 -124 -293 -124q-118 0 -192.5 62t-100.5 195z M314.5 366q-1.5 -71 18.5 -109.5t52.5 -53.5t83.5 -15q84 0 145.5 61.5t83.5 160.5l54 247q21 96 -17 164t-119 68q-52 0 -90 -14t-74 -50.5t-64 -106t-50 -175.5t-23.5 -177zM549 1305l235 280q64 7 125 -21t80 -71l-313 -266q-94 17 -127 78z" />
<glyph unicode="&#xe2;" horiz-adv-x="1136" d="M63 237q-26 133 19 341q26 122 65 214t85.5 150t105.5 93.5t119 49t133 13.5q82 0 142.5 -33t92.5 -88l31 88q31 14 117 14q38 0 69 -4t42 -8l12 -4l-222 -1047q-49 -16 -112 -16q-29 0 -57 3.5t-41 6.5l-13 4l-2 90q-115 -124 -293 -124q-118 0 -192.5 62t-100.5 195z M314.5 366q-1.5 -71 18.5 -109.5t52.5 -53.5t83.5 -15q84 0 145.5 61.5t83.5 160.5l54 247q21 96 -17 164t-119 68q-52 0 -90 -14t-74 -50.5t-64 -106t-50 -175.5t-23.5 -177zM385 1329l322 232h51l254 -232q-64 -85 -140 -108l-170 125l-223 -123q-67 23 -94 106z" />
<glyph unicode="&#xe3;" horiz-adv-x="1136" d="M63 237q-26 133 19 341q26 122 65 214t85.5 150t105.5 93.5t119 49t133 13.5q82 0 142.5 -33t92.5 -88l31 88q31 14 117 14q38 0 69 -4t42 -8l12 -4l-222 -1047q-49 -16 -112 -16q-29 0 -57 3.5t-41 6.5l-13 4l-2 90q-115 -124 -293 -124q-118 0 -192.5 62t-100.5 195z M314.5 366q-1.5 -71 18.5 -109.5t52.5 -53.5t83.5 -15q84 0 145.5 61.5t83.5 160.5l54 247q21 96 -17 164t-119 68q-52 0 -90 -14t-74 -50.5t-64 -106t-50 -175.5t-23.5 -177zM403 1370q3 4 9 11t26 25.5t42.5 32t57.5 25t72 11.5q53 0 95 -16.5t76 -33t69 -16.5 q29 0 57.5 13.5t42.5 26.5l13 13q31 -14 48 -46.5t17 -69.5q-3 -4 -9 -11t-26 -25.5t-42.5 -32t-57.5 -25t-72 -11.5q-53 0 -94.5 16.5t-75.5 33t-69 16.5q-29 0 -57.5 -13.5t-42.5 -27.5l-13 -13q-69 43 -66 117z" />
<glyph unicode="&#xe4;" horiz-adv-x="1136" d="M63 237q-26 133 19 341q26 122 65 214t85.5 150t105.5 93.5t119 49t133 13.5q82 0 142.5 -33t92.5 -88l31 88q31 14 117 14q38 0 69 -4t42 -8l12 -4l-222 -1047q-49 -16 -112 -16q-29 0 -57 3.5t-41 6.5l-13 4l-2 90q-115 -124 -293 -124q-118 0 -192.5 62t-100.5 195z M314.5 366q-1.5 -71 18.5 -109.5t52.5 -53.5t83.5 -15q84 0 145.5 61.5t83.5 160.5l54 247q21 96 -17 164t-119 68q-52 0 -90 -14t-74 -50.5t-64 -106t-50 -175.5t-23.5 -177zM403 1247l43 199q39 14 115 14q32 0 59 -3.5t38 -6.5l10 -4l-43 -199q-41 -14 -113 -14 q-34 0 -61 3.5t-37 7.5zM774 1247l43 199q39 14 115 14q32 0 58.5 -3.5t37.5 -6.5l10 -4l-43 -199q-40 -14 -112 -14q-34 0 -61 3.5t-38 7.5z" />
<glyph unicode="&#xe5;" horiz-adv-x="1136" d="M63 237q-26 133 19 341q26 122 65 214t85.5 150t105.5 93.5t119 49t133 13.5q82 0 142.5 -33t92.5 -88l31 88q31 14 117 14q38 0 69 -4t42 -8l12 -4l-222 -1047q-49 -16 -112 -16q-29 0 -57 3.5t-41 6.5l-13 4l-2 90q-115 -124 -293 -124q-118 0 -192.5 62t-100.5 195z M314.5 366q-1.5 -71 18.5 -109.5t52.5 -53.5t83.5 -15q84 0 145.5 61.5t83.5 160.5l54 247q21 96 -17 164t-119 68q-52 0 -90 -14t-74 -50.5t-64 -106t-50 -175.5t-23.5 -177zM481 1415q19 102 104.5 160.5t188.5 58.5q102 0 167 -58t46 -161q-20 -105 -105 -165t-194 -60 t-168 60.5t-39 164.5zM629 1415q-8 -39 13 -66.5t69 -27.5q51 0 85 28t42 66q8 39 -14.5 65.5t-73.5 26.5q-48 0 -80.5 -27t-40.5 -65z" />
<glyph unicode="&#xe6;" horiz-adv-x="1595" d="M52 299q-3 111 28 268q32 152 83 258.5t115.5 164.5t133 83t149.5 25q86 0 132.5 -28t78.5 -93l27 86q30 16 116 16q36 0 61.5 -4t32.5 -8l7 -4l-17 -78q118 113 273 113q162 0 230.5 -108t25.5 -316q-11 -53 -28 -103.5t-28 -74.5l-12 -25h-567q-19 -151 27.5 -216 t154.5 -65q58 0 117.5 12t89.5 24l31 12q49 -55 35 -168q-3 -3 -9.5 -8.5t-30.5 -20t-53 -25t-78 -19.5t-104 -9q-189 0 -260 118l-18 -90q-42 -16 -101 -16q-29 0 -54 4t-36 8l-10 4l2 88q-60 -68 -117.5 -96t-159.5 -28q-78 0 -134.5 33t-93 104t-39.5 182zM314 363 q-2 -71 15 -108t43.5 -52t67.5 -15q83 0 136.5 60t74.5 162l58 266q18 98 -11.5 155.5t-109.5 57.5q-41 0 -74 -14.5t-66 -51.5t-60.5 -108t-49.5 -176t-24 -176zM930 647h342q10 29 16 58q42 192 -114 192q-79 0 -140.5 -57.5t-103.5 -192.5z" />
<glyph unicode="&#xe7;" horiz-adv-x="905" d="M76 573q58 273 194 399t371 126q59 0 108.5 -5.5t77.5 -13.5t48 -16t27 -13l7 -6q-25 -120 -104 -182q-64 27 -166 27q-130 0 -202 -82t-111 -268q-38 -183 2.5 -262.5t171.5 -79.5q46 0 93.5 7t72.5 14l24 7q26 -29 36.5 -80.5t0.5 -103.5q-9 -5 -28 -13.5t-87 -25 t-147 -20.5l-33 -86q109 0 146.5 -54.5t17.5 -146.5q-21 -101 -100.5 -154t-198.5 -53q-56 0 -101 12t-62 24l-17 13q4 32 24.5 61t48.5 44q48 -27 119 -27q117 0 135 88q8 38 -11.5 61t-70.5 23h-79l-23 33l66 166q-183 26 -244 179t-6 408z" />
<glyph unicode="&#xe8;" horiz-adv-x="1042" d="M55.5 386q1.5 91 24.5 198q30 142 84 243t128 159.5t160 85t191 26.5q86 0 154.5 -25t117 -77t64 -132t-5.5 -190q-13 -58 -29 -112t-26 -78l-9 -25h-592q-5 -55 -5 -95.5t12 -69.5t27.5 -48t42 -30t54.5 -15t66 -4q61 0 122 12.5t92 24.5l30 12q27 -31 38.5 -82.5 t2.5 -104.5q-6 -3 -16.5 -8.5t-47 -19t-76.5 -24t-101.5 -19t-125.5 -8.5q-98 0 -171.5 29t-118 82t-66.5 128.5t-20.5 166.5zM358 637h371q2 7 9.5 31t9.5 37q16 92 -15 142t-123 50q-93 0 -152 -59.5t-100 -200.5zM461 1460q38 44 104.5 71.5t124.5 20.5l125 -280 q-56 -62 -156 -78z" />
<glyph unicode="&#xe9;" horiz-adv-x="1042" d="M55.5 386q1.5 91 24.5 198q30 142 84 243t128 159.5t160 85t191 26.5q86 0 154.5 -25t117 -77t64 -132t-5.5 -190q-13 -58 -29 -112t-26 -78l-9 -25h-592q-5 -55 -5 -95.5t12 -69.5t27.5 -48t42 -30t54.5 -15t66 -4q61 0 122 12.5t92 24.5l30 12q27 -31 38.5 -82.5 t2.5 -104.5q-6 -3 -16.5 -8.5t-47 -19t-76.5 -24t-101.5 -19t-125.5 -8.5q-98 0 -171.5 29t-118 82t-66.5 128.5t-20.5 166.5zM358 637h371q2 7 9.5 31t9.5 37q16 92 -15 142t-123 50q-93 0 -152 -59.5t-100 -200.5zM496 1290l235 281q62 7 124 -21t81 -71l-313 -267 q-94 17 -127 78z" />
<glyph unicode="&#xea;" horiz-adv-x="1042" d="M55.5 386q1.5 91 24.5 198q30 142 84 243t128 159.5t160 85t191 26.5q86 0 154.5 -25t117 -77t64 -132t-5.5 -190q-13 -58 -29 -112t-26 -78l-9 -25h-592q-5 -55 -5 -95.5t12 -69.5t27.5 -48t42 -30t54.5 -15t66 -4q61 0 122 12.5t92 24.5l30 12q27 -31 38.5 -82.5 t2.5 -104.5q-6 -3 -16.5 -8.5t-47 -19t-76.5 -24t-101.5 -19t-125.5 -8.5q-98 0 -171.5 29t-118 82t-66.5 128.5t-20.5 166.5zM358 637h371q2 7 9.5 31t9.5 37q16 92 -15 142t-123 50q-93 0 -152 -59.5t-100 -200.5zM360 1321l338 235h52l237 -235q-66 -88 -139 -109 l-170 125l-223 -123q-68 23 -95 107z" />
<glyph unicode="&#xeb;" horiz-adv-x="1042" d="M55.5 386q1.5 91 24.5 198q30 142 84 243t128 159.5t160 85t191 26.5q86 0 154.5 -25t117 -77t64 -132t-5.5 -190q-13 -58 -29 -112t-26 -78l-9 -25h-592q-5 -55 -5 -95.5t12 -69.5t27.5 -48t42 -30t54.5 -15t66 -4q61 0 122 12.5t92 24.5l30 12q27 -31 38.5 -82.5 t2.5 -104.5q-6 -3 -16.5 -8.5t-47 -19t-76.5 -24t-101.5 -19t-125.5 -8.5q-98 0 -171.5 29t-118 82t-66.5 128.5t-20.5 166.5zM358 637h371q2 7 9.5 31t9.5 37q16 92 -15 142t-123 50q-93 0 -152 -59.5t-100 -200.5zM373 1262l43 198q38 15 114 15q32 0 59 -3.5t37 -7.5 l11 -4l-43 -198q-41 -15 -113 -15q-34 0 -61 3.5t-37 7.5zM743 1262l43 198q39 15 115 15q32 0 59 -3.5t38 -7.5l10 -4l-43 -198q-41 -15 -113 -15q-34 0 -61 3.5t-37 7.5z" />
<glyph unicode="&#xec;" horiz-adv-x="532" d="M8 16l221 1045q43 16 133 16q37 0 68.5 -4t43.5 -8l13 -4l-221 -1045q-49 -16 -133 -16q-40 0 -71 4t-42 8zM193 1503q37 43 110.5 71t132.5 21l115 -280q-55 -61 -160 -78z" />
<glyph unicode="&#xed;" horiz-adv-x="532" d="M8 16l221 1045q43 16 133 16q37 0 68.5 -4t43.5 -8l13 -4l-221 -1045q-49 -16 -133 -16q-40 0 -71 4t-42 8zM256 1311l236 280q62 7 123.5 -21t80.5 -71l-313 -266q-94 17 -127 78z" />
<glyph unicode="&#xee;" horiz-adv-x="532" d="M8 16l221 1045q43 16 133 16q37 0 68.5 -4t43.5 -8l13 -4l-221 -1045q-49 -16 -133 -16q-40 0 -71 4t-42 8zM106 1341l338 236h52l237 -236q-65 -87 -139 -108l-170 125l-223 -123q-68 23 -95 106z" />
<glyph unicode="&#xef;" horiz-adv-x="532" d="M8 16l221 1045q43 16 133 16q37 0 68.5 -4t43.5 -8l13 -4l-221 -1045q-49 -16 -133 -16q-40 0 -71 4t-42 8zM96 1247l43 199q39 14 115 14q32 0 58.5 -3.5t37.5 -6.5l10 -4l-43 -199q-40 -14 -112 -14q-34 0 -61 3.5t-38 7.5zM467 1247l43 199q39 14 115 14 q32 0 58.5 -3.5t36.5 -6.5l11 -4l-43 -199q-41 -14 -113 -14q-34 0 -61 3.5t-37 7.5z" />
<glyph unicode="&#xf0;" horiz-adv-x="1140" d="M74 551q55 265 181.5 382.5t319.5 117.5q73 0 149.5 -24t125.5 -73q-9 78 -45.5 151.5t-89.5 123.5l-213 -119q-55 58 -58 131l140 76q-75 35 -166 59q13 104 86 160q163 -23 289 -102l165 94q25 -23 39.5 -58.5t16.5 -72.5l-105 -60q72 -81 112.5 -185t48 -236.5 t-27.5 -286.5q-39 -187 -95 -314t-132.5 -200t-166 -104t-208.5 -31q-226 0 -326.5 143t-39.5 428zM330 516q-80 -340 131 -340q50 0 88.5 14.5t75.5 50.5t65.5 104.5t50.5 170.5q17 84 20 144.5t-6 98t-31 59.5t-50 30t-68 8q-67 0 -113.5 -26t-88.5 -102t-74 -212z" />
<glyph unicode="&#xf1;" d="M6 16l221 1045q37 16 127 16q37 0 66 -4t39 -8l10 -4l-2 -78q69 60 138 87.5t153 27.5q158 0 227.5 -96t34.5 -267l-154 -719q-49 -16 -133 -16q-40 0 -71.5 4t-42.5 8l-11 4l154 725q30 148 -133 148q-91 0 -199 -90l-166 -783q-49 -16 -133 -16q-40 0 -71 4t-42 8z M389 1362q3 4 9 11t26 25t42.5 32t57.5 25t72 11q42 0 78 -10t57 -22.5t49 -22.5t56 -10q29 0 57 13.5t41 26.5l14 13q31 -15 49.5 -48t16.5 -69q-3 -4 -9 -11t-25.5 -25t-41.5 -32t-57 -25t-72 -11q-53 0 -95.5 16.5t-77 32.5t-69.5 16q-29 0 -57 -13t-42 -27l-13 -13 q-69 43 -66 117z" />
<glyph unicode="&#xf2;" horiz-adv-x="1114" d="M78 569q32 150 83.5 253.5t124 163.5t158.5 86t199 26q226 0 322.5 -149t33.5 -445q-32 -150 -82.5 -253t-122.5 -162t-157.5 -84t-198.5 -25q-225 0 -323.5 147t-36.5 442zM309.5 360q-0.5 -73 20 -112t52 -55.5t79.5 -16.5q49 0 88 16.5t75.5 55.5t66.5 112t52 179 t22.5 179t-20 112t-52 55t-79.5 16q-50 0 -89 -16t-75.5 -55.5t-66 -111.5t-51.5 -179q-22 -106 -22.5 -179zM453 1458q37 43 109.5 71t131.5 21l117 -280q-55 -61 -160 -78z" />
<glyph unicode="&#xf3;" horiz-adv-x="1114" d="M78 569q32 150 83.5 253.5t124 163.5t158.5 86t199 26q226 0 322.5 -149t33.5 -445q-32 -150 -82.5 -253t-122.5 -162t-157.5 -84t-198.5 -25q-225 0 -323.5 147t-36.5 442zM309.5 360q-0.5 -73 20 -112t52 -55.5t79.5 -16.5q49 0 88 16.5t75.5 55.5t66.5 112t52 179 t22.5 179t-20 112t-52 55t-79.5 16q-50 0 -89 -16t-75.5 -55.5t-66 -111.5t-51.5 -179q-22 -106 -22.5 -179zM510 1290l235 281q62 7 124 -21t81 -71l-313 -267q-94 17 -127 78z" />
<glyph unicode="&#xf4;" horiz-adv-x="1114" d="M78 569q32 150 83.5 253.5t124 163.5t158.5 86t199 26q226 0 322.5 -149t33.5 -445q-32 -150 -82.5 -253t-122.5 -162t-157.5 -84t-198.5 -25q-225 0 -323.5 147t-36.5 442zM309.5 360q-0.5 -73 20 -112t52 -55.5t79.5 -16.5q49 0 88 16.5t75.5 55.5t66.5 112t52 179 t22.5 179t-20 112t-52 55t-79.5 16q-50 0 -89 -16t-75.5 -55.5t-66 -111.5t-51.5 -179q-22 -106 -22.5 -179zM362 1321l318 227h51l258 -227q-66 -88 -139 -109l-170 125l-223 -123q-68 23 -95 107z" />
<glyph unicode="&#xf5;" horiz-adv-x="1114" d="M78 569q32 150 83.5 253.5t124 163.5t158.5 86t199 26q226 0 322.5 -149t33.5 -445q-32 -150 -82.5 -253t-122.5 -162t-157.5 -84t-198.5 -25q-225 0 -323.5 147t-36.5 442zM309.5 360q-0.5 -73 20 -112t52 -55.5t79.5 -16.5q49 0 88 16.5t75.5 55.5t66.5 112t52 179 t22.5 179t-20 112t-52 55t-79.5 16q-50 0 -89 -16t-75.5 -55.5t-66 -111.5t-51.5 -179q-22 -106 -22.5 -179zM365 1362q3 4 9 11t26 25t42 32t57 25t72 11q42 0 78 -10t57 -22.5t49 -22.5t56 -10q29 0 57.5 13.5t41.5 26.5l14 13q31 -15 49 -48t16 -69q-3 -4 -9 -11t-26 -25 t-42.5 -32t-57.5 -25t-72 -11q-53 0 -94.5 16.5t-75.5 32.5t-69 16q-29 0 -57.5 -13t-41.5 -27l-14 -13q-68 42 -65 117z" />
<glyph unicode="&#xf6;" horiz-adv-x="1114" d="M78 569q32 150 83.5 253.5t124 163.5t158.5 86t199 26q226 0 322.5 -149t33.5 -445q-32 -150 -82.5 -253t-122.5 -162t-157.5 -84t-198.5 -25q-225 0 -323.5 147t-36.5 442zM309.5 360q-0.5 -73 20 -112t52 -55.5t79.5 -16.5q49 0 88 16.5t75.5 55.5t66.5 112t52 179 t22.5 179t-20 112t-52 55t-79.5 16q-50 0 -89 -16t-75.5 -55.5t-66 -111.5t-51.5 -179q-22 -106 -22.5 -179zM379 1247l43 199q39 14 115 14q32 0 58.5 -3.5t36.5 -6.5l11 -4l-43 -199q-41 -14 -113 -14q-34 0 -61 3.5t-37 7.5zM750 1247l43 199q38 14 114 14 q32 0 58.5 -3.5t37.5 -6.5l11 -4l-43 -199q-41 -14 -113 -14q-34 0 -61 3.5t-37 7.5z" />
<glyph unicode="&#xf7;" horiz-adv-x="1073" d="M78 500q-6 37 6 94q5 25 13.5 48.5t14.5 34.5l5 11h862q8 -37 -4 -94q-5 -25 -14 -48.5t-15 -34.5l-6 -11h-862zM305 143l49 236q43 16 133 16q37 0 68.5 -4t44.5 -8l12 -4l-49 -236q-49 -16 -133 -16q-40 0 -71 4t-43 8zM446 809l50 235q43 17 133 17q37 0 68.5 -4.5 t44.5 -8.5l12 -4l-49 -235q-50 -16 -134 -16q-40 0 -71 4t-42 8z" />
<glyph unicode="&#xf8;" horiz-adv-x="1114" d="M-33 -35l142 172q-90 152 -31 432q32 150 83.5 253.5t124 163.5t158.5 86t199 26q133 0 219 -51l107 129q38 0 73 -20t56 -48l-133 -160q96 -154 34 -444q-32 -150 -82.5 -253t-122.5 -162t-157.5 -84t-198.5 -25q-136 0 -227 55l-113 -137q-90 0 -131 67zM309 377 l408 493q-36 31 -103 31q-50 0 -89 -16t-75.5 -55.5t-66 -111.5t-51.5 -179q-20 -89 -23 -162zM356 209q36 -33 105 -33q49 0 88 16.5t75.5 55.5t66.5 112t52 179q20 96 23 168z" />
<glyph unicode="&#xf9;" d="M57.5 206.5q-8.5 66.5 10.5 141.5l151 713q49 16 133 16q40 0 71.5 -4t42.5 -8l11 -4l-153 -725q-30 -148 133 -148q54 0 108.5 26t89.5 75l166 772q49 16 133 16q40 0 71.5 -4t42.5 -8l11 -4l-221 -1045q-43 -16 -133 -16q-35 0 -62 4t-37 8l-10 4l7 86 q-110 -122 -291 -122q-87 0 -148.5 29.5t-89.5 80t-36.5 117zM461 1479q37 43 109.5 71t131.5 21l117 -281q-55 -61 -160 -78z" />
<glyph unicode="&#xfa;" d="M57.5 206.5q-8.5 66.5 10.5 141.5l151 713q49 16 133 16q40 0 71.5 -4t42.5 -8l11 -4l-153 -725q-30 -148 133 -148q54 0 108.5 26t89.5 75l166 772q49 16 133 16q40 0 71.5 -4t42.5 -8l11 -4l-221 -1045q-43 -16 -133 -16q-35 0 -62 4t-37 8l-10 4l7 86 q-110 -122 -291 -122q-87 0 -148.5 29.5t-89.5 80t-36.5 117zM528 1290l236 281q62 7 124 -21t81 -71l-314 -267q-94 17 -127 78z" />
<glyph unicode="&#xfb;" d="M57.5 206.5q-8.5 66.5 10.5 141.5l151 713q49 16 133 16q40 0 71.5 -4t42.5 -8l11 -4l-153 -725q-30 -148 133 -148q54 0 108.5 26t89.5 75l166 772q49 16 133 16q40 0 71.5 -4t42.5 -8l11 -4l-221 -1045q-43 -16 -133 -16q-35 0 -62 4t-37 8l-10 4l7 86 q-110 -122 -291 -122q-87 0 -148.5 29.5t-89.5 80t-36.5 117zM393 1325l330 223h51l246 -223q-65 -87 -139 -108l-170 124l-224 -122q-67 23 -94 106z" />
<glyph unicode="&#xfc;" d="M57.5 206.5q-8.5 66.5 10.5 141.5l151 713q49 16 133 16q40 0 71.5 -4t42.5 -8l11 -4l-153 -725q-30 -148 133 -148q54 0 108.5 26t89.5 75l166 772q49 16 133 16q40 0 71.5 -4t42.5 -8l11 -4l-221 -1045q-43 -16 -133 -16q-35 0 -62 4t-37 8l-10 4l7 86 q-110 -122 -291 -122q-87 0 -148.5 29.5t-89.5 80t-36.5 117zM399 1247l43 199q39 14 115 14q32 0 59 -3.5t38 -6.5l10 -4l-43 -199q-41 -14 -113 -14q-34 0 -61 3.5t-37 7.5zM770 1247l43 199q39 14 115 14q32 0 58.5 -3.5t37.5 -6.5l10 -4l-43 -199q-40 -14 -112 -14 q-34 0 -61 3.5t-38 7.5z" />
<glyph unicode="&#xfd;" d="M-59 -428q14 51 42 96t64 72q10 -5 28 -13t75.5 -21t115.5 -13q51 0 89.5 7t79 28.5t70 59.5t56.5 102t45 153l6 25q-64 -49 -125.5 -68.5t-146.5 -19.5q-168 0 -237 100.5t-35 255.5l153 725q49 16 133 16q40 0 71.5 -4t42.5 -8l11 -4l-153 -725q-30 -148 133 -148 q102 0 194 76l170 797q49 16 133 16q40 0 71.5 -4t42.5 -8l11 -4l-217 -1018q-62 -294 -208 -424.5t-396 -130.5q-64 0 -120.5 8.5t-91.5 21t-60.5 25t-35.5 21.5zM547 1311l235 280q62 7 124 -21t81 -71l-313 -266q-94 17 -127 78z" />
<glyph unicode="&#xfe;" horiz-adv-x="1140" d="M-92 -442l418 1962q43 16 129 16q38 0 70.5 -4t45.5 -8l13 -4l-113 -529q110 107 289 107q84 0 145.5 -33.5t100.5 -105t43 -183t-27 -268.5q-32 -153 -80.5 -258t-112.5 -163t-135 -82.5t-162 -24.5q-85 0 -153.5 27.5t-99.5 78.5l-113 -528q-49 -17 -135 -17 q-38 0 -69 4.5t-42 8.5zM346 410q-21 -98 16.5 -160t122.5 -62q52 0 90 14.5t74 52t64.5 108t50.5 176.5q18 85 22 147t-4 101t-29.5 62t-50 31.5t-69.5 8.5q-85 0 -147.5 -61t-84.5 -160z" />
<glyph unicode="&#xff;" d="M-59 -428q14 51 42 96t64 72q10 -5 28 -13t75.5 -21t115.5 -13q51 0 89.5 7t79 28.5t70 59.5t56.5 102t45 153l6 25q-64 -49 -125.5 -68.5t-146.5 -19.5q-168 0 -237 100.5t-35 255.5l153 725q49 16 133 16q40 0 71.5 -4t42.5 -8l11 -4l-153 -725q-30 -148 133 -148 q102 0 194 76l170 797q49 16 133 16q40 0 71.5 -4t42.5 -8l11 -4l-217 -1018q-62 -294 -208 -424.5t-396 -130.5q-64 0 -120.5 8.5t-91.5 21t-60.5 25t-35.5 21.5zM393 1247l43 199q39 14 115 14q32 0 58.5 -3.5t36.5 -6.5l11 -4l-43 -199q-40 -14 -112 -14q-34 0 -61 3.5 t-37 7.5zM764 1247l43 199q39 14 115 14q32 0 58.5 -3.5t37.5 -6.5l10 -4l-43 -199q-41 -14 -113 -14q-34 0 -61 3.5t-37 7.5z" />
<glyph unicode="&#x152;" horiz-adv-x="1794" d="M139 768q42 196 112.5 337t167.5 226t213 124.5t259 39.5q100 0 176 -20h791q9 -49 -3 -105q-12 -54 -43 -106h-522l-88 -414h420q9 -52 -2 -105q-8 -48 -43 -106h-420l-90 -428h543q7 -64 -2 -107q-9 -42 -43 -104h-813q-95 -20 -183 -20q-284 0 -398 200.5t-32 587.5z M369.5 514q-4.5 -95 10 -155t49 -96.5t79 -51t106.5 -14.5q122 0 220 41l210 999q-83 41 -198 41q-78 0 -140 -24.5t-120.5 -83.5t-104.5 -167t-80 -266q-27 -128 -31.5 -223z" />
<glyph unicode="&#x153;" horiz-adv-x="1646" d="M78 571q63 282 197 404.5t356 122.5q93 0 176 -43.5t117 -118.5q152 162 329 162q197 0 284 -105t42 -319q-13 -58 -30 -112t-27 -78l-11 -25h-575q-20 -153 21.5 -214t152.5 -61q61 0 123.5 12t94.5 24l32 11q47 -53 37 -168q-5 -3 -15.5 -9t-45.5 -20t-74.5 -25 t-102.5 -20t-129 -9q-194 0 -270 149q-140 -149 -340 -149q-224 0 -316 147.5t-26 443.5zM311 390q-3 -64 6 -104.5t30.5 -65.5t49 -34.5t64.5 -9.5q66 0 111 29.5t83 110t68 223.5q23 107 26 179t-13.5 111.5t-45.5 55.5t-76 16q-50 0 -89 -16t-75.5 -55.5t-66 -111.5 t-51.5 -179q-18 -85 -21 -149zM975 637h346q1 3 8.5 28.5t9.5 39.5q42 192 -129 192q-80 0 -136 -60t-99 -200z" />
<glyph unicode="&#x178;" horiz-adv-x="1302" d="M203 1456q60 19 164 19q42 0 73 -4.5t42 -9.5l10 -5l210 -579l461 579q70 19 158 19q37 0 72.5 -4.5t52.5 -9.5l16 -5l-684 -842l-127 -596q-47 -18 -131 -18q-42 0 -74.5 4.5t-44.5 9.5l-12 4l125 590zM557 1573l43 199q37 14 113 14q32 0 59 -3.5t38 -6.5l11 -4 l-43 -199q-40 -14 -112 -14q-34 0 -61 3.5t-37 7.5zM928 1573l43 199q36 14 112 14q32 0 59.5 -3.5t38.5 -6.5l11 -4l-43 -199q-41 -14 -113 -14q-34 0 -61 3.5t-37 7.5z" />
<glyph unicode="&#x2c6;" horiz-adv-x="811" d="M39 1260l344 241h53l244 -241q-67 -89 -143 -111l-175 129l-229 -127q-66 22 -94 109z" />
<glyph unicode="&#x2dc;" horiz-adv-x="669" d="M4 1395l11 11t31 25t49 32t62 25t74 11q53 0 90 -16.5t66 -32.5t64 -16q29 0 56.5 13t40.5 27l13 13q31 -15 49.5 -48t16.5 -69q-4 -4 -11.5 -11t-31 -25t-48.5 -32t-62.5 -25t-74.5 -11q-42 0 -74.5 10t-49.5 22.5t-42 22.5t-53 10q-29 0 -56.5 -13.5t-40.5 -26.5 l-13 -13q-72 44 -66 117z" />
<glyph unicode="&#x2000;" horiz-adv-x="965" />
<glyph unicode="&#x2001;" horiz-adv-x="1930" />
<glyph unicode="&#x2002;" horiz-adv-x="965" />
<glyph unicode="&#x2003;" horiz-adv-x="1930" />
<glyph unicode="&#x2004;" horiz-adv-x="643" />
<glyph unicode="&#x2005;" horiz-adv-x="482" />
<glyph unicode="&#x2006;" horiz-adv-x="321" />
<glyph unicode="&#x2007;" horiz-adv-x="321" />
<glyph unicode="&#x2008;" horiz-adv-x="241" />
<glyph unicode="&#x2009;" horiz-adv-x="386" />
<glyph unicode="&#x200a;" horiz-adv-x="107" />
<glyph unicode="&#x2010;" horiz-adv-x="741" d="M119 500q-6 37 6 94q5 25 13.5 48.5t13.5 34.5l6 11h450q8 -37 -4 -94q-5 -25 -14 -48.5t-15 -34.5l-6 -11h-450z" />
<glyph unicode="&#x2011;" horiz-adv-x="741" d="M119 500q-6 37 6 94q5 25 13.5 48.5t13.5 34.5l6 11h450q8 -37 -4 -94q-5 -25 -14 -48.5t-15 -34.5l-6 -11h-450z" />
<glyph unicode="&#x2012;" horiz-adv-x="741" d="M119 500q-6 37 6 94q5 25 13.5 48.5t13.5 34.5l6 11h450q8 -37 -4 -94q-5 -25 -14 -48.5t-15 -34.5l-6 -11h-450z" />
<glyph unicode="&#x2013;" horiz-adv-x="1165" d="M125 500q-6 37 6 94q5 25 13.5 48.5t13.5 34.5l6 11h860q8 -37 -4 -94q-5 -25 -14 -48.5t-15 -34.5l-6 -11h-860z" />
<glyph unicode="&#x2014;" horiz-adv-x="1677" d="M125 500q-6 37 6 94q5 25 13.5 48.5t13.5 34.5l6 11h1372q8 -37 -4 -94q-5 -25 -14 -48.5t-15 -34.5l-6 -11h-1372z" />
<glyph unicode="&#x2018;" horiz-adv-x="483" d="M174 942l33 154q15 71 45.5 136t64 107t65 74.5t51.5 46.5l20 15l77 -62q-10 -9 -25 -26t-49.5 -74t-52.5 -121q24 -2 43.5 -5.5t27.5 -6.5l7 -2l-49 -236q-43 -16 -133 -16q-37 0 -68.5 4t-44.5 8z" />
<glyph unicode="&#x2019;" horiz-adv-x="468" d="M188 987q10 9 25 25.5t49 73t51 120.5q-24 2 -42.5 6t-25.5 8l-7 3l49 235q43 17 133 17q37 0 68.5 -4.5t43.5 -8.5l13 -4l-33 -153q-15 -71 -45.5 -136t-64 -107t-65 -74.5t-51.5 -47.5l-20 -14z" />
<glyph unicode="&#x201a;" horiz-adv-x="497" d="M-55 -219q10 9 25 25.5t49 73.5t51 120q-24 2 -43 6t-26 7l-7 3l49 236q43 16 133 16q37 0 68.5 -4t43.5 -8l13 -4l-33 -154q-15 -71 -45.5 -136t-64 -107t-64.5 -74.5t-51 -46.5l-20 -15z" />
<glyph unicode="&#x201c;" horiz-adv-x="811" d="M174 942l33 154q15 71 45.5 136t64 107t65 74.5t51.5 46.5l20 15l77 -62q-10 -9 -25 -26t-49.5 -74t-52.5 -121q24 -2 43.5 -5.5t27.5 -6.5l7 -2l-49 -236q-43 -16 -133 -16q-37 0 -68.5 4t-44.5 8zM502 942l33 154q15 71 45.5 136t64 107t64.5 74.5t51 46.5l20 15 l78 -62q-10 -9 -25 -26t-49.5 -74t-52.5 -121q24 -2 43.5 -5.5t27.5 -6.5l7 -2l-49 -236q-43 -16 -133 -16q-37 0 -68.5 4t-44.5 8z" />
<glyph unicode="&#x201d;" horiz-adv-x="796" d="M188 987q10 9 25 25.5t49 73t51 120.5q-24 2 -42.5 6t-25.5 8l-7 3l49 235q43 17 133 17q37 0 68.5 -4.5t43.5 -8.5l13 -4l-33 -153q-15 -71 -45.5 -136t-64 -107t-65 -74.5t-51.5 -47.5l-20 -14zM516 987q10 9 25 25.5t49 73t51 120.5q-24 2 -43 6t-26 8l-7 3l49 235 q44 17 134 17q37 0 68 -4.5t44 -8.5l12 -4l-32 -153q-15 -71 -45.5 -136t-64 -107t-65 -74.5t-51.5 -47.5l-20 -14z" />
<glyph unicode="&#x201e;" horiz-adv-x="825" d="M-55 -219q10 9 25 25.5t49 73.5t51 120q-24 2 -43 6t-26 7l-7 3l49 236q43 16 133 16q37 0 68.5 -4t43.5 -8l13 -4l-33 -154q-15 -71 -45.5 -136t-64 -107t-64.5 -74.5t-51 -46.5l-20 -15zM272 -219q10 9 25 25.5t49 73.5t51 120q-24 2 -43 6t-26 7l-6 3l49 236 q43 16 133 16q37 0 68.5 -4t43.5 -8l13 -4l-33 -154q-15 -71 -45.5 -136t-64 -107t-65 -74.5t-51.5 -46.5l-20 -15z" />
<glyph unicode="&#x2022;" horiz-adv-x="739" d="M143 578q20 95 94.5 154t168.5 59q92 0 139.5 -59t27.5 -154q-20 -94 -93 -152.5t-165 -58.5q-94 0 -143 58.5t-29 152.5z" />
<glyph unicode="&#x2026;" horiz-adv-x="1425" d="M-6 16l49 236q43 16 133 16q37 0 68.5 -4t43.5 -8l13 -4l-49 -236q-49 -16 -133 -16q-40 0 -71 4t-42 8zM459 16l49 236q43 16 133 16q37 0 68.5 -4t44.5 -8l12 -4l-49 -236q-49 -16 -133 -16q-40 0 -71 4t-43 8zM920 16l49 236q43 16 133 16q37 0 68.5 -4t43.5 -8l13 -4 l-49 -236q-50 -16 -134 -16q-40 0 -71 4t-42 8z" />
<glyph unicode="&#x202f;" horiz-adv-x="386" />
<glyph unicode="&#x2039;" horiz-adv-x="690" d="M63 438q-9 39 5 105q7 32 18 61t18 42l7 13l493 383q49 -47 53 -149l-362 -342l217 -340q-46 -101 -117 -150z" />
<glyph unicode="&#x203a;" horiz-adv-x="688" d="M2 211l360 340l-215 342q40 95 115 149l330 -383q10 -44 -6 -116q-6 -29 -16.5 -55.5t-17.5 -37.5l-7 -12l-492 -377q-51 51 -51 150z" />
<glyph unicode="&#x205f;" horiz-adv-x="482" />
<glyph unicode="&#x20ac;" horiz-adv-x="1212" d="M49 444q-2 35 16 81t46 77h127q3 23 16 84q11 54 20 86h-155q-2 36 16 82t45 76h146q191 463 635 463q90 0 164 -17t103 -34l29 -17q-23 -114 -110 -178q-90 39 -203 39q-115 0 -204.5 -58.5t-153.5 -197.5h473q3 -35 -15.5 -81t-46.5 -77h-467q-10 -36 -20 -88 q-13 -61 -16 -82h411q3 -35 -15 -81t-46 -77h-363q3 -140 68.5 -197t183.5 -57q57 0 117 10t92 20l31 9q60 -49 33 -182q-15 -8 -42.5 -19t-117 -29.5t-184.5 -18.5q-223 0 -334 117.5t-105 346.5h-174z" />
<glyph unicode="&#x2122;" horiz-adv-x="1255" d="M225 1391q0 34 2 41q3 18 17 43h415q4 -12 0 -41q-7 -23 -18 -43h-154l-104 -498q-20 -8 -55 -8q-16 0 -28.5 2t-16.5 4l-4 2l104 498h-158zM621 893l120 573q27 9 66 9q26 0 59 -9l45 -149q26 -94 35 -162q7 14 98 148l111 163q41 9 70 9q17 0 33.5 -2.5t23.5 -4.5l8 -2 l-121 -573q-20 -8 -53 -8q-16 0 -28.5 2t-17.5 4l-5 2l47 227q38 181 51 223q-48 -80 -84 -133l-114 -161q-18 -7 -45 -7q-12 0 -22 2t-14 4l-5 1l-43 161q-19 66 -31 133q-3 -54 -41 -223l-47 -227q-20 -8 -51 -8q-13 0 -24 2t-16 4z" />
<glyph unicode="&#x25fc;" horiz-adv-x="1075" d="M0 0v1075h1075v-1075h-1075z" />
</font>
</defs>
</svg>
