<?xml version="1.0" standalone="no"?>
<!DOCTYPE svg PUBLIC "-//W3C//DTD SVG 1.1//EN" "http://www.w3.org/Graphics/SVG/1.1/DTD/svg11.dtd" >
<svg xmlns="http://www.w3.org/2000/svg">
<metadata></metadata>
<defs>
<font id="globerbold" horiz-adv-x="1363" >
<font-face units-per-em="2048" ascent="1536" descent="-512" />
<missing-glyph horiz-adv-x="440" />
<glyph unicode="&#xfb01;" horiz-adv-x="1204" d="M61 985q0 24 3.5 47t6.5 34l3 11h131v123q0 160 101.5 248t297.5 88q122 0 234 -17.5t164 -34.5l51 -18q-6 -104 -68 -178q-16 5 -46 12.5t-125 20t-193 12.5q-158 0 -158 -123v-133h475q37 0 69.5 -4t46.5 -8l13 -4v-1045q-45 -16 -129 -16q-40 0 -72 4t-44 8l-13 4v871 h-346v-871q-45 -16 -129 -16q-40 0 -72 4t-44 8l-13 4v871h-131q-13 41 -13 98z" />
<glyph unicode="&#xfb02;" horiz-adv-x="1206" d="M63 983q0 54 11 94h131v123q0 160 101.5 248t297.5 88q109 0 225 -17.5t177 -34.5l61 -18v-1450q-45 -16 -129 -16q-40 0 -72 4t-44 8l-13 4v1307q-92 10 -188 10q-158 0 -158 -123v-133h168q12 -46 12 -94q0 -47 -12 -96h-168v-871q-45 -16 -129 -16q-40 0 -72 4t-44 8 l-13 4v871h-131q-11 61 -11 96z" />
<glyph horiz-adv-x="0" />
<glyph horiz-adv-x="682" />
<glyph unicode=" "  horiz-adv-x="440" />
<glyph unicode="&#x09;" horiz-adv-x="440" />
<glyph unicode="&#xa0;" horiz-adv-x="440" />
<glyph unicode="!" horiz-adv-x="581" d="M152 1458q49 17 139 17q37 0 72 -4.5t51 -8.5l16 -4l-43 -1034q-35 -18 -94 -18q-26 0 -50.5 4.5t-36.5 9.5l-11 4zM162 16v236q39 16 129 16q37 0 69.5 -4t45.5 -8l14 -4v-236q-45 -16 -129 -16q-40 0 -72.5 4t-44.5 8z" />
<glyph unicode="&#x22;" horiz-adv-x="790" d="M100 1458q37 17 127 17q37 0 69 -4.5t45 -8.5l13 -4l-43 -420q-29 -14 -84 -14q-24 0 -45 3.5t-30 6.5l-9 4zM436 1458q37 17 127 17q37 0 69 -4.5t45 -8.5l13 -4l-43 -420q-29 -14 -84 -14q-24 0 -45 3.5t-30 6.5l-9 4z" />
<glyph unicode="#" horiz-adv-x="1370" d="M68 330q0 31 3.5 57t6.5 37l4 10h205l108 387h-143q-14 49 -14 105q0 57 14 100h201l65 231q52 19 109 19t112 -19l-65 -231h250l65 231q55 19 113 19q56 0 108 -19l-65 -231h137q16 -46 16 -94q0 -58 -16 -111h-195l-108 -387h133q16 -41 16 -102q0 -26 -4 -52t-8 -38 l-4 -13h-190l-60 -211q-50 -18 -108 -18q-60 0 -113 18l59 211h-249l-60 -211q-53 -18 -115 -18q-57 0 -106 18l59 211h-147q-14 38 -14 101zM508 434h250l108 387h-250z" />
<glyph unicode="$" horiz-adv-x="1144" d="M96 979q0 168 101 265.5t297 117.5l-19 237q42 17 105 17q30 0 56.5 -4t37.5 -8l12 -5l-18 -233q83 -4 164.5 -17.5t121.5 -24.5l41 -11q2 -46 -16 -103q-8 -24 -21.5 -45.5t-23.5 -30.5l-10 -10q-127 43 -291 43q-138 0 -209.5 -37t-71.5 -124q0 -46 31 -80.5t82 -54 t116.5 -40.5t133 -39t133 -50.5t116.5 -74t82 -110.5t31 -158q0 -352 -411 -391l20 -256q-34 -16 -104 -16q-29 0 -56 4t-39 8l-12 4l19 252q-105 4 -203 24.5t-143 39.5l-46 18q-7 35 9 98q7 27 19 51t20 34l8 10q22 -7 60 -17t140.5 -26.5t186.5 -16.5q135 0 200.5 37 t65.5 127q0 61 -39.5 102.5t-102.5 65t-139.5 43t-152.5 46t-139 64.5t-102.5 108t-39.5 167z" />
<glyph unicode="%" horiz-adv-x="1576" d="M74 1061q0 184 72.5 269t213.5 85t215 -84t74 -270t-74 -270t-215 -84t-213.5 84t-72.5 270zM256 1061q0 -127 24 -169t80 -42q36 0 56.5 14.5t33.5 62t13 134.5q0 125 -24.5 169t-78.5 44q-55 0 -79.5 -44t-24.5 -169zM305 -6l789 1429q30 15 96 15q28 0 52 -4t34 -8 l10 -3l-788 -1429q-31 -14 -97 -14q-28 0 -52 3.5t-34 6.5zM930 334q0 184 73 269t214 85t214.5 -84t73.5 -270t-73.5 -270t-214.5 -84q-142 0 -214.5 84t-72.5 270zM1112 334q0 -87 13 -134.5t34 -62t58 -14.5q36 0 56.5 14.5t33 62t12.5 134.5q0 86 -12.5 133.5 t-33.5 63.5t-56 16q-55 0 -80 -44t-25 -169z" />
<glyph unicode="&#x26;" horiz-adv-x="1314" d="M76 334q0 65 22 127t54 106.5t75.5 85.5t78.5 65t71 44q-78 176 -78 323q0 150 87 239t261 89q149 0 236.5 -68t87.5 -190q0 -73 -25.5 -137t-75 -117.5t-97.5 -91t-118 -82.5q104 -158 260 -293q32 52 80 174q58 7 111 -13t82 -60q-49 -110 -127 -211q118 -76 221 -121 q4 -59 -29 -118t-84 -87q-138 56 -272 147q-30 -29 -66 -54.5t-88 -52t-120.5 -42.5t-143.5 -16q-79 0 -149 21t-128 62.5t-92 111t-34 159.5zM317 371q0 -81 55 -133t150 -52q127 0 232 72q-181 163 -297 354q-140 -112 -140 -241zM522 1098q0 -103 53 -224 q79 54 121.5 115.5t42.5 149.5q0 51 -26.5 79.5t-77.5 28.5q-53 0 -83 -37t-30 -112z" />
<glyph unicode="'" horiz-adv-x="454" d="M100 1458q37 17 127 17q37 0 69 -4.5t45 -8.5l13 -4l-43 -420q-29 -14 -84 -14q-24 0 -45 3.5t-30 6.5l-9 4z" />
<glyph unicode="(" horiz-adv-x="620" d="M96 655q0 155 27 316t66 279.5t78 214.5t66 146l27 50q50 2 109 -29q27 -15 48 -33t29 -29l7 -11q-8 -14 -22 -41.5t-49.5 -118.5t-62.5 -189t-49 -249.5t-22 -305.5t21 -303.5t51 -253t60.5 -185t51.5 -121.5l21 -40q-3 -5 -8 -13.5t-26.5 -28t-47.5 -32.5t-54 -20 t-43 -8h-14q-11 18 -28.5 52t-63 141.5t-80.5 219t-63.5 274.5t-28.5 318z" />
<glyph unicode=")" horiz-adv-x="620" d="M68 -248q8 14 22 41.5t49 118t62 189t49 249.5t22 305t-21 303.5t-51 253.5t-60 185.5t-51 121.5l-21 40q23 40 84 73q26 14 53 21t41 7l14 1q11 -18 28.5 -52t63 -141.5t80.5 -219t63.5 -275t28.5 -318.5t-27 -316t-66 -279t-78 -214.5t-66 -145.5l-27 -50 q-51 -1 -110 28q-26 13 -46.5 31.5t-27.5 30.5z" />
<glyph unicode="*" horiz-adv-x="694" d="M92 1223q0 78 41 125l148 -50v158q65 21 133 -2v-156l149 50q39 -45 39 -125l-147 -49l94 -127q-48 -56 -111 -76l-90 125l-90 -125q-66 21 -111 76l91 124z" />
<glyph unicode="+" horiz-adv-x="958" d="M86 594q0 25 3.5 48.5t6.5 34.5l4 11h285v285q37 14 94 14q25 0 48.5 -3.5t34.5 -7.5l11 -3v-285h285q14 -37 14 -94q0 -25 -3.5 -48.5t-6.5 -34.5l-4 -11h-285v-285q-37 -14 -94 -14q-25 0 -48.5 3.5t-34.5 7.5l-11 3v285h-285q-14 37 -14 94z" />
<glyph unicode="," horiz-adv-x="503" d="M123 16v236q45 16 129 16q37 0 69.5 -4t46.5 -8l13 -4v-154q0 -71 -17 -136t-41.5 -107t-49 -74.5t-41.5 -46.5l-17 -15l-90 62q3 3 7.5 9t17 27.5t22.5 45t19.5 61t11.5 76.5q-24 2 -44 6t-28 7z" />
<glyph unicode="-" horiz-adv-x="739" d="M129 594q0 25 3.5 48.5t7.5 34.5l3 11h451q14 -37 14 -94q0 -25 -3.5 -48.5t-6.5 -34.5l-4 -11h-451q-14 37 -14 94z" />
<glyph unicode="." horiz-adv-x="503" d="M123 16v236q39 16 129 16q37 0 69.5 -4t46.5 -8l13 -4v-236q-45 -16 -129 -16q-40 0 -72 4t-44 8z" />
<glyph unicode="/" horiz-adv-x="1015" d="M39 -78l682 1596q45 18 125 18q37 0 69.5 -4.5t46.5 -9.5l13 -4l-682 -1596q-45 -18 -125 -18q-37 0 -69.5 4.5t-46.5 9.5z" />
<glyph unicode="0" horiz-adv-x="1265" d="M111 696q0 370 132.5 543.5t387.5 173.5q257 0 390.5 -172.5t133.5 -544.5t-133.5 -544t-390.5 -172q-256 0 -388 171.5t-132 544.5zM385 696q0 -122 11 -210t31 -143.5t51.5 -88.5t67.5 -45t85 -12q50 0 86 12.5t67.5 45t50 88t29 143.5t10.5 210q0 123 -10.5 211 t-29 144t-50 88.5t-67.5 44.5t-86 12q-49 0 -85 -12t-68 -45t-51.5 -88.5t-30.5 -144t-11 -210.5z" />
<glyph unicode="1" horiz-adv-x="868" d="M55 1120q127 34 216 94t163 160q39 19 127 19q38 0 70.5 -4.5t45.5 -9.5l13 -5v-1356q-41 -18 -129 -18q-36 0 -69.5 4.5t-48.5 9.5l-15 4v785q0 139 10 256q-130 -106 -321 -152q-38 38 -55 95.5t-7 117.5z" />
<glyph unicode="2" horiz-adv-x="1095" d="M88 137q0 110 28.5 197t97 159t112 106.5t140.5 99.5q11 8 17 12q98 67 145 108t72 89t25 112q0 91 -64.5 135.5t-177.5 44.5q-62 0 -129 -11t-103 -23l-36 -11q-86 70 -74 184q19 8 52.5 20.5t134 33t196.5 20.5q100 0 182.5 -22t147.5 -66.5t101 -120.5t36 -178 q0 -49 -6 -91t-21.5 -79t-31 -65.5t-46.5 -60t-54 -52.5t-68.5 -51.5t-75.5 -49t-88 -53.5q-16 -10 -57.5 -34t-62 -37t-52.5 -38t-48 -45t-29 -48.5t-13 -59.5q0 -11 4 -31h608q25 -46 25 -114q0 -62 -25 -117h-850q-12 65 -12 137z" />
<glyph unicode="3" horiz-adv-x="1087" d="M88 53q-3 53 14.5 106t49.5 85q130 -43 284 -43q142 0 210.5 47t68.5 166q0 109 -58.5 159t-187.5 50h-174q-43 106 0 204h174q201 0 201 181q0 101 -59 145.5t-177 44.5q-65 0 -127.5 -11t-92.5 -21l-30 -11q-92 67 -80 184q15 8 43 20.5t120.5 33t191.5 20.5 q223 0 348 -95t125 -280q0 -226 -164 -305q213 -84 213 -350q0 -199 -125 -301t-401 -102q-66 0 -128 7.5t-103.5 18t-73.5 21.5t-47 19z" />
<glyph unicode="4" horiz-adv-x="1193" d="M55 440q0 29 5.5 55t10.5 37l5 11l612 831q45 19 131 19q38 0 69.5 -4.5t43.5 -9.5l12 -5v-831h168q18 -37 18 -103q0 -29 -4.5 -54.5t-9.5 -36.5l-4 -11h-168v-320q-45 -18 -119 -18q-35 0 -66.5 4.5t-46.5 9.5l-14 4v320h-622q-21 36 -21 102zM330 543h368v499z" />
<glyph unicode="5" horiz-adv-x="1075" d="M84 53q-3 53 14 106t49 85q12 -5 34 -12t92 -19t141 -12q144 0 219.5 50t75.5 163q0 68 -17.5 110.5t-58.5 66t-95 32t-139 8.5q-127 0 -231 -8v770h747q20 -56 20 -116.5t-20 -109.5h-493v-327q23 2 76 2q236 0 356.5 -103.5t120.5 -324.5q0 -213 -134.5 -323.5 t-402.5 -110.5q-71 0 -133 7.5t-101 18t-67.5 21.5t-40.5 19z" />
<glyph unicode="6" horiz-adv-x="1132" d="M106 526q0 420 203 631.5t594 235.5q20 -44 20 -100.5t-20 -106.5q-211 -24 -331 -108t-166 -253q114 27 212 27q92 0 167.5 -24.5t136 -75t94 -136t33.5 -200.5q0 -221 -123 -328.5t-348 -107.5t-348.5 134t-123.5 412zM371 518q0 -342 207 -342q97 0 150.5 59t53.5 181 q0 235 -209 235q-95 0 -200 -33q-2 -31 -2 -100z" />
<glyph unicode="7" horiz-adv-x="1019" d="M68 1280q0 33 4.5 61t9.5 40l4 12h858q18 -59 14 -144q-4 -94 -33.5 -181t-73.5 -158t-96 -143t-103.5 -150.5t-94 -164t-68.5 -199t-26 -241.5q-55 -12 -123 -12q-70 0 -125 12q0 137 22.5 257t59.5 208.5t82 165.5t94.5 142t92.5 123t79.5 124t52.5 131h-612 q-18 45 -18 117z" />
<glyph unicode="8" horiz-adv-x="1189" d="M104 354q0 222 244 353q-96 59 -150.5 140.5t-54.5 203.5q0 167 119 264.5t330 97.5q203 0 318.5 -88.5t115.5 -251.5q0 -199 -182 -330q114 -63 178.5 -149.5t64.5 -218.5q0 -191 -131 -293t-370 -102q-225 0 -353.5 96t-128.5 278zM350 365q0 -88 63.5 -136.5 t180.5 -48.5q105 0 168 48t63 134q0 20 -5.5 39.5t-12 34.5t-22 31.5t-26 27.5t-35 26t-37.5 23t-44 22.5t-44 20.5t-49 21.5t-48 20.5q-152 -108 -152 -264zM395 1067q0 -26 9 -50t20.5 -42t38 -38t43 -31.5t56 -31t57.5 -27.5t65 -28q113 101 113 232q0 83 -52.5 127.5 t-152.5 44.5q-94 0 -145.5 -41.5t-51.5 -114.5z" />
<glyph unicode="9" horiz-adv-x="1132" d="M84 977q0 221 123 328.5t348 107.5t348 -134t123 -413q0 -420 -203 -631t-594 -235q-40 109 0 207q211 22 330 106t168 254q-96 -26 -213 -26q-91 0 -167 24.5t-136 75t-93.5 136t-33.5 200.5zM350 977q0 -236 209 -236q91 0 199 31q4 66 4 102q0 343 -207 343 q-97 0 -151 -59t-54 -181z" />
<glyph unicode=":" horiz-adv-x="516" d="M129 16v236q39 16 129 16q37 0 69.5 -4t46.5 -8l13 -4v-236q-45 -16 -129 -16q-40 0 -72 4t-44 8zM129 825v236q39 16 129 16q37 0 69.5 -4t46.5 -8l13 -4v-236q-45 -16 -129 -16q-40 0 -72 4t-44 8z" />
<glyph unicode=";" horiz-adv-x="516" d="M129 16v236q39 16 129 16q37 0 69.5 -4t46.5 -8l13 -4v-154q0 -71 -17 -136t-41.5 -107t-49 -74.5t-41.5 -46.5l-17 -15l-90 62q3 3 7.5 9t17 27.5t22.5 45t19.5 61t11.5 76.5q-24 2 -44 6t-28 7zM129 825v236q39 16 129 16q37 0 69.5 -4t46.5 -8l13 -4v-236 q-45 -16 -129 -16q-40 0 -72 4t-44 8z" />
<glyph unicode="&#x3c;" horiz-adv-x="901" d="M86 596q0 25 3.5 48t6.5 34l4 10l656 293q14 -31 14 -94q0 -27 -3.5 -51t-6.5 -34l-4 -11l-443 -201l443 -195q14 -31 14 -94q0 -27 -3.5 -51t-6.5 -34l-4 -11l-656 293q-14 43 -14 98z" />
<glyph unicode="=" horiz-adv-x="1060" d="M152 307q-28 104 0 191h757q31 -89 0 -191h-757zM152 688q-28 104 0 191h757q31 -89 0 -191h-757z" />
<glyph unicode="&#x3e;" horiz-adv-x="901" d="M131 301q0 28 3.5 51.5t7.5 33.5l3 9l443 195l-443 201q-14 35 -14 96q0 28 3.5 51.5t7.5 33.5l3 9l656 -293q14 -35 14 -92q0 -24 -3.5 -48.5t-7.5 -37.5l-3 -12l-656 -293q-14 35 -14 96z" />
<glyph unicode="?" horiz-adv-x="901" d="M61 1339q14 8 40 20.5t112.5 33t181.5 20.5q90 0 165.5 -20t137.5 -62.5t96.5 -116.5t34.5 -174q0 -81 -19.5 -143t-51 -101t-69.5 -70t-76 -58t-69.5 -57t-51 -75t-19.5 -104q-28 -24 -96 -24q-28 0 -53.5 6t-37.5 12l-12 6q0 86 16 152t41.5 105t56 69.5t61.5 55 t56.5 51t41.5 68t16 97.5q0 51 -16 86t-46 53t-64.5 25.5t-80.5 7.5q-61 0 -114.5 -12t-77.5 -24l-23 -11q-92 67 -80 184zM246 16v236q39 16 129 16q37 0 69.5 -4t45.5 -8l14 -4v-236q-45 -16 -129 -16q-40 0 -72.5 4t-44.5 8z" />
<glyph unicode="@" horiz-adv-x="1867" d="M96 571q0 190 66 346t182.5 260t275.5 160t345 56q370 0 582 -209t212 -563q0 -216 -100.5 -331.5t-276.5 -115.5q-210 0 -274 115q-73 -115 -262 -115q-152 0 -235 92t-83 303q0 110 22.5 188t65.5 123.5t99.5 66t130.5 20.5q156 0 231 -72v61q35 21 111 21 q34 0 60.5 -5.5t35.5 -10.5l10 -5v-505q0 -54 22.5 -80.5t72.5 -26.5q79 0 122 71t43 206q0 276 -155.5 442t-433.5 166q-298 0 -467.5 -175t-169.5 -483q0 -166 52.5 -292t143 -199.5t201 -109.5t238.5 -36q269 0 524 148q70 -38 76 -127q-289 -193 -631 -193 q-129 0 -249 30.5t-227.5 95.5t-187 158.5t-126 228.5t-46.5 296zM764 569q0 -137 40 -187t124 -50q65 0 104.5 38.5t44.5 100.5v201q-5 61 -44.5 99t-104.5 38q-85 0 -124.5 -49.5t-39.5 -190.5z" />
<glyph unicode="A" d="M33 18l489 1438q68 19 160 19q44 0 84 -4.5t58 -9.5l18 -5l489 -1438q-47 -18 -143 -18q-39 0 -71 4.5t-44 9.5l-12 4l-111 328h-559l-110 -328q-45 -18 -127 -18q-35 0 -65 4.5t-43 9.5zM463 557h416l-140 416q-19 56 -35 113t-22 86l-6 28h-8q-21 -104 -62 -227z" />
<glyph unicode="B" horiz-adv-x="1288" d="M168 0v1475h577q183 0 292.5 -114.5t109.5 -301.5q0 -96 -39.5 -172.5t-112.5 -124.5q93 -47 144 -132.5t51 -201.5q0 -193 -119.5 -310.5t-316.5 -117.5h-586zM430 201h268q111 0 166.5 58.5t55.5 166.5q0 115 -54.5 171t-167.5 56h-268v-452zM430 846h256 q96 0 145.5 59t49.5 154q0 100 -49 157.5t-146 57.5h-256v-428z" />
<glyph unicode="C" horiz-adv-x="1157" d="M106 737q0 371 158.5 564.5t462.5 193.5q101 0 189.5 -18t126.5 -36l38 -18q1 -8 1 -16q0 -94 -78 -178q-117 43 -248 43q-86 0 -151 -25t-117 -83.5t-79.5 -166.5t-27.5 -262q0 -124 18.5 -217.5t50.5 -152t80.5 -94.5t102.5 -50t123 -14q65 0 132 10.5t102 21.5l34 11 q78 -72 78 -199q-6 -3 -16.5 -7.5t-47 -17t-77 -22t-104 -17t-130.5 -7.5q-304 0 -462.5 193t-158.5 564z" />
<glyph unicode="D" d="M168 0v1475h481q606 0 606 -738q0 -737 -606 -737h-481zM430 217h201q64 0 112.5 12.5t94 46.5t74.5 91t46 150t17 220t-17 220.5t-46 150.5t-74.5 91t-94 46t-112.5 12h-201v-1040z" />
<glyph unicode="E" horiz-adv-x="1134" d="M168 0v1475h846q20 -52 20 -99q0 -62 -20 -112h-584v-414h481q21 -58 21 -102q0 -56 -21 -109h-481v-428h604q21 -58 21 -102q0 -57 -21 -109h-866z" />
<glyph unicode="F" horiz-adv-x="1083" d="M166 18v1457h825q21 -58 21 -105q0 -54 -21 -106h-563v-443h502q20 -41 20 -100q0 -64 -20 -111h-502v-592q-45 -18 -133 -18q-38 0 -70.5 4.5t-45.5 9.5z" />
<glyph unicode="G" horiz-adv-x="1298" d="M106 737q0 370 168 564t488 194q110 0 207.5 -18t139.5 -36l42 -18q0 -55 -21 -107t-57 -85q-130 43 -282 43q-75 0 -134.5 -15t-112.5 -53t-88 -98t-55 -154.5t-20 -218.5t20 -217.5t55 -152.5t88 -95.5t112.5 -50.5t134.5 -14q34 0 67.5 2t50.5 4l17 2v416h-258 q-21 38 -21 104q0 30 5.5 57t10.5 38l5 12h503v-789q-6 -3 -18 -7.5t-52 -17t-84 -22t-113.5 -17t-141.5 -7.5q-320 0 -488 193.5t-168 563.5z" />
<glyph unicode="H" horiz-adv-x="1392" d="M164 18v1438q43 19 129 19q39 0 72.5 -4.5t46.5 -9.5l14 -5v-588h541v588q45 19 131 19q38 0 71 -4.5t47 -9.5l13 -5v-1438q-43 -18 -129 -18q-43 0 -76 4.5t-45 9.5l-12 4v625h-541v-625q-47 -18 -131 -18q-42 0 -74.5 4.5t-44.5 9.5z" />
<glyph unicode="I" horiz-adv-x="589" d="M164 18v1438q43 19 129 19q39 0 72.5 -4.5t46.5 -9.5l14 -5v-1438q-47 -18 -131 -18q-42 0 -74.5 4.5t-44.5 9.5z" />
<glyph unicode="J" horiz-adv-x="927" d="M33 41v10q0 115 69 187q85 -31 179 -31q102 0 164.5 49t62.5 156v1044q37 19 131 19q39 0 72 -4.5t46 -9.5l13 -5v-1036q0 -215 -118.5 -327.5t-309.5 -112.5q-75 0 -152 15t-117 31z" />
<glyph unicode="K" horiz-adv-x="1265" d="M164 18v1438q45 19 133 19q38 0 70.5 -4.5t45.5 -9.5l13 -5v-586h92l404 586q70 19 131 19t139 -19l-455 -661l518 -777q-53 -18 -155 -18q-42 0 -79.5 4.5t-54.5 9.5l-16 4l-432 644h-92v-644q-37 -18 -131 -18q-37 0 -70 4.5t-47 9.5z" />
<glyph unicode="L" horiz-adv-x="1073" d="M166 0v1456q43 19 129 19q39 0 72.5 -4.5t46.5 -9.5l14 -5v-1231h588q20 -47 20 -112q0 -51 -20 -113h-850z" />
<glyph unicode="M" horiz-adv-x="1703" d="M166 18v1438q64 19 158 19q35 0 73.5 -4.5t60.5 -9.5l21 -5l187 -375q141 -288 176 -401h10q35 113 82 213q113 227 266 563q87 19 168 19q44 0 86.5 -4.5t63.5 -9.5l20 -5v-1438q-45 -18 -129 -18q-37 0 -70.5 4.5t-48.5 9.5l-14 4v449q0 45 -1 171t-1 194.5t4 160.5 t12 152h-12q-12 -45 -41 -116t-51.5 -120t-70.5 -150t-62 -132l-144 -301q-30 -11 -75 -11q-20 0 -36.5 2.5t-23.5 5.5l-6 3q-16 32 -66 133t-77 157q-66 133 -96.5 197t-75.5 168t-60 164h-12q7 -34 12.5 -83.5t8 -92t3.5 -113t1 -108.5v-50v-71v-109v-500 q-43 -18 -123 -18q-32 0 -61.5 4.5t-42.5 9.5z" />
<glyph unicode="N" horiz-adv-x="1435" d="M166 18v1438q56 19 158 19q46 0 85 -4.5t55 -9.5l15 -5l422 -819q36 -65 70 -142t51 -121l16 -44h9q-17 172 -17 381v745q37 19 123 19q38 0 68 -4.5t41 -9.5l10 -5v-1438q-50 -18 -154 -18q-45 0 -85 4.5t-57 9.5l-18 4l-426 824q-35 64 -68 139t-49 119l-16 43h-8 q17 -162 17 -375v-750q-39 -18 -123 -18q-36 0 -66 4.5t-41 9.5z" />
<glyph unicode="O" horiz-adv-x="1396" d="M106 737q0 382 156.5 570t435.5 188q280 0 436 -186.5t156 -571.5q0 -387 -154 -572t-438 -185t-438 185t-154 572zM383 737q0 -127 15 -222t41.5 -155t67 -97t86.5 -51.5t105 -14.5q77 0 131.5 24t98 83t65 167t21.5 266q0 128 -14.5 223t-40.5 155.5t-66.5 97t-87 51 t-107.5 14.5q-75 0 -129.5 -24t-98 -83t-65.5 -167t-22 -267z" />
<glyph unicode="P" horiz-adv-x="1243" d="M166 18v1457h549q206 0 331 -127.5t125 -333.5t-125 -333.5t-331 -127.5h-287v-535q-43 -18 -129 -18q-43 0 -76 4.5t-45 9.5zM428 770h250q106 0 162.5 64t56.5 180t-56.5 179.5t-162.5 63.5h-250v-487z" />
<glyph unicode="Q" horiz-adv-x="1396" d="M106 737q0 382 156.5 570t435.5 188q280 0 436 -186.5t156 -571.5q0 -431 -196 -618q113 -92 280 -123q-6 -68 -46 -130.5t-97 -90.5q-185 67 -311 239q-90 -34 -222 -34q-284 0 -438 185t-154 572zM383 737q0 -127 15 -222t41.5 -155t67 -97t86.5 -51.5t105 -14.5 q77 0 131.5 24t98 83t65 167t21.5 266q0 128 -14.5 223t-40.5 155.5t-66.5 97t-87 51t-107.5 14.5q-75 0 -129.5 -24t-98 -83t-65.5 -167t-22 -267z" />
<glyph unicode="R" horiz-adv-x="1288" d="M166 18v1457h539q206 0 331 -122t125 -321q0 -152 -75 -262t-207 -154l356 -598q-54 -18 -156 -18q-42 0 -78.5 4.5t-52.5 9.5l-16 4l-338 572h-166v-572q-43 -18 -129 -18q-43 0 -76 4.5t-45 9.5zM428 807h240q107 0 163 58.5t56 166.5t-56 166.5t-163 58.5h-240v-450z " />
<glyph unicode="S" horiz-adv-x="1171" d="M102 70v10q0 105 62 199q22 -7 60 -17.5t139.5 -28.5t185.5 -18q140 0 205 49.5t65 149.5q0 40 -15.5 72t-46.5 56t-66 41t-85 35q-27 10 -81.5 28t-87 29t-82.5 33t-81 42t-67.5 52t-56.5 68t-34 85.5t-14 107.5q0 200 131 316t385 116q113 0 216 -15.5t150 -30.5 l46 -15q0 -57 -17.5 -112.5t-51.5 -92.5q-15 5 -42 12.5t-107.5 20t-156.5 12.5q-293 0 -293 -199q0 -27 9.5 -49.5t31 -41t43 -32.5t59 -29t65 -24.5t75 -25t74.5 -25.5q52 -19 92 -37.5t85 -45t77 -59t59 -73.5t41 -95t14 -118q0 -215 -133.5 -327.5t-394.5 -112.5 q-125 0 -239 22.5t-166 45.5z" />
<glyph unicode="T" horiz-adv-x="1132" d="M47 1360q0 29 5.5 58t10.5 43l5 14h997q20 -50 20 -111q0 -29 -5 -58t-10 -43l-5 -14h-363v-1231q-47 -18 -131 -18q-42 0 -74.5 4.5t-44.5 9.5l-12 4v1231h-372q-21 43 -21 111z" />
<glyph unicode="U" horiz-adv-x="1378" d="M156 516v940q43 19 129 19q39 0 72.5 -4.5t46.5 -9.5l14 -5v-981q0 -130 71.5 -202t202.5 -72t202 72t71 202v981q41 19 127 19q38 0 71 -4.5t47 -9.5l13 -5v-940q0 -255 -144 -395.5t-391 -140.5q-245 0 -388.5 142.5t-143.5 393.5z" />
<glyph unicode="V" horiz-adv-x="1339" d="M35 1450q49 25 145 25q39 0 70.5 -5.5t43.5 -10.5l11 -5l291 -879q24 -72 43 -145.5t26 -111.5l7 -37h8q23 131 78 297l293 876q36 21 120 21q36 0 70 -5.5t50 -10.5l16 -5l-480 -1438q-67 -16 -157 -16q-41 0 -80.5 4t-58.5 8l-19 4z" />
<glyph unicode="W" horiz-adv-x="1994" d="M47 1456q43 19 131 19q40 0 72.5 -4.5t45.5 -9.5l13 -5l234 -876q16 -63 32 -139t23 -121l8 -44h8q21 159 54 302l200 878q44 19 140 19q44 0 80 -4.5t50 -9.5l13 -5l199 -876q16 -68 28 -144t16 -118l5 -42h8q20 140 63 302l238 878q49 19 119 19q34 0 64.5 -4.5 t44.5 -9.5l14 -5l-389 -1438q-62 -18 -154 -18q-40 0 -80.5 4.5t-60.5 9.5l-21 4l-186 842q-21 96 -33.5 183.5t-15.5 126.5l-2 40h-11q-6 -133 -53 -350l-184 -842q-74 -18 -174 -18q-86 0 -156 18z" />
<glyph unicode="X" horiz-adv-x="1314" d="M12 16l480 756l-416 684q53 19 151 19q39 0 76 -4.5t55 -9.5l17 -5l295 -481l305 481q65 19 135 19q77 0 139 -19l-426 -670l469 -761q-53 -25 -151 -25q-39 0 -75.5 5t-53.5 10l-17 5l-344 560l-356 -564q-59 -16 -127 -16q-99 0 -156 16z" />
<glyph unicode="Y" horiz-adv-x="1314" d="M33 1456q56 19 160 19q42 0 78.5 -4.5t52.5 -9.5l16 -5l334 -579l338 579q47 19 135 19q37 0 73.5 -4.5t53.5 -9.5l18 -5l-506 -842v-596q-43 -18 -127 -18q-42 0 -75.5 4.5t-46.5 9.5l-13 4v590z" />
<glyph unicode="Z" horiz-adv-x="1230" d="M70 119q0 59 18 112l717 1014h-660q-14 52 -14 123q0 64 14 107h961q18 -40 18 -109q0 -68 -18 -121l-729 -1014h756q14 -58 14 -110q0 -66 -14 -121h-1045q-18 58 -18 119z" />
<glyph unicode="[" horiz-adv-x="692" d="M174 -348v2007h436q15 -33 15 -96q0 -28 -3.5 -51.5t-7.5 -33.5l-4 -10h-198v-1626h198q15 -33 15 -96q0 -28 -3.5 -51.5t-7.5 -32.5l-4 -10h-436z" />
<glyph unicode="\" horiz-adv-x="1024" d="M41 1518q47 18 133 18q36 0 68.5 -4.5t46.5 -9.5l14 -4l682 -1596q-47 -18 -133 -18q-36 0 -68.5 4.5t-46.5 9.5l-14 4z" />
<glyph unicode="]" horiz-adv-x="690" d="M68 -254q0 28 3.5 52t6.5 34l4 10h199v1626h-199q-14 32 -14 95q0 28 3.5 52t6.5 34l4 10h436v-2007h-436q-14 31 -14 94z" />
<glyph unicode="^" horiz-adv-x="1077" d="M84 940l354 520q38 15 101 15q28 0 53 -3.5t36 -7.5l11 -4l354 -520q-37 -14 -94 -14q-26 0 -53 3.5t-41 6.5l-14 4l-252 371l-252 -371q-50 -14 -109 -14q-25 0 -48.5 3.5t-34.5 6.5z" />
<glyph unicode="_" horiz-adv-x="1138" d="M104 -125q0 25 4 46t8 29l3 9h901q14 -27 14 -84q0 -25 -3.5 -46t-6.5 -29l-4 -9h-901q-15 27 -15 84z" />
<glyph unicode="`" horiz-adv-x="487" d="M45 1567q28 43 95 71t128 21l176 -281q-44 -61 -143 -78z" />
<glyph unicode="a" horiz-adv-x="1058" d="M72 334q0 169 101.5 247t297.5 78q105 0 203 -10v45q0 187 -185 187q-60 0 -125.5 -12.5t-101.5 -24.5l-35 -13q-32 21 -57 76q-11 24 -15 51.5t-3 42.5l2 15q6 3 17.5 8.5t49.5 20t78 25t101 19.5t122 9q220 0 315 -92t95 -289v-701q-29 -16 -101 -16q-28 0 -54 4t-38 8 l-12 4l-39 111q-72 -147 -299 -147q-150 0 -233.5 89t-83.5 265zM338 334q0 -84 37.5 -121t109.5 -37q51 0 89.5 22t59 58.5t30.5 77t10 84.5v61q-102 8 -170 8q-166 0 -166 -153z" />
<glyph unicode="b" horiz-adv-x="1142" d="M135 16v1504q41 16 127 16q38 0 71 -4t47 -8l13 -4v-529q87 107 277 107q89 0 156.5 -29t118.5 -93t77.5 -174t26.5 -263t-26.5 -263t-77.5 -174t-118.5 -93t-156.5 -29q-191 0 -277 106v-70q-45 -16 -131 -16q-38 0 -70 4t-44 8zM393 410q0 -98 50 -160t135 -62 q52 0 87 14.5t63 52t41 108t13 176.5t-13 176t-41 107.5t-63 52t-87 14.5q-85 0 -135 -61.5t-50 -159.5v-258z" />
<glyph unicode="c" horiz-adv-x="915" d="M90 539q0 559 461 559q94 0 165.5 -13.5t96.5 -26.5l25 -14q0 -52 -19.5 -101t-52.5 -81q-70 27 -172 27q-130 0 -185 -82.5t-55 -267.5q0 -182 58.5 -262t189.5 -80q46 0 92 7t69 14l23 7q32 -29 51 -79t21 -103q-10 -7 -30.5 -17.5t-100 -28t-176.5 -17.5 q-461 0 -461 559z" />
<glyph unicode="d" horiz-adv-x="1142" d="M94 539q0 153 26.5 263t77.5 174t118.5 93t156.5 29q187 0 277 -107v529q45 16 131 16q38 0 70 -4t45 -8l12 -4v-1504q-46 -16 -109 -16q-29 0 -59 4t-45 8l-15 4l-16 88q-88 -124 -291 -124q-89 0 -156.5 29t-118.5 93t-77.5 174t-26.5 263zM360 539q0 -106 13.5 -176.5 t41.5 -108t63 -52t87 -14.5q85 0 135 62t50 160v266q-3 95 -53 154t-132 59q-41 0 -71 -8.5t-56.5 -31.5t-43 -62t-25.5 -101t-9 -147z" />
<glyph unicode="e" horiz-adv-x="1056" d="M90 545q0 281 123 417t344 136q197 0 308.5 -105.5t111.5 -318.5q0 -58 -5.5 -112t-11.5 -78l-6 -25h-600q13 -148 75.5 -205t178.5 -57q61 0 119.5 12.5t86.5 24.5l28 12q33 -32 55 -81t23 -102q-5 -3 -14.5 -9t-43 -20t-71 -25t-97 -20t-123.5 -9q-247 0 -364 141.5 t-117 423.5zM356 637h361q4 46 4 68q0 192 -164 192q-176 0 -201 -260z" />
<glyph unicode="f" horiz-adv-x="737" d="M63 985q0 52 11 92h131v123q0 336 358 336q68 0 129 -12t88 -24l27 -13q-6 -104 -68 -178q-61 24 -159 24q-61 0 -89 -29t-28 -94v-133h225q12 -49 12 -98q0 -45 -12 -92h-225v-871q-45 -16 -129 -16q-40 0 -72 4t-44 8l-13 4v871h-131q-11 61 -11 98z" />
<glyph unicode="g" horiz-adv-x="1095" d="M41 -233q0 165 184 272q-43 46 -43 119q0 116 101 229q-191 89 -191 334q0 178 107 277.5t309 99.5q141 0 233 -47l295 47q15 -38 15 -97.5t-15 -99.5l-157 21q45 -80 45 -201q0 -178 -106 -277.5t-310 -99.5q-51 0 -74 2q-24 -38 -24 -72q0 -9 2 -18q6 -30 36.5 -48.5 t75 -26t100 -16t112 -16t110.5 -28.5t95.5 -52t67 -87.5t25.5 -133.5q0 -161 -146.5 -260.5t-393.5 -99.5q-229 0 -341 75t-112 204zM289 -180q0 -67 52.5 -109.5t160.5 -42.5q143 0 216 41t73 111q0 37 -26.5 60.5t-76 35t-100.5 18t-119 16t-113 21.5q-67 -67 -67 -151z M336 721q0 -100 46 -148.5t126 -48.5t125 48t45 149t-45 150t-125 49t-126 -49t-46 -150z" />
<glyph unicode="h" horiz-adv-x="1120" d="M133 16v1504q39 16 129 16q37 0 69.5 -4t46.5 -8l13 -4v-521q108 99 281 99q154 0 237.5 -85t83.5 -227v-770q-45 -16 -129 -16q-40 0 -72 4t-44 8l-13 4v725q0 69 -40 108.5t-124 39.5q-101 0 -180 -76v-797q-45 -16 -129 -16q-40 0 -72 4t-44 8z" />
<glyph unicode="i" horiz-adv-x="532" d="M137 16v1045q39 16 129 16q37 0 69.5 -4t46.5 -8l13 -4v-1045q-45 -16 -129 -16q-40 0 -72 4t-44 8zM137 1257v236q39 16 129 16q37 0 69.5 -4t46.5 -8l13 -4v-236q-45 -16 -129 -16q-40 0 -72 4t-44 8z" />
<glyph unicode="j" horiz-adv-x="532" d="M-68 -434q0 40 7 73t13 47l7 13q33 -8 68 -8q110 0 110 121v1249q39 16 129 16q37 0 69.5 -4t46.5 -8l13 -4v-1241q0 -160 -78.5 -246t-230.5 -86q-38 0 -74.5 4.5t-53.5 9.5l-17 4q-9 27 -9 60zM137 1257v236q39 16 129 16q37 0 69.5 -4t46.5 -8l13 -4v-236 q-45 -16 -129 -16q-40 0 -72 4t-44 8z" />
<glyph unicode="k" horiz-adv-x="1032" d="M135 16v1508q53 12 131 12q30 0 62 -3t48 -6l17 -3v-867h66l254 404q53 16 129 16q31 0 63 -4t48 -8l16 -4l-299 -481l346 -564q-60 -18 -144 -18q-38 0 -73 4.5t-51 9.5l-15 4l-278 451h-62v-451q-51 -16 -127 -16q-36 0 -68.5 4t-47.5 8z" />
<glyph unicode="l" horiz-adv-x="536" d="M139 16v1504q39 16 129 16q37 0 69.5 -4t46.5 -8l13 -4v-1504q-45 -16 -129 -16q-40 0 -72 4t-44 8z" />
<glyph unicode="m" horiz-adv-x="1681" d="M133 16v1045q39 16 129 16q37 0 69.5 -4t46.5 -8l13 -4v-60q105 97 268 97q176 0 263 -121q121 121 321 121q148 0 229.5 -85.5t81.5 -226.5v-770q-45 -16 -129 -16q-40 0 -72.5 4t-44.5 8l-12 4v725q0 148 -153 148q-99 0 -170 -74v-799q-45 -16 -129 -16q-40 0 -72 4 t-44 8l-13 4v725q0 148 -154 148q-99 0 -170 -74v-799q-45 -16 -129 -16q-40 0 -72 4t-44 8z" />
<glyph unicode="n" horiz-adv-x="1120" d="M133 16v1045q39 16 129 16q37 0 69.5 -4t46.5 -8l13 -4v-62q108 99 281 99q154 0 237.5 -85t83.5 -227v-770q-45 -16 -129 -16q-40 0 -72 4t-44 8l-13 4v725q0 69 -40 108.5t-124 39.5q-101 0 -180 -76v-797q-45 -16 -129 -16q-40 0 -72 4t-44 8z" />
<glyph unicode="o" horiz-adv-x="1122" d="M90 539q0 293 122 426t349 133q228 0 349.5 -132.5t121.5 -426.5q0 -293 -122 -426t-349 -133t-349 133t-122 426zM354 539q0 -106 14.5 -179t43 -112.5t64 -55.5t85.5 -16t85.5 16t63.5 55.5t42 112t14 179.5t-14 179t-42 111.5t-63.5 55.5t-85.5 16t-85.5 -16 t-64 -55.5t-43 -112t-14.5 -178.5z" />
<glyph unicode="p" horiz-adv-x="1142" d="M135 -442v1503q41 16 127 16q38 0 71 -4t47 -8l13 -4v-70q87 107 277 107q89 0 156.5 -29t118.5 -93t77.5 -174t26.5 -263t-26.5 -263t-77.5 -174t-118.5 -93t-156.5 -29q-191 0 -277 106v-528q-45 -17 -131 -17q-38 0 -70 4.5t-44 8.5zM393 410q0 -98 50 -160t135 -62 q52 0 87 14.5t63 52t41 108t13 176.5t-13 176t-41 107.5t-63 52t-87 14.5q-85 0 -135 -61.5t-50 -159.5v-258z" />
<glyph unicode="q" horiz-adv-x="1140" d="M94 539q0 153 26.5 263t77.5 174t118.5 93t156.5 29q187 0 277 -107v70q38 16 124 16q38 0 71.5 -4t48.5 -8l14 -4v-1503q-41 -17 -127 -17q-38 0 -71 4.5t-46 8.5l-14 4v528q-89 -106 -277 -106q-89 0 -156.5 29t-118.5 93t-77.5 174t-26.5 263zM360 539 q0 -106 13.5 -176.5t41.5 -108t63 -52t87 -14.5q82 0 132 58.5t53 152.5v269q0 98 -50 159.5t-135 61.5q-41 0 -71 -8.5t-56.5 -31.5t-43 -62t-25.5 -101t-9 -147z" />
<glyph unicode="r" horiz-adv-x="813" d="M133 16v1045q39 16 129 16q37 0 69.5 -4t46.5 -8l13 -4v-117q112 152 227 152q98 0 181 -54q-11 -132 -111 -219q-54 45 -119 45q-102 0 -178 -106v-746q-45 -16 -129 -16q-40 0 -72 4t-44 8z" />
<glyph unicode="s" horiz-adv-x="913" d="M86 57q0 124 70 191q133 -49 272 -49q160 0 160 114q0 39 -31 67t-59 38.5t-99 31.5q-15 5 -22 7q-41 12 -69 22.5t-64.5 28.5t-60.5 40t-46.5 52.5t-33.5 72.5t-11 93q0 154 100 243t295 89q97 0 172.5 -15t102.5 -30l26 -15q0 -120 -65 -182q-96 33 -209 33 q-176 0 -176 -115q0 -21 11 -38.5t27 -28.5t44 -22.5t52.5 -18.5t62 -18.5t63.5 -20.5q52 -18 91 -40t76 -57t57 -88.5t20 -122.5q0 -164 -101.5 -251.5t-300.5 -87.5q-62 0 -121.5 8t-100 19.5t-71.5 22.5t-46 19z" />
<glyph unicode="t" horiz-adv-x="794" d="M39 981q0 28 3.5 52t7.5 34l3 10h156v176q89 54 209 54q24 0 49 -2v-228h242q14 -35 14 -94q0 -24 -3.5 -48t-7.5 -36l-3 -12h-242v-488q0 -125 45.5 -169t149.5 -44l71 7q19 -46 19 -103q0 -24 -4 -47t-8 -34l-3 -11q-63 -18 -151 -18q-194 0 -285.5 101t-91.5 306v500 h-156q-14 37 -14 94z" />
<glyph unicode="u" horiz-adv-x="1120" d="M127 291v770q45 16 129 16q40 0 72 -4t44 -8l13 -4v-725q0 -69 40 -108.5t124 -39.5q104 0 180 76v797q45 16 129 16q40 0 72 -4t44 -8l13 -4v-1045q-39 -16 -129 -16q-37 0 -69.5 4t-46.5 8l-13 4v62q-107 -98 -280 -98q-155 0 -238.5 84.5t-83.5 226.5z" />
<glyph unicode="v" horiz-adv-x="1073" d="M31 1061q49 16 133 16q40 0 73 -4t47 -8l13 -4l188 -594q16 -52 30 -109.5t20 -88.5l6 -31h8q24 110 63 231l191 592q43 16 117 16q36 0 65.5 -4t40.5 -8l12 -4l-340 -1045q-67 -16 -159 -16q-44 0 -84 4t-58 8l-18 4z" />
<glyph unicode="w" horiz-adv-x="1634" d="M41 1061q47 16 129 16q39 0 67 -4t36 -8l8 -4l165 -594q27 -96 43 -215h7q21 126 45 217l151 592q66 16 144 16q37 0 69 -4t45 -8l13 -4l145 -590q27 -117 41 -219h6q16 93 51 217l166 592q41 16 113 16q35 0 62 -4t37 -8l9 -4l-293 -1045q-68 -16 -151 -16t-154 16 l-121 488q-37 146 -49 313h-8q-12 -171 -51 -313l-125 -488q-63 -16 -152 -16q-92 0 -155 16z" />
<glyph unicode="x" horiz-adv-x="1044" d="M20 16l353 535l-324 510q51 16 139 16q42 0 77.5 -4t50.5 -8l14 -4l202 -318l207 318q47 16 123 16q37 0 70.5 -4t47.5 -8l15 -4l-325 -494l354 -551q-51 -16 -139 -16q-42 0 -77.5 4t-49.5 8l-15 4l-231 359l-236 -359q-46 -16 -122 -16q-37 0 -70.5 4t-48.5 8z" />
<glyph unicode="y" horiz-adv-x="1085" d="M33 1061q49 16 133 16q39 0 72.5 -4t47.5 -8l13 -4l193 -549q24 -68 41.5 -132.5t23.5 -95.5l6 -30h8q19 102 66 258l166 549q41 16 125 16q33 0 63 -4t44 -8l14 -4l-361 -1178q-22 -70 -41 -118t-44.5 -96.5t-55 -79t-69 -55t-90 -35.5t-114.5 -11q-32 0 -61.5 6 t-42.5 12l-14 5q-19 43 -19 96q0 25 4.5 50.5t9.5 38.5l5 13q51 -8 94 -8q35 0 54.5 3t42.5 14.5t39 35t34 64t37 102.5l24 80q-44 0 -80 16z" />
<glyph unicode="z" horiz-adv-x="970" d="M76 111q0 57 14 100l510 655h-483q-15 48 -15 109q0 28 4 53.5t8 37.5l3 11h753q15 -40 15 -98q0 -63 -15 -113l-508 -655h504q17 -39 17 -107q0 -27 -4.5 -53t-8.5 -39l-4 -12h-776q-14 49 -14 111z" />
<glyph unicode="{" horiz-adv-x="729" d="M59 686q0 40 15 94h51q86 0 86 86v520q0 127 69.5 200t202.5 73h164q15 -43 15 -94q0 -43 -15 -97h-112q-86 0 -86 -86v-479q0 -147 -91 -217q91 -70 91 -219v-479q0 -86 86 -86h112q15 -46 15 -99q0 -49 -15 -92h-164q-133 0 -202.5 73t-69.5 200v520q0 86 -86 86h-51 q-15 44 -15 96z" />
<glyph unicode="|" horiz-adv-x="598" d="M170 -387v1989q39 16 129 16q37 0 69.5 -4t45.5 -8l14 -4v-1989q-45 -16 -129 -16q-40 0 -72.5 4t-44.5 8z" />
<glyph unicode="}" horiz-adv-x="729" d="M68 -197q0 56 14 99h113q86 0 86 86v479q0 149 88 219q-88 70 -88 217v479q0 86 -86 86h-113q-14 51 -14 97q0 53 14 94h164q133 0 202.5 -73t69.5 -200v-520q0 -86 86 -86h51q15 -54 15 -94q0 -52 -15 -96h-51q-86 0 -86 -86v-520q0 -127 -69.5 -200t-202.5 -73h-164 q-14 41 -14 92z" />
<glyph unicode="~" horiz-adv-x="1054" d="M117 567q3 6 8.5 16t27 35t48 44t71.5 35t97 16q45 0 89 -16.5t74 -36t72.5 -36t85.5 -16.5q27 0 51.5 8t40 19t26.5 22t16 19l5 8q45 -15 74 -48t35 -75q-3 -6 -8.5 -15.5t-27 -34.5t-48 -44.5t-71.5 -35t-97 -15.5q-45 0 -89 16t-74 36t-72.5 36t-85.5 16 q-27 0 -51.5 -8t-40 -19t-27 -22t-16.5 -19l-5 -8q-45 15 -73.5 48t-34.5 75z" />
<glyph unicode="&#xa1;" horiz-adv-x="552" d="M137 -397l43 1034q35 14 94 14q26 0 51 -3.5t37 -7.5l11 -3l43 -1034q-50 -17 -140 -17q-37 0 -72 4t-51 8zM147 809v235q45 17 129 17q40 0 72.5 -4.5t45.5 -8.5l12 -4v-235q-40 -16 -130 -16q-37 0 -69.5 4t-46.5 8z" />
<glyph unicode="&#xa2;" horiz-adv-x="952" d="M100 539q0 502 373 553l-16 192q45 21 104 21q30 0 57 -5.5t38 -10.5l12 -5l-19 -190q64 -5 113.5 -17.5t67.5 -22.5l18 -10q-3 -101 -72 -170q-70 27 -172 27q-129 0 -184 -87.5t-55 -274.5q0 -184 58.5 -269.5t188.5 -85.5q46 0 92.5 7t69.5 15l23 7q65 -58 71 -170 q-7 -5 -22 -13t-72 -24t-125 -22l19 -191q-39 -20 -107 -20q-26 0 -52 5t-39 10l-13 5l16 193q-373 48 -373 553z" />
<glyph unicode="&#xa3;" horiz-adv-x="1103" d="M100 692q0 24 4 46t8 32l3 10h114q-43 135 -43 246q0 102 33 178t94 121.5t141 67.5t179 22q185 0 362 -76q12 -115 -73 -184q-120 44 -244 47q-225 0 -225 -182q0 -94 43 -240h356q14 -33 14 -86q0 -24 -3.5 -47.5t-6.5 -34.5l-4 -12h-315q13 -101 -16 -190.5 t-122 -178.5h586q21 -44 21 -114q0 -32 -5 -61.5t-11 -42.5l-5 -13h-850v231q106 103 136.5 190.5t11.5 178.5h-168q-15 33 -15 92z" />
<glyph unicode="&#xa4;" horiz-adv-x="1226" d="M106 172l152 152q-70 107 -70 231q0 120 70 231l-152 152q5 39 46 80q19 20 39 31t30 13l10 1l150 -152q106 70 233 70q125 0 232 -70l151 152q37 0 80 -45q18 -18 29.5 -38t13.5 -31l2 -11l-151 -152q69 -106 69 -231q0 -124 -69 -233l151 -150q-2 -41 -43 -82 q-19 -20 -39.5 -31t-31.5 -11l-11 -1l-151 150q-104 -68 -232 -68q-125 0 -233 68l-150 -150q-38 2 -81 47q-18 18 -29 37.5t-13 30.5zM362 555q0 -105 73.5 -178.5t178.5 -73.5q106 0 179 73t73 179t-73 179t-179 73q-105 0 -178.5 -73.5t-73.5 -178.5z" />
<glyph unicode="&#xa5;" horiz-adv-x="1282" d="M57 1378q50 23 144 23q39 0 73.5 -5.5t49.5 -10.5l14 -5l307 -555l330 559q49 17 133 17q33 0 64 -4.5t46 -8.5l15 -4l-393 -651h235q12 -37 12 -78q0 -39 -12 -80h-321v-139h321q12 -34 12 -76q0 -40 -12 -81h-321v-261q-43 -18 -121 -18q-34 0 -63.5 4.5t-42.5 9.5 l-13 4v261h-328q-12 43 -12 83q0 36 12 74h328v139h-328q-12 44 -12 80q0 41 12 78h240z" />
<glyph unicode="&#xa6;" horiz-adv-x="585" d="M164 -387v883q39 16 129 16q37 0 69.5 -4t45.5 -8l14 -4v-883q-45 -16 -129 -16q-40 0 -72.5 4t-44.5 8zM164 739v863q39 16 129 16q37 0 69.5 -4t45.5 -8l14 -4v-863q-45 -16 -129 -16q-40 0 -72.5 4t-44.5 8z" />
<glyph unicode="&#xa7;" horiz-adv-x="993" d="M115 682q0 117 96 221q-76 76 -76 205q0 150 106 227.5t285 77.5q150 0 289 -47q5 -42 -7.5 -87.5t-43.5 -72.5q-101 27 -203 27q-89 0 -147 -28t-58 -93q0 -33 22.5 -56.5t59 -35.5t83.5 -24t95.5 -22t95.5 -30t83.5 -47t59 -74t22.5 -110q0 -106 -89 -207 q101 -80 101 -230q0 -77 -34 -135.5t-93.5 -93t-133.5 -51t-161 -16.5q-86 0 -171.5 13t-127.5 27l-43 13q-10 45 3 91.5t50 72.5q129 -33 260 -33q213 0 213 117q0 37 -29.5 62.5t-77 39.5t-104.5 26.5t-114 31t-104.5 45.5t-77 77t-29.5 119zM330 715q0 -24 13 -42 t32.5 -29t51.5 -20.5t60.5 -15t70 -14t69.5 -16.5q35 46 35 102q0 28 -16.5 47.5t-49 32t-65 20.5t-82.5 18.5t-82 20.5q-37 -50 -37 -104z" />
<glyph unicode="&#xa8;" horiz-adv-x="931" d="M162 1266v198q34 15 110 15q32 0 60 -3.5t40 -7.5l11 -4v-198q-39 -15 -111 -15q-34 0 -61.5 3.5t-38.5 7.5zM532 1266v198q35 15 111 15q32 0 60 -3.5t39 -7.5l12 -4v-198q-39 -15 -111 -15q-34 0 -61.5 3.5t-38.5 7.5z" />
<glyph unicode="&#xa9;" horiz-adv-x="1634" d="M100 696q0 146 56.5 279t152.5 229t229 152.5t279 56.5t279 -56.5t229 -152.5t152.5 -229t56.5 -279q0 -195 -96 -360t-261 -260.5t-360 -95.5t-360 95.5t-261 260.5t-96 360zM266 696q0 -112 43.5 -214t117.5 -176t176 -117.5t214 -43.5t214 43.5t176 117.5t117.5 176 t43.5 214t-43.5 214t-117.5 176t-176 117.5t-214 43.5t-214 -43.5t-176 -117.5t-117.5 -176t-43.5 -214zM459 711q0 201 93 304t273 103q60 0 115 -11t80 -23l24 -11q0 -84 -59 -135q-71 29 -143 29q-90 0 -140.5 -59t-50.5 -199q0 -139 50 -193.5t141 -54.5q36 0 73.5 5.5 t57.5 11.5l20 5q62 -39 62 -135q-10 -5 -28.5 -13t-78.5 -21t-123 -13q-179 0 -272.5 106t-93.5 304z" />
<glyph unicode="&#xaa;" horiz-adv-x="741" d="M96 823q0 207 250 207l109 -4v27q0 40 -24.5 64t-74.5 24q-35 0 -74.5 -7.5t-61.5 -15.5l-23 -8q-49 56 -52 125q11 6 31.5 15t81.5 24.5t119 15.5q136 0 195 -57t59 -178v-424q-25 -17 -72 -17q-17 0 -35 4t-28 8l-9 5l-16 45q-59 -72 -176 -72q-93 0 -146 56t-53 163z M113 350q-22 81 0 150h512q24 -68 0 -150h-512zM274 823q0 -44 20 -63t60 -19q52 0 76.5 41t24.5 95v26q-39 2 -90 2q-91 0 -91 -82z" />
<glyph unicode="&#xab;" horiz-adv-x="1093" d="M86 543q0 32 4.5 61t9.5 42l4 13l412 383q63 -51 84 -149l-289 -342l289 -340q-22 -99 -84 -150l-412 377q-18 39 -18 105zM508 543q0 30 4.5 57.5t9.5 39.5l4 13l392 365q57 -45 79 -141l-274 -326l274 -324q-22 -96 -79 -141l-392 358q-18 38 -18 99z" />
<glyph unicode="&#xac;" horiz-adv-x="1245" d="M96 788q0 29 6 57t12 41l5 13h983v-553q-41 -22 -109 -22q-30 0 -57.5 5.5t-39.5 10.5l-13 6v336h-764q-23 45 -23 106z" />
<glyph unicode="&#xad;" horiz-adv-x="487" />
<glyph unicode="&#xae;" horiz-adv-x="1077" d="M90 965q0 186 131.5 317t317.5 131t317 -131t131 -317t-131 -317.5t-317 -131.5t-317.5 131.5t-131.5 317.5zM201 965q0 -141 99 -239.5t239 -98.5q141 0 239.5 98.5t98.5 239.5t-98.5 239.5t-239.5 98.5q-140 0 -239 -98.5t-99 -239.5zM377 750v456h190q73 0 118.5 -40 t45.5 -105q0 -46 -24 -82t-66 -51l119 -172q-31 -17 -70 -17q-16 0 -29.5 2.5t-19.5 5.5l-6 3l-117 165h-33v-165q-26 -11 -53 -11q-15 0 -28.5 2.5t-19.5 5.5zM485 1006h72q61 0 61 55t-61 55h-72v-110z" />
<glyph unicode="&#xaf;" horiz-adv-x="833" d="M72 1290q-22 80 0 148h661q24 -67 0 -148h-661z" />
<glyph unicode="&#xb0;" horiz-adv-x="710" d="M86 1264q0 106 73 186t199 80q125 0 196 -77.5t71 -182.5q0 -106 -71 -183t-196 -77q-130 0 -201 74.5t-71 179.5zM233 1266q0 -48 32 -83.5t91 -35.5q57 0 88 35.5t31 85.5t-31 86.5t-88 36.5q-58 0 -90.5 -37.5t-32.5 -87.5z" />
<glyph unicode="&#xb1;" horiz-adv-x="1036" d="M125 336q0 25 3.5 48.5t7.5 34.5l3 11h758q14 -37 14 -94q0 -25 -3.5 -48.5t-7.5 -34.5l-3 -11h-758q-14 37 -14 94zM125 823q0 25 3.5 49t7.5 35l3 11h285v223q37 14 94 14q25 0 48.5 -3.5t34.5 -7.5l11 -3v-223h285q14 -38 14 -95q0 -25 -3.5 -48.5t-7.5 -34.5l-3 -11 h-285v-223q-37 -14 -94 -14q-25 0 -48.5 3.5t-34.5 6.5l-11 4v223h-285q-14 37 -14 94z" />
<glyph unicode="&#xb2;" horiz-adv-x="616" d="M51 793q0 77 34 135t82 91t96 59t82 56.5t34 67.5q0 76 -119 76q-62 0 -123 -18q-49 52 -43 126q88 35 205 35q111 0 184.5 -53.5t73.5 -155.5q0 -60 -24.5 -104.5t-64.5 -73.5t-82.5 -52.5t-88.5 -55.5t-72 -68h297q15 -37 15 -76q0 -36 -15 -73h-463q-8 37 -8 84z" />
<glyph unicode="&#xb3;" horiz-adv-x="608" d="M51 743q0 80 47 121q66 -22 148 -22q125 0 125 84q0 42 -23.5 61t-79.5 19h-98q-24 68 0 137h98q82 0 82 63q0 74 -100 74q-32 0 -67 -5t-53 -10l-19 -5q-46 43 -43 122q77 39 196 39q121 0 191.5 -50t70.5 -140q0 -107 -84 -152q105 -46 105 -174q0 -207 -293 -207 q-58 0 -109 11t-73 23z" />
<glyph unicode="&#xb4;" horiz-adv-x="458" d="M33 1378l176 281q61 7 128 -21t95 -71l-256 -267q-99 17 -143 78z" />
<glyph unicode="&#xb5;" horiz-adv-x="1193" d="M166 -29v1090q45 16 129 16q40 0 72 -4t45 -8l12 -4v-725q0 -69 40 -108.5t124 -39.5q101 0 180 76v797q45 16 129 16q40 0 72 -4t45 -8l12 -4v-1045q-39 -16 -129 -16q-37 0 -69.5 4t-45.5 8l-14 4v39q-84 -75 -213 -75q-104 0 -174 59q14 -136 37.5 -260t39.5 -180 l17 -56q-50 -41 -138 -52t-144 11q-27 128 -27 469z" />
<glyph unicode="&#xb6;" horiz-adv-x="1333" d="M51 975q2 88 31.5 168.5t84.5 145.5t143 104t196 39h184v-1885q-34 -12 -100 -12q-31 0 -56.5 3t-35.5 6l-9 3v973q-107 2 -193 42t-138.5 104.5t-80 143.5t-26.5 165zM952 -453v1872q31 13 101 13q29 0 54 -3t35 -7l11 -3v-1872q-34 -12 -100 -12q-31 0 -56.5 3t-34.5 6 z" />
<glyph unicode="&#xb7;" horiz-adv-x="479" d="M129 483v199q33 16 111 16q32 0 59.5 -4t38.5 -8l12 -4v-199q-38 -16 -110 -16q-35 0 -62.5 4t-37.5 8z" />
<glyph unicode="&#xb8;" horiz-adv-x="606" d="M86 -412q-2 32 12 61t39 44q56 -27 125 -27q117 0 117 88q0 38 -24.5 61t-75.5 23h-80l-29 33l43 238l135 -37l-22 -125q109 0 157.5 -54.5t48.5 -146.5q0 -101 -68 -154t-188 -53q-56 0 -103.5 12.5t-66.5 24.5z" />
<glyph unicode="&#xb9;" horiz-adv-x="507" d="M37 1284q69 18 114.5 45t84.5 70q34 10 86 10q33 0 81 -10v-682q-45 -10 -81 -10q-54 0 -95 10v399q0 57 2 82q-63 -43 -147 -53q-24 24 -36 62t-9 77z" />
<glyph unicode="&#xba;" horiz-adv-x="763" d="M94 948q0 183 72.5 262.5t214.5 79.5t215.5 -79t73.5 -263t-73.5 -264t-215.5 -80q-143 0 -215 79.5t-72 264.5zM113 428q0 43 10 72h512q12 -34 12 -72q0 -40 -12 -78h-512q-10 31 -10 78zM276 948q0 -82 13 -126.5t34 -58t58 -13.5q36 0 56.5 13.5t33 58t12.5 126.5 q0 119 -24 160t-78 41q-37 0 -58 -14.5t-34 -59.5t-13 -127z" />
<glyph unicode="&#xbb;" horiz-adv-x="1093" d="M96 227l275 324l-275 326q22 95 80 141l391 -365q19 -42 19 -110q0 -27 -5 -52t-9 -36l-5 -11l-391 -358q-58 46 -80 141zM494 211l288 340l-288 342q21 98 84 149l411 -383q19 -44 19 -116q0 -29 -5 -55.5t-9 -37.5l-5 -12l-411 -377q-62 51 -84 150z" />
<glyph unicode="&#xbc;" horiz-adv-x="1396" d="M53 1284q69 18 114.5 45t84.5 70q34 10 86 10q34 0 82 -10v-682q-45 -10 -82 -10q-53 0 -94 10v399q0 57 2 82q-63 -43 -148 -53q-24 24 -36 62t-9 77zM209 -6l788 1429q31 15 97 15q29 0 53 -4t33 -8l10 -3l-791 -1429q-39 -14 -96 -14q-24 0 -47.5 3.5t-35.5 6.5z M752 215q0 34 8 55l319 420q41 12 84 12q45 0 82 -12v-407h76q10 -29 10 -64q0 -23 -10 -61h-76v-148q-36 -10 -74 -10q-39 0 -73 10v148h-336q-10 30 -10 57zM934 283h164v217z" />
<glyph unicode="&#xbd;" horiz-adv-x="1495" d="M53 1284q69 18 114.5 45t84.5 70q34 10 86 10q34 0 82 -10v-682q-45 -10 -82 -10q-53 0 -94 10v399q0 57 2 82q-63 -43 -148 -53q-24 24 -36 62t-9 77zM209 -6l788 1429q31 15 97 15q29 0 53 -4t33 -8l10 -3l-791 -1429q-39 -14 -96 -14q-24 0 -47.5 3.5t-35.5 6.5z M913 84q0 65 24.5 117.5t60.5 82.5t79 58t79 47t60.5 46t24.5 59q0 75 -113 75q-72 3 -129 -18q-49 52 -43 127q88 35 205 35q111 0 184.5 -53.5t73.5 -155.5q0 -60 -24.5 -104.5t-64.5 -73.5t-82.5 -52.5t-88.5 -55.5t-72 -68h297q15 -38 15 -76q0 -36 -15 -74h-462 q-9 37 -9 84z" />
<glyph unicode="&#xbe;" horiz-adv-x="1484" d="M80 743q0 80 47 121q65 -22 147 -22q125 0 125 84q0 42 -23 61t-79 19h-98q-24 68 0 137h98q82 0 82 63q0 74 -100 74q-32 0 -67 -5t-54 -10l-19 -5q-46 43 -43 122q78 39 197 39q121 0 191.5 -50t70.5 -140q0 -107 -84 -152q104 -46 104 -174q0 -207 -292 -207 q-58 0 -109 11t-72 23zM297 -6l788 1429q31 15 97 15q29 0 53 -4t33 -8l10 -3l-791 -1429q-39 -14 -96 -14q-24 0 -47.5 3.5t-35.5 6.5zM840 219q0 30 8 51l319 420q41 12 84 12q45 0 82 -12v-407h76q10 -29 10 -64q0 -23 -10 -61h-76v-148q-36 -10 -73 -10q-40 0 -74 10 v148h-336q-10 33 -10 61zM1022 283h164v217z" />
<glyph unicode="&#xbf;" horiz-adv-x="882" d="M63 25q0 81 19.5 143t51 101t69.5 70t76.5 58t70 57t51 75t19.5 104q28 14 96 14q28 0 53.5 -3.5t36.5 -7.5l12 -3q0 -86 -16 -152t-41.5 -105t-56 -69.5t-61 -55t-56 -51t-41.5 -68t-16 -97.5q0 -51 16 -86t46 -53t64.5 -25.5t80.5 -7.5q61 0 114.5 11.5t76.5 23.5 l24 12q91 -67 79 -184q-13 -8 -39 -20.5t-112.5 -33t-181.5 -20.5q-90 0 -166 20t-137.5 62.5t-96.5 116.5t-35 174zM389 813v236q45 16 129 16q40 0 72 -4t44 -8l13 -4v-236q-39 -16 -129 -16q-37 0 -69.5 4t-46.5 8z" />
<glyph unicode="&#xc0;" d="M33 18l489 1438q68 19 160 19q44 0 84 -4.5t58 -9.5l18 -5l489 -1438q-47 -18 -143 -18q-39 0 -71 4.5t-44 9.5l-12 4l-111 328h-559l-110 -328q-45 -18 -127 -18q-35 0 -65 4.5t-43 9.5zM422 1800q28 43 95 71t128 21l176 -280q-44 -61 -143 -78zM463 557h416l-140 416 q-19 56 -35 113t-22 86l-6 28h-8q-21 -104 -62 -227z" />
<glyph unicode="&#xc1;" d="M33 18l489 1438q68 19 160 19q44 0 84 -4.5t58 -9.5l18 -5l489 -1438q-47 -18 -143 -18q-39 0 -71 4.5t-44 9.5l-12 4l-111 328h-559l-110 -328q-45 -18 -127 -18q-35 0 -65 4.5t-43 9.5zM463 557h416l-140 416q-19 56 -35 113t-22 86l-6 28h-8q-21 -104 -62 -227z M559 1614l176 280q61 7 128 -21t95 -71l-256 -266q-99 17 -143 78z" />
<glyph unicode="&#xc2;" d="M33 18l489 1438q68 19 160 19q44 0 84 -4.5t58 -9.5l18 -5l489 -1438q-47 -18 -143 -18q-39 0 -71 4.5t-44 9.5l-12 4l-111 328h-559l-110 -328q-45 -18 -127 -18q-35 0 -65 4.5t-43 9.5zM352 1649l293 241h53l295 -241q-49 -89 -119 -111l-202 129l-201 -127 q-71 22 -119 109zM463 557h416l-140 416q-19 56 -35 113t-22 86l-6 28h-8q-21 -104 -62 -227z" />
<glyph unicode="&#xc3;" d="M33 18l489 1438q68 19 160 19q44 0 84 -4.5t58 -9.5l18 -5l489 -1438q-47 -18 -143 -18q-39 0 -71 4.5t-44 9.5l-12 4l-111 328h-559l-110 -328q-45 -18 -127 -18q-35 0 -65 4.5t-43 9.5zM367 1645q2 5 6.5 12.5t20.5 28t35.5 36t52 30t69.5 17.5q53 3 96.5 -15t79 -36 t70.5 -16q24 2 45 14.5t30 24.5l9 12q36 -9 68 -33t46 -55q-3 -5 -8 -12.5t-23.5 -27t-39 -34.5t-54.5 -29t-71 -16q-42 -3 -78 7.5t-56.5 24t-48 24t-55.5 8.5q-29 -2 -51 -14t-30 -24l-7 -11q-85 17 -106 84zM463 557h416l-140 416q-19 56 -35 113t-22 86l-6 28h-8 q-21 -104 -62 -227z" />
<glyph unicode="&#xc4;" d="M33 18l489 1438q68 19 160 19q44 0 84 -4.5t58 -9.5l18 -5l489 -1438q-47 -18 -143 -18q-39 0 -71 4.5t-44 9.5l-12 4l-111 328h-559l-110 -328q-45 -18 -127 -18q-35 0 -65 4.5t-43 9.5zM379 1550v199q34 14 110 14q32 0 59.5 -3.5t39.5 -7.5l12 -3v-199 q-39 -14 -111 -14q-34 0 -61.5 3.5t-37.5 6.5zM463 557h416l-140 416q-19 56 -35 113t-22 86l-6 28h-8q-21 -104 -62 -227zM750 1550v199q34 14 110 14q32 0 59.5 -3.5t39.5 -7.5l12 -3v-199q-39 -14 -111 -14q-34 0 -61.5 3.5t-38.5 6.5z" />
<glyph unicode="&#xc5;" d="M33 18l473 1391q-82 66 -82 182q0 108 74 169t178 61q102 0 178 -60.5t76 -169.5q0 -108 -76 -174l477 -1399q-47 -18 -143 -18q-39 0 -71 4.5t-44 9.5l-12 4l-111 328h-559l-110 -328q-45 -18 -127 -18q-35 0 -65 4.5t-43 9.5zM463 557h416l-140 416q-19 56 -35 113 t-22 86l-6 28h-8q-21 -104 -62 -227zM561 1591q0 -45 29.5 -76.5t83.5 -31.5q55 0 86 32.5t31 75.5q0 45 -31 77t-86 32q-54 0 -83.5 -32.5t-29.5 -76.5z" />
<glyph unicode="&#xc6;" horiz-adv-x="1785" d="M2 20l887 1455h776q22 -56 20.5 -109.5t-20.5 -101.5h-522v-414h420q40 -111 0 -211h-420v-428h543q20 -54 20 -111t-20 -100h-785v346h-426l-192 -326q-62 -20 -144 -20q-90 0 -137 20zM600 557h301v508z" />
<glyph unicode="&#xc7;" horiz-adv-x="1157" d="M106 737q0 371 158.5 564.5t462.5 193.5q101 0 189.5 -18t126.5 -36l38 -18q7 -43 -16 -102q-11 -28 -26.5 -50.5t-24.5 -30.5l-10 -9q-117 43 -248 43q-68 0 -122.5 -15t-103 -53t-80.5 -98t-50.5 -154.5t-18.5 -218.5t18.5 -217.5t50.5 -152.5t80.5 -95.5t102.5 -50.5 t123 -14q65 0 132 10.5t102 21.5l34 11q32 -29 57 -88q11 -25 16.5 -52.5t4.5 -41.5v-15q-15 -8 -43 -19t-121.5 -30.5t-194.5 -21.5l-14 -74q109 0 158 -54.5t49 -146.5q0 -101 -68 -154t-188 -53q-56 0 -104 12t-68 24l-19 13q-1 32 13 61t39 44q56 -27 125 -27 q116 0 116 88q0 38 -24.5 61t-75.5 23h-80l-29 33l29 160q-243 37 -369.5 227t-126.5 520z" />
<glyph unicode="&#xc8;" horiz-adv-x="1132" d="M166 0v1475h846q20 -52 20 -99q0 -62 -20 -112h-584v-414h481q21 -58 21 -102q0 -56 -21 -109h-481v-428h604q21 -58 21 -102q0 -57 -21 -109h-866zM336 1800q28 43 95 71t128 21l176 -280q-44 -61 -143 -78z" />
<glyph unicode="&#xc9;" horiz-adv-x="1132" d="M166 0v1475h846q20 -52 20 -99q0 -62 -20 -112h-584v-414h481q21 -58 21 -102q0 -56 -21 -109h-481v-428h604q21 -58 21 -102q0 -57 -21 -109h-866zM428 1616l176 280q61 7 128 -21t95 -71l-256 -266q-99 17 -143 78z" />
<glyph unicode="&#xca;" horiz-adv-x="1134" d="M168 0v1475h846q20 -52 20 -99q0 -62 -20 -112h-584v-414h481q21 -58 21 -102q0 -56 -21 -109h-481v-428h604q21 -58 21 -102q0 -57 -21 -109h-866zM272 1649l293 241h53l295 -241q-49 -89 -118 -111l-203 129l-201 -127q-71 22 -119 109z" />
<glyph unicode="&#xcb;" horiz-adv-x="1134" d="M168 0v1475h846q20 -52 20 -99q0 -62 -20 -112h-584v-414h481q21 -58 21 -102q0 -56 -21 -109h-481v-428h604q21 -58 21 -102q0 -57 -21 -109h-866zM285 1550v199q34 14 110 14q32 0 59.5 -3.5t39.5 -7.5l12 -3v-199q-39 -14 -111 -14q-34 0 -61.5 3.5t-37.5 6.5z M655 1550v199q35 14 111 14q32 0 59.5 -3.5t39.5 -7.5l12 -3v-199q-39 -14 -111 -14q-34 0 -61.5 3.5t-38.5 6.5z" />
<glyph unicode="&#xcc;" horiz-adv-x="589" d="M47 1800q28 43 95 71t128 21l176 -280q-44 -61 -143 -78zM164 18v1438q43 19 129 19q39 0 72.5 -4.5t46.5 -9.5l14 -5v-1438q-47 -18 -131 -18q-42 0 -74.5 4.5t-44.5 9.5z" />
<glyph unicode="&#xcd;" horiz-adv-x="589" d="M119 1616l176 280q61 7 128 -21t95 -71l-256 -266q-99 17 -143 78zM164 18v1438q43 19 129 19q39 0 72.5 -4.5t46.5 -9.5l14 -5v-1438q-47 -18 -131 -18q-42 0 -74.5 4.5t-44.5 9.5z" />
<glyph unicode="&#xce;" horiz-adv-x="589" d="M-25 1649l293 241h54l294 -241q-49 -89 -118 -111l-203 129l-201 -127q-71 22 -119 109zM164 18v1438q43 19 129 19q39 0 72.5 -4.5t46.5 -9.5l14 -5v-1438q-47 -18 -131 -18q-42 0 -74.5 4.5t-44.5 9.5z" />
<glyph unicode="&#xcf;" horiz-adv-x="589" d="M0 1550v199q35 14 111 14q32 0 59.5 -3.5t39.5 -7.5l11 -3v-199q-38 -14 -110 -14q-34 0 -61.5 3.5t-38.5 6.5zM164 18v1438q43 19 129 19q39 0 72.5 -4.5t46.5 -9.5l14 -5v-1438q-47 -18 -131 -18q-42 0 -74.5 4.5t-44.5 9.5zM371 1550v199q34 14 110 14q32 0 59.5 -3.5 t39.5 -7.5l12 -3v-199q-39 -14 -111 -14q-34 0 -61.5 3.5t-37.5 6.5z" />
<glyph unicode="&#xd0;" horiz-adv-x="1402" d="M38 733q0 50 11 84h158v658h481q606 0 606 -738q0 -737 -606 -737h-481v643h-158q-11 40 -11 90zM469 217h201q64 0 112.5 12.5t94 46.5t74.5 91t46 150t17 220t-17 220.5t-46 150.5t-74.5 91t-94 46t-112.5 12h-201v-440h266q12 -36 11.5 -87t-11.5 -87h-266v-426z" />
<glyph unicode="&#xd1;" horiz-adv-x="1435" d="M166 18v1438q56 19 158 19q46 0 85 -4.5t55 -9.5l15 -5l422 -819q36 -65 70 -142t51 -121l16 -44h9q-17 172 -17 381v745q37 19 123 19q38 0 68 -4.5t41 -9.5l10 -5v-1438q-50 -18 -154 -18q-45 0 -85 4.5t-57 9.5l-18 4l-426 824q-35 64 -68 139t-49 119l-16 43h-8 q17 -162 17 -375v-750q-39 -18 -123 -18q-36 0 -66 4.5t-41 9.5zM434 1667q3 4 9 11t25.5 25.5t41.5 32t57 25t72 11.5q53 0 93 -16.5t72.5 -33t67.5 -16.5q29 0 54.5 13t35.5 27l11 13q34 -15 59 -48t31 -69q-3 -4 -9 -11t-25.5 -25t-41.5 -32t-57 -25t-72 -11 q-53 0 -93 16.5t-72.5 33t-67.5 16.5q-29 0 -54.5 -13.5t-36.5 -26.5l-10 -14q-78 43 -90 117z" />
<glyph unicode="&#xd2;" horiz-adv-x="1396" d="M106 737q0 382 156.5 570t435.5 188q280 0 436 -186.5t156 -571.5q0 -387 -154 -572t-438 -185t-438 185t-154 572zM383 737q0 -127 15 -222t41.5 -155t67 -97t86.5 -51.5t105 -14.5q77 0 131.5 24t98 83t65 167t21.5 266q0 128 -14.5 223t-40.5 155.5t-66.5 97t-87 51 t-107.5 14.5q-75 0 -129.5 -24t-98 -83t-65.5 -167t-22 -267zM481 1800q28 43 95.5 71t128.5 21l176 -280q-44 -61 -144 -78z" />
<glyph unicode="&#xd3;" horiz-adv-x="1396" d="M106 737q0 382 156.5 570t435.5 188q280 0 436 -186.5t156 -571.5q0 -387 -154 -572t-438 -185t-438 185t-154 572zM383 737q0 -127 15 -222t41.5 -155t67 -97t86.5 -51.5t105 -14.5q77 0 131.5 24t98 83t65 167t21.5 266q0 128 -14.5 223t-40.5 155.5t-66.5 97t-87 51 t-107.5 14.5q-75 0 -129.5 -24t-98 -83t-65.5 -167t-22 -267zM635 1669l176 281q61 7 128 -21t95 -71l-256 -267q-99 17 -143 78z" />
<glyph unicode="&#xd4;" horiz-adv-x="1396" d="M106 737q0 382 156.5 570t435.5 188q280 0 436 -186.5t156 -571.5q0 -387 -154 -572t-438 -185t-438 185t-154 572zM381 1649l293 241h53l295 -241q-49 -89 -119 -111l-203 129l-200 -127q-71 22 -119 109zM383 737q0 -127 15 -222t41.5 -155t67 -97t86.5 -51.5 t105 -14.5q77 0 131.5 24t98 83t65 167t21.5 266q0 128 -14.5 223t-40.5 155.5t-66.5 97t-87 51t-107.5 14.5q-75 0 -129.5 -24t-98 -83t-65.5 -167t-22 -267z" />
<glyph unicode="&#xd5;" horiz-adv-x="1396" d="M106 737q0 382 156.5 570t435.5 188q280 0 436 -186.5t156 -571.5q0 -387 -154 -572t-438 -185t-438 185t-154 572zM383 737q0 -127 15 -222t41.5 -155t67 -97t86.5 -51.5t105 -14.5q77 0 131.5 24t98 83t65 167t21.5 266q0 128 -14.5 223t-40.5 155.5t-66.5 97t-87 51 t-107.5 14.5q-75 0 -129.5 -24t-98 -83t-65.5 -167t-22 -267zM393 1688q3 4 8.5 11.5t24.5 26t40.5 32.5t56 26.5t71.5 13.5q68 2 132.5 -28t102.5 -29q29 1 54 15t35 28l10 14q34 -13 60 -46t34 -69q-3 -4 -8.5 -11.5t-24.5 -26t-40.5 -32.5t-56 -26.5t-71.5 -13.5 q-53 -2 -123.5 28t-111.5 29q-29 -1 -54 -15t-35 -28l-10 -14q-79 39 -94 115z" />
<glyph unicode="&#xd6;" horiz-adv-x="1396" d="M106 737q0 382 156.5 570t435.5 188q280 0 436 -186.5t156 -571.5q0 -387 -154 -572t-438 -185t-438 185t-154 572zM383 737q0 -127 15 -222t41.5 -155t67 -97t86.5 -51.5t105 -14.5q77 0 131.5 24t98 83t65 167t21.5 266q0 128 -14.5 223t-40.5 155.5t-66.5 97t-87 51 t-107.5 14.5q-75 0 -129.5 -24t-98 -83t-65.5 -167t-22 -267zM408 1571v198q34 15 110 15q32 0 60 -4t40 -8l11 -3v-198q-39 -15 -111 -15q-34 0 -61.5 4t-38.5 8zM778 1571v198q35 15 111 15q32 0 59.5 -4t39.5 -8l11 -3v-198q-38 -15 -110 -15q-34 0 -61.5 4t-38.5 8z" />
<glyph unicode="&#xd7;" horiz-adv-x="974" d="M113 350l241 242l-241 242q14 36 55 77q18 18 37.5 32t30.5 19l10 5l241 -242l242 242q37 -15 78 -56q18 -18 32 -37.5t19 -29.5l4 -10l-241 -242l241 -242q-14 -37 -55 -78q-18 -18 -37.5 -32t-29.5 -18l-11 -5l-242 242l-241 -242q-37 14 -78 55q-18 18 -32 37.5 t-18 30.5z" />
<glyph unicode="&#xd8;" horiz-adv-x="1394" d="M104 737q0 382 156.5 570t435.5 188q178 0 301 -72l93 150q49 0 97 -23t79 -57l-121 -199q143 -191 143 -557q0 -387 -154 -572t-438 -185q-181 0 -309 73l-92 -151q-115 0 -178 82l125 202q-138 196 -138 551zM381 737q0 -169 27 -280l469 768q-67 53 -181 53 q-75 0 -129.5 -24t-98 -83t-65.5 -167t-22 -267zM512 256q67 -59 184 -59q77 0 131.5 24t98 83t65 167t21.5 266q0 174 -29 293z" />
<glyph unicode="&#xd9;" horiz-adv-x="1378" d="M156 516v940q43 19 129 19q39 0 72.5 -4.5t46.5 -9.5l14 -5v-981q0 -130 71.5 -202t202.5 -72t202 72t71 202v981q41 19 127 19q38 0 71 -4.5t47 -9.5l13 -5v-940q0 -255 -144 -395.5t-391 -140.5q-245 0 -388.5 142.5t-143.5 393.5zM428 1800q28 43 95 71t128 21 l176 -280q-44 -61 -143 -78z" />
<glyph unicode="&#xda;" horiz-adv-x="1378" d="M156 516v940q43 19 129 19q39 0 72.5 -4.5t46.5 -9.5l14 -5v-981q0 -130 71.5 -202t202.5 -72t202 72t71 202v981q41 19 127 19q38 0 71 -4.5t47 -9.5l13 -5v-940q0 -255 -144 -395.5t-391 -140.5q-245 0 -388.5 142.5t-143.5 393.5zM541 1616l176 280q61 7 128 -21 t95 -71l-256 -266q-99 17 -143 78z" />
<glyph unicode="&#xdb;" horiz-adv-x="1378" d="M156 516v940q43 19 129 19q39 0 72.5 -4.5t46.5 -9.5l14 -5v-981q0 -130 71.5 -202t202.5 -72t202 72t71 202v981q41 19 127 19q38 0 71 -4.5t47 -9.5l13 -5v-940q0 -255 -144 -395.5t-391 -140.5q-245 0 -388.5 142.5t-143.5 393.5zM391 1649l293 241h53l295 -241 q-49 -89 -119 -111l-202 129l-201 -127q-71 22 -119 109z" />
<glyph unicode="&#xdc;" horiz-adv-x="1378" d="M156 516v940q43 19 129 19q39 0 72.5 -4.5t46.5 -9.5l14 -5v-981q0 -130 71.5 -202t202.5 -72t202 72t71 202v981q41 19 127 19q38 0 71 -4.5t47 -9.5l13 -5v-940q0 -255 -144 -395.5t-391 -140.5q-245 0 -388.5 142.5t-143.5 393.5zM399 1550v199q35 14 111 14 q32 0 59.5 -3.5t39.5 -7.5l12 -3v-199q-39 -14 -111 -14q-34 0 -61.5 3.5t-38.5 6.5zM770 1550v199q35 14 111 14q32 0 59.5 -3.5t39.5 -7.5l11 -3v-199q-38 -14 -110 -14q-34 0 -61.5 3.5t-38.5 6.5z" />
<glyph unicode="&#xdd;" horiz-adv-x="1314" d="M33 1456q56 19 160 19q42 0 78.5 -4.5t52.5 -9.5l16 -5l334 -579l338 579q47 19 135 19q37 0 73.5 -4.5t53.5 -9.5l18 -5l-506 -842v-596q-43 -18 -127 -18q-42 0 -75.5 4.5t-46.5 9.5l-13 4v590zM520 1616l176 280q61 7 128.5 -21t95.5 -71l-256 -266q-100 17 -144 78z " />
<glyph unicode="&#xde;" horiz-adv-x="1245" d="M164 18v1438q43 19 129 19q39 0 72.5 -4.5t46.5 -9.5l14 -5v-248h287q206 0 331 -123t125 -325t-125 -325.5t-331 -123.5h-287v-293q-47 -18 -131 -18q-42 0 -74.5 4.5t-44.5 9.5zM426 528h250q106 0 162.5 60.5t56.5 171.5t-56 171t-163 60h-250v-463z" />
<glyph unicode="&#xdf;" horiz-adv-x="1171" d="M135 16v1123q0 200 117 298.5t334 98.5q102 0 182.5 -29t130.5 -79t75.5 -114t24.5 -138q0 -98 -43 -191q-7 -1 -18.5 -4t-41 -16t-52.5 -30.5t-41.5 -50t-18.5 -71.5q0 -46 24.5 -84.5t60.5 -65t79 -61t79 -70.5t60.5 -96t24.5 -135q0 -161 -96.5 -241t-259.5 -80 q-63 0 -122.5 10t-87.5 20l-28 10q-12 103 53 177q71 -23 144 -23q67 0 110 28t43 91q0 35 -18.5 66t-47.5 56t-64 51t-70.5 57t-64.5 66t-47.5 85.5t-18.5 109.5t19 110t46 81.5t54 52.5t46 30l19 9q20 58 20 102q-2 72 -42.5 118t-114.5 46q-96 0 -143.5 -47t-47.5 -147 v-1123q-45 -16 -129 -16q-40 0 -72 4t-44 8z" />
<glyph unicode="&#xe0;" horiz-adv-x="1058" d="M72 334q0 169 101.5 247t297.5 78q105 0 203 -10v58q0 82 -41.5 128t-143.5 46q-60 0 -125.5 -12.5t-101.5 -24.5l-35 -13q-32 21 -57 76q-11 24 -15 51.5t-3 42.5l2 15q6 3 17.5 8.5t49.5 20t78 25t101 19.5t122 9q220 0 315 -92t95 -289v-701q-29 -16 -101 -16 q-28 0 -54 4t-38 8l-12 4l-39 111q-72 -147 -299 -147q-150 0 -233.5 89t-83.5 265zM236 1499q28 43 95 71t128 21l176 -280q-44 -61 -143 -78zM338 334q0 -84 37.5 -121t109.5 -37q51 0 89.5 22t59 58.5t30.5 77t10 84.5v61q-102 8 -170 8q-166 0 -166 -153z" />
<glyph unicode="&#xe1;" horiz-adv-x="1058" d="M72 334q0 169 101.5 247t297.5 78q105 0 203 -10v56q0 85 -40.5 130.5t-144.5 45.5q-60 0 -125.5 -12.5t-101.5 -24.5l-35 -13q-32 21 -57 76q-11 24 -15 51.5t-3 42.5l2 15q6 3 17.5 8.5t49.5 20t78 25t101 19.5t122 9q220 0 315 -92t95 -289v-701q-29 -16 -101 -16 q-28 0 -54 4t-38 8l-12 4l-39 111q-72 -147 -299 -147q-150 0 -233.5 89t-83.5 265zM338 334q0 -84 37.5 -121t109.5 -37q51 0 89.5 22t59 58.5t30.5 77t10 84.5v61q-102 8 -170 8q-166 0 -166 -153zM360 1311l177 280q61 7 128 -21t95 -71l-256 -266q-100 17 -144 78z" />
<glyph unicode="&#xe2;" horiz-adv-x="1058" d="M72 334q0 169 101.5 247t297.5 78q105 0 203 -10v64q0 82 -42 125t-143 43q-60 0 -125.5 -12.5t-101.5 -24.5l-35 -13q-32 21 -57 76q-11 24 -15 51.5t-3 42.5l2 15q6 3 17.5 8.5t49.5 20t78 25t101 19.5t122 9q220 0 315 -92t95 -289v-701q-29 -16 -101 -16q-28 0 -54 4 t-38 8l-12 4l-39 111q-72 -147 -299 -147q-150 0 -233.5 89t-83.5 265zM227 1341l287 236h51l289 -236q-47 -86 -117 -108l-196 125l-197 -123q-71 22 -117 106zM338 334q0 -84 37.5 -121t109.5 -37q51 0 89.5 22t59 58.5t30.5 77t10 84.5v61q-102 8 -170 8 q-166 0 -166 -153z" />
<glyph unicode="&#xe3;" horiz-adv-x="1058" d="M72 334q0 169 101.5 247t297.5 78q105 0 203 -10v70q0 85 -41.5 123.5t-143.5 38.5q-60 0 -125.5 -12.5t-101.5 -24.5l-35 -13q-32 21 -57 76q-11 24 -15 51.5t-3 42.5l2 15q6 3 17.5 8.5t49.5 20t78 25t101 19.5t122 9q220 0 315 -92t95 -289v-701q-29 -16 -101 -16 q-28 0 -54 4t-38 8l-12 4l-39 111q-72 -147 -299 -147q-150 0 -233.5 89t-83.5 265zM221 1366q3 4 9 11t25.5 25t41.5 32t57 25t72 11q53 0 93 -16.5t72.5 -32.5t67.5 -16q29 0 54.5 13.5t36.5 26.5l10 13q34 -15 59 -48t31 -69q-3 -4 -9 -11t-25.5 -25t-41.5 -32t-57 -25 t-72 -11q-53 0 -93 16.5t-72.5 33t-67.5 16.5q-29 0 -54.5 -13.5t-35.5 -27.5l-11 -13q-78 43 -90 117zM338 334q0 -84 37.5 -121t109.5 -37q51 0 89.5 22t59 58.5t30.5 77t10 84.5v61q-102 8 -170 8q-166 0 -166 -153z" />
<glyph unicode="&#xe4;" horiz-adv-x="1058" d="M72 334q0 169 101.5 247t297.5 78q105 0 203 -10v60q0 172 -185 172q-60 0 -125.5 -12.5t-101.5 -24.5l-35 -13q-32 21 -57 76q-11 24 -15 51.5t-3 42.5l2 15q6 3 17.5 8.5t49.5 20t78 25t101 19.5t122 9q220 0 315 -92t95 -289v-701q-29 -16 -101 -16q-28 0 -54 4t-38 8 l-12 4l-39 111q-72 -147 -299 -147q-150 0 -233.5 89t-83.5 265zM244 1247v199q34 14 110 14q32 0 59.5 -3.5t39.5 -6.5l12 -4v-199q-39 -14 -111 -14q-34 0 -61.5 3.5t-38.5 7.5zM338 334q0 -84 37.5 -121t109.5 -37q51 0 89.5 22t59 58.5t30.5 77t10 84.5v61 q-102 8 -170 8q-166 0 -166 -153zM614 1247v199q35 14 111 14q32 0 59.5 -3.5t39.5 -6.5l12 -4v-199q-39 -14 -111 -14q-34 0 -61.5 3.5t-38.5 7.5z" />
<glyph unicode="&#xe5;" horiz-adv-x="1058" d="M72 334q0 169 101.5 247t297.5 78q105 0 203 -10v53q0 89 -40.5 134t-144.5 45q-60 0 -125.5 -12.5t-101.5 -24.5l-35 -13q-32 21 -57 76q-11 24 -15 51.5t-3 42.5l2 15q6 3 17.5 8.5t49.5 20t78 25t101 19.5t122 9q220 0 315 -92t95 -289v-701q-29 -16 -101 -16 q-28 0 -54 4t-38 8l-12 4l-39 111q-72 -147 -299 -147q-150 0 -233.5 89t-83.5 265zM283 1415q0 102 74.5 160.5t177.5 58.5q65 0 121 -23.5t94 -75t38 -120.5q0 -105 -73.5 -165t-182.5 -60t-179 60t-70 165zM338 334q0 -84 37.5 -121t109.5 -37q51 0 89.5 22t59 58.5 t30.5 77t10 84.5v61q-102 8 -170 8q-166 0 -166 -153zM430 1415q0 -39 27 -66.5t75 -27.5q51 0 79 28t28 66q0 39 -28 65.5t-79 26.5q-48 0 -75 -27t-27 -65z" />
<glyph unicode="&#xe6;" horiz-adv-x="1564" d="M68 334q0 168 98 240.5t297 72.5h182v72q0 85 -38 123.5t-134 38.5q-57 0 -119.5 -12.5t-96.5 -24.5l-34 -13q-67 70 -73 185l17 8.5t47.5 20t75.5 25t98 19.5t118 9q203 0 293 -131q118 131 282 131q192 0 300 -105.5t108 -318.5q0 -53 -5.5 -103.5t-11.5 -74.5l-6 -25 h-575q13 -152 74 -219.5t168 -67.5q58 0 115 12t84 24l28 11q62 -56 72 -168q-4 -3 -13 -9t-39.5 -20t-66 -25t-94.5 -20t-123 -9q-77 0 -142 20.5t-105.5 53.5t-63.5 59.5t-37 52.5q-10 -19 -23 -38.5t-42 -47.5t-64 -49t-90 -36t-119 -15q-170 0 -256 89.5t-86 264.5z M334 328q0 -152 127 -152q92 0 138 65t46 160v72h-149q-89 0 -125.5 -32.5t-36.5 -112.5zM893 647h336q4 29 4 58q0 58 -11.5 98t-46.5 67t-94 27q-79 0 -127 -57.5t-61 -192.5z" />
<glyph unicode="&#xe7;" horiz-adv-x="913" d="M90 539q0 559 461 559q94 0 165.5 -13.5t96.5 -26.5l25 -14q-3 -101 -72 -170q-70 27 -172 27q-129 0 -184.5 -87.5t-55.5 -274.5q0 -184 59 -269.5t189 -85.5q46 0 92 7t69 15l23 7q66 -59 72 -170q-3 -2 -10 -6t-32 -14.5t-55 -18.5t-80.5 -15.5t-107.5 -8.5l-14 -84 q109 0 158 -54.5t49 -146.5q0 -101 -68 -154t-188 -53q-56 0 -104 12t-68 24l-19 13q-1 32 13 61t39 44q56 -27 125 -27q116 0 116 88q0 38 -24.5 61t-75.5 23h-80l-29 33l31 170q-344 66 -344 549z" />
<glyph unicode="&#xe8;" horiz-adv-x="1056" d="M90 545q0 281 123 417t344 136q197 0 308.5 -105.5t111.5 -318.5q0 -58 -5.5 -112t-11.5 -78l-6 -25h-600q13 -148 75.5 -205t178.5 -57q61 0 119.5 12.5t86.5 24.5l28 12q33 -32 55 -81t23 -102q-5 -3 -14.5 -9t-43 -20t-71 -25t-97 -20t-123.5 -9q-247 0 -364 141.5 t-117 423.5zM295 1499q28 43 95 71t128 21l176 -280q-44 -61 -143 -78zM356 637h361q4 46 4 68q0 192 -164 192q-176 0 -201 -260z" />
<glyph unicode="&#xe9;" horiz-adv-x="1056" d="M90 545q0 281 123 417t344 136q197 0 308.5 -105.5t111.5 -318.5q0 -58 -5.5 -112t-11.5 -78l-6 -25h-600q13 -148 75.5 -205t178.5 -57q61 0 119.5 12.5t86.5 24.5l28 12q33 -32 55 -81t23 -102q-5 -3 -14.5 -9t-43 -20t-71 -25t-97 -20t-123.5 -9q-247 0 -364 141.5 t-117 423.5zM356 637h361q4 46 4 68q0 192 -164 192q-176 0 -201 -260zM369 1311l176 280q61 7 128 -21t95 -71l-256 -266q-99 17 -143 78z" />
<glyph unicode="&#xea;" horiz-adv-x="1056" d="M90 545q0 281 123 417t344 136q197 0 308.5 -105.5t111.5 -318.5q0 -58 -5.5 -112t-11.5 -78l-6 -25h-600q13 -148 75.5 -205t178.5 -57q61 0 119.5 12.5t86.5 24.5l28 12q33 -32 55 -81t23 -102q-5 -3 -14.5 -9t-43 -20t-71 -25t-97 -20t-123.5 -9q-247 0 -364 141.5 t-117 423.5zM236 1341l286 236h51l289 -236q-47 -86 -117 -108l-196 125l-197 -123q-70 22 -116 106zM356 637h361q4 46 4 68q0 192 -164 192q-176 0 -201 -260z" />
<glyph unicode="&#xeb;" horiz-adv-x="1056" d="M90 545q0 281 123 417t344 136q197 0 308.5 -105.5t111.5 -318.5q0 -58 -5.5 -112t-11.5 -78l-6 -25h-600q13 -148 75.5 -205t178.5 -57q61 0 119.5 12.5t86.5 24.5l28 12q33 -32 55 -81t23 -102q-5 -3 -14.5 -9t-43 -20t-71 -25t-97 -20t-123.5 -9q-247 0 -364 141.5 t-117 423.5zM252 1247v199q34 14 110 14q32 0 59.5 -3.5t39.5 -6.5l12 -4v-199q-39 -14 -111 -14q-34 0 -61.5 3.5t-38.5 7.5zM356 637h361q4 46 4 68q0 192 -164 192q-176 0 -201 -260zM623 1247v199q34 14 110 14q32 0 59.5 -3.5t39.5 -6.5l12 -4v-199q-39 -14 -111 -14 q-34 0 -61.5 3.5t-37.5 7.5z" />
<glyph unicode="&#xec;" horiz-adv-x="532" d="M6 1503q28 43 95 71t128 21l177 -280q-44 -61 -144 -78zM137 16v1045q39 16 129 16q37 0 69.5 -4t46.5 -8l13 -4v-1045q-45 -16 -129 -16q-40 0 -72 4t-44 8z" />
<glyph unicode="&#xed;" horiz-adv-x="532" d="M111 1311l176 280q61 7 128 -21t95 -71l-256 -266q-99 17 -143 78zM137 16v1045q39 16 129 16q37 0 69.5 -4t46.5 -8l13 -4v-1045q-45 -16 -129 -16q-40 0 -72 4t-44 8z" />
<glyph unicode="&#xee;" horiz-adv-x="532" d="M-45 1341l287 236h51l289 -236q-47 -86 -117 -108l-197 125l-196 -123q-71 22 -117 106zM137 16v1045q39 16 129 16q37 0 69.5 -4t46.5 -8l13 -4v-1045q-45 -16 -129 -16q-40 0 -72 4t-44 8z" />
<glyph unicode="&#xef;" horiz-adv-x="532" d="M-35 1247v199q35 14 111 14q32 0 59.5 -3.5t38.5 -6.5l12 -4v-199q-38 -14 -110 -14q-34 0 -61.5 3.5t-38.5 7.5zM137 16v1045q39 16 129 16q37 0 69.5 -4t46.5 -8l13 -4v-1045q-45 -16 -129 -16q-40 0 -72 4t-44 8zM336 1247v199q34 14 110 14q32 0 59.5 -3.5t39.5 -6.5 l12 -4v-199q-39 -14 -111 -14q-34 0 -61.5 3.5t-38.5 7.5z" />
<glyph unicode="&#xf0;" horiz-adv-x="1140" d="M90 516q0 537 451 537q128 0 217 -58q-52 142 -166 234l-219 -139q-67 58 -86 131l153 96q-83 36 -178 59q-7 106 53 160q169 -24 310 -102l170 108q60 -48 84 -131l-117 -74q136 -122 210.5 -301t74.5 -407q0 -149 -21.5 -261t-61 -185.5t-101 -119t-134.5 -64.5 t-168 -19q-228 0 -349.5 126.5t-121.5 409.5zM356 516q0 -82 9.5 -142.5t26.5 -98t43.5 -60t56 -31t69.5 -8.5q50 0 85.5 14.5t64.5 50.5t43 104.5t14 170.5q0 104 -14 173t-43 104.5t-64 49t-86 13.5q-40 0 -69.5 -8.5t-56 -31t-43.5 -60t-26.5 -98t-9.5 -142.5z" />
<glyph unicode="&#xf1;" horiz-adv-x="1122" d="M133 16v1045q39 16 129 16q37 0 69.5 -4t46.5 -8l13 -4v-62q108 99 281 99q154 0 237.5 -85t83.5 -227v-770q-45 -16 -129 -16q-40 0 -72 4t-44 8l-13 4v725q0 69 -40 108.5t-124 39.5q-101 0 -180 -76v-797q-45 -16 -129 -16q-40 0 -72 4t-44 8zM231 1362q3 4 9 11 t25.5 25t41.5 32t57 25t72 11q53 0 93.5 -16.5t73 -32.5t67.5 -16q29 0 54 13.5t36 26.5l10 13q34 -15 59 -48t31 -69q-3 -4 -9 -11t-25.5 -25t-41.5 -32t-57 -25t-72 -11q-53 0 -93 16.5t-72.5 32.5t-67.5 16q-29 0 -54 -13t-36 -27l-10 -13q-79 43 -91 117z" />
<glyph unicode="&#xf2;" horiz-adv-x="1122" d="M90 539q0 293 122 426t349 133q228 0 349.5 -132.5t121.5 -426.5q0 -293 -122 -426t-349 -133t-349 133t-122 426zM244 1499q28 43 95 71t128 21l176 -280q-44 -61 -143 -78zM354 539q0 -106 14.5 -179t43 -112.5t64 -55.5t85.5 -16t85.5 16t63.5 55.5t42 112t14 179.5 t-14 179t-42 111.5t-63.5 55.5t-85.5 16t-85.5 -16t-64 -55.5t-43 -112t-14.5 -178.5z" />
<glyph unicode="&#xf3;" horiz-adv-x="1122" d="M90 539q0 293 122 426t349 133q228 0 349.5 -132.5t121.5 -426.5q0 -293 -122 -426t-349 -133t-349 133t-122 426zM354 539q0 -106 14.5 -179t43 -112.5t64 -55.5t85.5 -16t85.5 16t63.5 55.5t42 112t14 179.5t-14 179t-42 111.5t-63.5 55.5t-85.5 16t-85.5 -16 t-64 -55.5t-43 -112t-14.5 -178.5zM369 1311l176 280q61 7 128 -21t95 -71l-256 -266q-99 17 -143 78z" />
<glyph unicode="&#xf4;" horiz-adv-x="1122" d="M90 539q0 293 122 426t349 133q228 0 349.5 -132.5t121.5 -426.5q0 -293 -122 -426t-349 -133t-349 133t-122 426zM236 1341l286 236h51l289 -236q-47 -86 -117 -108l-196 125l-197 -123q-70 22 -116 106zM354 539q0 -106 14.5 -179t43 -112.5t64 -55.5t85.5 -16t85.5 16 t63.5 55.5t42 112t14 179.5t-14 179t-42 111.5t-63.5 55.5t-85.5 16t-85.5 -16t-64 -55.5t-43 -112t-14.5 -178.5z" />
<glyph unicode="&#xf5;" horiz-adv-x="1122" d="M90 539q0 293 122 426t349 133q228 0 349.5 -132.5t121.5 -426.5q0 -293 -122 -426t-349 -133t-349 133t-122 426zM229 1362q3 4 9 11t25.5 25t41.5 32t57 25t72 11q53 0 93.5 -16.5t73 -32.5t67.5 -16q29 0 54 13.5t36 26.5l10 13q34 -15 59 -48t31 -69q-3 -4 -9 -11 t-25.5 -25t-41.5 -32t-57 -25t-72 -11q-53 0 -93 16.5t-72.5 32.5t-67.5 16q-29 0 -54.5 -13t-35.5 -27l-11 -13q-78 43 -90 117zM354 539q0 -106 14.5 -179t43 -112.5t64 -55.5t85.5 -16t85.5 16t63.5 55.5t42 112t14 179.5t-14 179t-42 111.5t-63.5 55.5t-85.5 16 t-85.5 -16t-64 -55.5t-43 -112t-14.5 -178.5z" />
<glyph unicode="&#xf6;" horiz-adv-x="1122" d="M90 539q0 293 122 426t349 133q228 0 349.5 -132.5t121.5 -426.5q0 -293 -122 -426t-349 -133t-349 133t-122 426zM252 1247v199q34 14 110 14q32 0 59.5 -3.5t39.5 -6.5l12 -4v-199q-39 -14 -111 -14q-34 0 -61.5 3.5t-38.5 7.5zM354 539q0 -106 14.5 -179t43 -112.5 t64 -55.5t85.5 -16t85.5 16t63.5 55.5t42 112t14 179.5t-14 179t-42 111.5t-63.5 55.5t-85.5 16t-85.5 -16t-64 -55.5t-43 -112t-14.5 -178.5zM623 1247v199q34 14 110 14q32 0 59.5 -3.5t39.5 -6.5l12 -4v-199q-39 -14 -111 -14q-34 0 -61.5 3.5t-37.5 7.5z" />
<glyph unicode="&#xf7;" horiz-adv-x="1079" d="M94 594q0 25 4 48.5t8 34.5l3 11h862q14 -37 14 -94q0 -25 -3.5 -48.5t-7.5 -34.5l-3 -11h-862q-15 37 -15 94zM412 143v236q39 16 129 16q37 0 69.5 -4t45.5 -8l14 -4v-236q-45 -16 -129 -16q-40 0 -72.5 4t-44.5 8zM412 809v235q39 17 129 17q37 0 69.5 -4.5t45.5 -8.5 l14 -4v-235q-45 -16 -129 -16q-40 0 -72.5 4t-44.5 8z" />
<glyph unicode="&#xf8;" horiz-adv-x="1120" d="M88 539q0 293 122 426t349 133q132 0 221 -41l74 119q39 0 78 -20.5t65 -47.5l-88 -143q121 -140 121 -426q0 -293 -122 -426t-349 -133q-129 0 -227 43l-76 -125q-91 0 -145 67l94 154q-117 139 -117 420zM352 539q0 -89 13 -162l303 495q-45 29 -109 29 q-50 0 -85.5 -16t-64 -55.5t-43 -112t-14.5 -178.5zM446 209q41 -33 113 -33q50 0 85.5 16t63.5 55.5t42 112t14 179.5q0 101 -12 168z" />
<glyph unicode="&#xf9;" horiz-adv-x="1120" d="M127 291v770q45 16 129 16q40 0 72 -4t44 -8l13 -4v-725q0 -69 40 -108.5t124 -39.5q104 0 180 76v797q45 16 129 16q40 0 72 -4t44 -8l13 -4v-1045q-39 -16 -129 -16q-37 0 -69.5 4t-46.5 8l-13 4v62q-107 -98 -280 -98q-155 0 -238.5 84.5t-83.5 226.5zM295 1499 q28 43 95 71t128 21l176 -280q-44 -61 -143 -78z" />
<glyph unicode="&#xfa;" horiz-adv-x="1120" d="M127 291v770q45 16 129 16q40 0 72 -4t44 -8l13 -4v-725q0 -69 40 -108.5t124 -39.5q104 0 180 76v797q45 16 129 16q40 0 72 -4t44 -8l13 -4v-1045q-39 -16 -129 -16q-37 0 -69.5 4t-46.5 8l-13 4v62q-107 -98 -280 -98q-155 0 -238.5 84.5t-83.5 226.5zM385 1311 l176 280q61 7 128 -21t95 -71l-256 -266q-99 17 -143 78z" />
<glyph unicode="&#xfb;" horiz-adv-x="1120" d="M127 291v770q45 16 129 16q40 0 72 -4t44 -8l13 -4v-725q0 -69 40 -108.5t124 -39.5q104 0 180 76v797q45 16 129 16q40 0 72 -4t44 -8l13 -4v-1045q-39 -16 -129 -16q-37 0 -69.5 4t-46.5 8l-13 4v62q-107 -98 -280 -98q-155 0 -238.5 84.5t-83.5 226.5zM252 1341 l287 236h51l289 -236q-47 -86 -117 -108l-197 125l-196 -123q-71 22 -117 106z" />
<glyph unicode="&#xfc;" horiz-adv-x="1120" d="M127 291v770q45 16 129 16q40 0 72 -4t44 -8l13 -4v-725q0 -69 40 -108.5t124 -39.5q104 0 180 76v797q45 16 129 16q40 0 72 -4t44 -8l13 -4v-1045q-39 -16 -129 -16q-37 0 -69.5 4t-46.5 8l-13 4v62q-107 -98 -280 -98q-155 0 -238.5 84.5t-83.5 226.5zM268 1247v199 q35 14 111 14q32 0 59.5 -3.5t39.5 -6.5l11 -4v-199q-38 -14 -110 -14q-34 0 -61.5 3.5t-38.5 7.5zM639 1247v199q35 14 111 14q32 0 59.5 -3.5t38.5 -6.5l12 -4v-199q-38 -14 -110 -14q-34 0 -61.5 3.5t-38.5 7.5z" />
<glyph unicode="&#xfd;" horiz-adv-x="1085" d="M33 1061q49 16 133 16q39 0 72.5 -4t47.5 -8l13 -4l193 -549q24 -68 41.5 -132.5t23.5 -95.5l6 -30h8q19 102 66 258l166 549q41 16 125 16q33 0 63 -4t44 -8l14 -4l-361 -1178q-22 -70 -41 -118t-44.5 -96.5t-55 -79t-69 -55t-90 -35.5t-114.5 -11q-32 0 -61.5 6 t-42.5 12l-14 5q-19 43 -19 96q0 25 4.5 50.5t9.5 38.5l5 13q51 -8 94 -8q35 0 54.5 3t42.5 14.5t39 35t34 64t37 102.5l24 80q-44 0 -80 16zM389 1311l176 280q61 7 128 -21t95 -71l-256 -266q-99 17 -143 78z" />
<glyph unicode="&#xfe;" horiz-adv-x="1142" d="M135 -442v1962q41 16 127 16q38 0 71 -4t47 -8l13 -4v-529q87 107 277 107q89 0 156.5 -29t118.5 -93t77.5 -174t26.5 -263t-26.5 -263t-77.5 -174t-118.5 -93t-156.5 -29q-191 0 -277 106v-528q-45 -17 -131 -17q-38 0 -70 4.5t-44 8.5zM393 410q0 -98 50 -160t135 -62 q52 0 87 14.5t63 52t41 108t13 176.5t-13 176t-41 107.5t-63 52t-87 14.5q-85 0 -135 -61.5t-50 -159.5v-258z" />
<glyph unicode="&#xff;" horiz-adv-x="1085" d="M33 1061q49 16 133 16q39 0 72.5 -4t47.5 -8l13 -4l193 -549q24 -68 41.5 -132.5t23.5 -95.5l6 -30h8q19 102 66 258l166 549q41 16 125 16q33 0 63 -4t44 -8l14 -4l-361 -1178q-22 -70 -41 -118t-44.5 -96.5t-55 -79t-69 -55t-90 -35.5t-114.5 -11q-32 0 -61.5 6 t-42.5 12l-14 5q-19 43 -19 96q0 25 4.5 50.5t9.5 38.5l5 13q51 -8 94 -8q35 0 54.5 3t42.5 14.5t39 35t34 64t37 102.5l24 80q-44 0 -80 16zM272 1247v199q35 14 111 14q32 0 59.5 -3.5t39.5 -6.5l12 -4v-199q-39 -14 -111 -14q-34 0 -61.5 3.5t-38.5 7.5zM643 1247v199 q35 14 111 14q32 0 59.5 -3.5t38.5 -6.5l12 -4v-199q-38 -14 -110 -14q-34 0 -61.5 3.5t-38.5 7.5z" />
<glyph unicode="&#x152;" horiz-adv-x="1822" d="M106 737q0 386 157 572t446 186q101 0 180 -20h813q20 -55 20 -105q0 -51 -20 -106h-522v-414h419q21 -58 21 -105q0 -48 -21 -106h-419v-428h542q21 -61 21 -107t-21 -104h-835q-92 -20 -178 -20q-288 0 -445.5 187t-157.5 570zM381 737q0 -158 23 -266.5t68.5 -167 t102 -82.5t134.5 -24q122 0 209 41v999q-93 41 -209 41q-62 0 -109.5 -14.5t-90 -51.5t-70 -97.5t-43 -155.5t-15.5 -222z" />
<glyph unicode="&#x153;" horiz-adv-x="1654" d="M88 539q0 293 122 426t349 133q204 0 301 -140q102 140 295 140q197 0 308.5 -105.5t111.5 -318.5q0 -58 -5.5 -112t-11.5 -78l-6 -25h-579q13 -153 68 -214t165 -61q61 0 121 12t89 24l30 11q62 -56 72 -168q-5 -3 -14 -9t-41 -20t-69 -25t-98 -20t-127 -9 q-208 0 -309 131q-118 -131 -301 -131q-227 0 -349 133t-122 426zM352 539q0 -106 14.5 -179t43 -112.5t64 -55.5t85.5 -16q66 0 104 29.5t59 110t21 223.5t-21 223t-59 109.5t-104 29.5q-50 0 -85.5 -16t-64 -55.5t-43 -112t-14.5 -178.5zM975 637h340q4 46 4 68 q0 192 -164 192q-80 0 -123.5 -60t-56.5 -200z" />
<glyph unicode="&#x178;" horiz-adv-x="1314" d="M33 1456q56 19 160 19q42 0 78.5 -4.5t52.5 -9.5l16 -5l334 -579l338 579q47 19 135 19q37 0 73.5 -4.5t53.5 -9.5l18 -5l-506 -842v-596q-43 -18 -127 -18q-42 0 -75.5 4.5t-46.5 9.5l-13 4v590zM379 1552v199q34 14 110 14q32 0 59.5 -3.5t39.5 -7.5l12 -3v-199 q-39 -14 -111 -14q-34 0 -61.5 3.5t-37.5 6.5zM750 1552v199q34 14 110 14q32 0 59.5 -3.5t39.5 -7.5l12 -3v-199q-39 -14 -111 -14q-34 0 -61.5 3.5t-38.5 6.5z" />
<glyph unicode="&#x2c6;" horiz-adv-x="811" d="M84 1260l293 241h53l295 -241q-49 -89 -119 -111l-203 129l-200 -127q-71 22 -119 109z" />
<glyph unicode="&#x2dc;" horiz-adv-x="669" d="M20 1395q3 4 9 11t25.5 25t41.5 32t57 25t72 11q53 0 93.5 -16.5t73 -32.5t67.5 -16q29 0 54 13t35 27l11 13q34 -15 59 -48t31 -69q-3 -4 -9 -11t-25.5 -25t-41.5 -32t-57 -25t-72 -11q-53 0 -93 16.5t-72.5 32.5t-67.5 16q-29 0 -54 -13.5t-35 -26.5l-11 -13 q-79 43 -91 117z" />
<glyph unicode="&#x2000;" horiz-adv-x="975" />
<glyph unicode="&#x2001;" horiz-adv-x="1951" />
<glyph unicode="&#x2002;" horiz-adv-x="975" />
<glyph unicode="&#x2003;" horiz-adv-x="1951" />
<glyph unicode="&#x2004;" horiz-adv-x="650" />
<glyph unicode="&#x2005;" horiz-adv-x="487" />
<glyph unicode="&#x2006;" horiz-adv-x="325" />
<glyph unicode="&#x2007;" horiz-adv-x="325" />
<glyph unicode="&#x2008;" horiz-adv-x="243" />
<glyph unicode="&#x2009;" horiz-adv-x="390" />
<glyph unicode="&#x200a;" horiz-adv-x="108" />
<glyph unicode="&#x2010;" horiz-adv-x="739" d="M129 594q0 25 3.5 48.5t7.5 34.5l3 11h451q14 -37 14 -94q0 -25 -3.5 -48.5t-6.5 -34.5l-4 -11h-451q-14 37 -14 94z" />
<glyph unicode="&#x2011;" horiz-adv-x="739" d="M129 594q0 25 3.5 48.5t7.5 34.5l3 11h451q14 -37 14 -94q0 -25 -3.5 -48.5t-6.5 -34.5l-4 -11h-451q-14 37 -14 94z" />
<glyph unicode="&#x2012;" horiz-adv-x="739" d="M129 594q0 25 3.5 48.5t7.5 34.5l3 11h451q14 -37 14 -94q0 -25 -3.5 -48.5t-6.5 -34.5l-4 -11h-451q-14 37 -14 94z" />
<glyph unicode="&#x2013;" horiz-adv-x="1169" d="M139 594q0 25 3.5 48.5t7.5 34.5l4 11h860q14 -37 14 -94q0 -25 -3.5 -48.5t-6.5 -34.5l-4 -11h-860q-15 37 -15 94z" />
<glyph unicode="&#x2014;" horiz-adv-x="1681" d="M139 594q0 25 3.5 48.5t7.5 34.5l4 11h1372q14 -37 14 -94q0 -25 -3.5 -48.5t-6.5 -34.5l-4 -11h-1372q-15 37 -15 94z" />
<glyph unicode="&#x2018;" horiz-adv-x="487" d="M111 942v154q0 71 17 136t41 107t48.5 74.5t41.5 46.5l17 15l91 -62q-8 -9 -20 -26t-34 -74t-26 -121q25 -2 45.5 -5.5t28.5 -6.5l8 -2v-236q-39 -16 -129 -16q-37 0 -69.5 4t-46.5 8z" />
<glyph unicode="&#x2019;" horiz-adv-x="468" d="M115 1223v235q39 17 129 17q37 0 69.5 -4.5t46.5 -8.5l13 -4v-153q0 -71 -17 -136t-41.5 -107t-49 -74.5t-41.5 -47.5l-17 -14l-90 61q8 9 20 25.5t33 73t25 120.5q-24 2 -44 6t-28 8z" />
<glyph unicode="&#x201a;" horiz-adv-x="503" d="M123 16v236q39 16 129 16q37 0 69.5 -4t46.5 -8l13 -4v-154q0 -71 -17 -136t-41.5 -107t-49 -74.5t-41.5 -46.5l-17 -15l-90 62q3 3 7.5 9t17 27.5t22.5 45t19.5 61t11.5 76.5q-24 2 -44 6t-28 7z" />
<glyph unicode="&#x201c;" horiz-adv-x="815" d="M111 942v154q0 71 17 136t41 107t48.5 74.5t41.5 46.5l17 15l91 -62q-8 -9 -20 -26t-34 -74t-26 -121q25 -2 45.5 -5.5t28.5 -6.5l8 -2v-236q-39 -16 -129 -16q-37 0 -69.5 4t-46.5 8zM438 942v154q0 71 17 136t41.5 107t49 74.5t41.5 46.5l17 15l90 -62q-8 -9 -20 -26 t-34 -74t-26 -121q25 -2 45.5 -5.5t28.5 -6.5l8 -2v-236q-39 -16 -129 -16q-37 0 -69.5 4t-45.5 8z" />
<glyph unicode="&#x201d;" horiz-adv-x="796" d="M115 1223v235q39 17 129 17q37 0 69.5 -4.5t46.5 -8.5l13 -4v-153q0 -71 -17 -136t-41.5 -107t-49 -74.5t-41.5 -47.5l-17 -14l-90 61q8 9 20 25.5t33 73t25 120.5q-24 2 -44 6t-28 8zM442 1223v235q39 17 129 17q37 0 69.5 -4.5t45.5 -8.5l14 -4v-153q0 -71 -17 -136 t-41 -107t-48.5 -74.5t-41.5 -47.5l-17 -14l-91 61q8 9 20 25.5t33 73t25 120.5q-24 2 -44 6t-28 8z" />
<glyph unicode="&#x201e;" horiz-adv-x="831" d="M123 16v236q39 16 129 16q37 0 69.5 -4t46.5 -8l13 -4v-154q0 -71 -17 -136t-41.5 -107t-49 -74.5t-41.5 -46.5l-17 -15l-90 62q3 3 7.5 9t17 27.5t22.5 45t19.5 61t11.5 76.5q-24 2 -44 6t-28 7zM451 16v236q39 16 129 16q37 0 69.5 -4t46.5 -8l13 -4v-154 q0 -71 -17 -136t-41.5 -107t-49 -74.5t-41.5 -46.5l-17 -15l-90 62q8 9 19.5 25.5t32.5 73.5t25 120q-24 2 -44 6t-28 7z" />
<glyph unicode="&#x2022;" horiz-adv-x="737" d="M154 578q0 95 61.5 154t155.5 59q92 0 152.5 -59t60.5 -154q0 -94 -60.5 -152.5t-152.5 -58.5q-94 0 -155.5 58.5t-61.5 152.5z" />
<glyph unicode="&#x2026;" horiz-adv-x="1425" d="M121 16v236q39 16 129 16q37 0 69.5 -4t46.5 -8l13 -4v-236q-45 -16 -129 -16q-40 0 -72 4t-44 8zM586 16v236q39 16 129 16q37 0 69.5 -4t45.5 -8l14 -4v-236q-45 -16 -129 -16q-40 0 -72.5 4t-44.5 8zM1047 16v236q39 16 129 16q37 0 69.5 -4t46.5 -8l13 -4v-236 q-45 -16 -129 -16q-40 0 -72 4t-44 8z" />
<glyph unicode="&#x202f;" horiz-adv-x="390" />
<glyph unicode="&#x2039;" horiz-adv-x="692" d="M86 543q0 32 4.5 61t9.5 42l4 13l412 383q63 -51 84 -149l-289 -342l289 -340q-22 -99 -84 -150l-412 377q-18 39 -18 105z" />
<glyph unicode="&#x203a;" horiz-adv-x="692" d="M92 211l289 340l-289 342q21 98 84 149l412 -383q18 -44 18 -116q0 -29 -4.5 -55.5t-9.5 -37.5l-4 -12l-412 -377q-62 51 -84 150z" />
<glyph unicode="&#x205f;" horiz-adv-x="487" />
<glyph unicode="&#x20ac;" horiz-adv-x="1220" d="M91 525.5q8 46.5 30 76.5h127q-2 27 -2 84t2 86h-156q-9 35 -1 81.5t30 76.5h145q44 228 179.5 345.5t357.5 117.5q90 0 168 -17t111 -34l32 -17q0 -113 -74 -178q-98 39 -211 39q-115 0 -192.5 -58.5t-110.5 -197.5h473q9 -35 1 -81.5t-29 -76.5h-467q-2 -29 -2 -88 q0 -57 2 -82h411q9 -35 1 -81.5t-29 -76.5h-363q33 -140 110.5 -197t194.5 -57q57 0 115 10t88 20l29 9q72 -51 72 -182q-5 -3 -14 -7.5t-40.5 -16t-67 -20.5t-92 -16t-116.5 -7q-223 0 -358.5 117.5t-178.5 346.5h-174q-9 35 -1 81.5z" />
<glyph unicode="&#x2122;" horiz-adv-x="1265" d="M68 1432q0 24 8 43h416q8 -16 8 -41q0 -15 -8 -43h-154v-498q-18 -8 -53 -8q-16 0 -29 2t-18 4l-5 2v498h-157q-8 28 -8 41zM575 893v573q25 9 64 9q26 0 61 -9l76 -149q46 -91 70 -162q5 17 67 148l76 163q39 9 68 9q17 0 34 -2.5t25 -4.5l8 -2v-573q-18 -8 -51 -8 q-16 0 -29 2t-18 4l-6 2v227q0 184 4 223q-17 -47 -57 -133l-80 -161q-16 -7 -43 -7q-12 0 -22.5 2t-15.5 4l-5 1l-78 161q-28 55 -57 133q6 -56 6 -223v-227q-18 -8 -49 -8q-13 0 -25 2t-18 4z" />
<glyph unicode="&#x25fc;" horiz-adv-x="1075" d="M0 0v1075h1075v-1075h-1075z" />
</font>
</defs>
</svg>
