<?xml version="1.0" standalone="no"?>
<!DOCTYPE svg PUBLIC "-//W3C//DTD SVG 1.1//EN" "http://www.w3.org/Graphics/SVG/1.1/DTD/svg11.dtd" >
<svg xmlns="http://www.w3.org/2000/svg">
<metadata></metadata>
<defs>
<font id="globerblack_italic" horiz-adv-x="1427" >
<font-face units-per-em="2048" ascent="1536" descent="-512" />
<missing-glyph horiz-adv-x="346" />
<glyph unicode="&#xfb01;" horiz-adv-x="1271" d="M29 16l161 768h-131q-1 62 19 158q9 43 21 82t20 56l8 18h131l23 102q35 169 165 252.5t385 83.5q97 0 188.5 -9.5t153 -22.5t109 -26t70.5 -22l22 -10q-23 -79 -71 -149t-105 -121q-19 5 -51.5 13t-126.5 21t-180 13q-77 0 -109 -17t-41 -61l-10 -47h410q60 0 111.5 -4 t72.5 -8l22 -5l-225 -1065q-80 -16 -215 -16q-60 0 -111.5 4t-73.5 8l-22 4l162 768h-199l-161 -768q-78 -16 -215 -16q-58 0 -110 4t-74 8z" />
<glyph unicode="&#xfb02;" horiz-adv-x="1271" d="M29 16l161 768h-131q0 50 19 154q20 97 49 160h131l23 102q35 169 165 252.5t385 83.5q123 0 258.5 -22.5t210.5 -45.5l74 -22l-303 -1430q-80 -16 -215 -16q-60 0 -111.5 4t-73.5 8l-22 4l256 1205q-11 0 -32 1t-33 1q-77 0 -109 -17t-41 -61l-10 -47h113 q3 -61 -17 -156q-22 -103 -51 -158h-113l-161 -768q-78 -16 -215 -16q-58 0 -110 4t-74 8z" />
<glyph horiz-adv-x="0" />
<glyph horiz-adv-x="682" />
<glyph unicode=" "  horiz-adv-x="346" />
<glyph unicode="&#x09;" horiz-adv-x="346" />
<glyph unicode="&#xa0;" horiz-adv-x="346" />
<glyph unicode="!" horiz-adv-x="657" d="M-10 16l84 398q78 16 215 16q60 0 111.5 -4t73.5 -8l22 -4l-84 -398q-80 -16 -215 -16q-60 0 -111.5 4t-73.5 8zM113 487l161 971q82 17 234 17q64 0 120.5 -4.5t80.5 -8.5l24 -4l-248 -971q-69 -18 -188 -18q-52 0 -98 4.5t-66 8.5z" />
<glyph unicode="&#x22;" horiz-adv-x="860" d="M166 956l53 502q74 17 193 17q50 0 96 -4.5t67 -8.5l21 -4l-160 -502q-51 -16 -137 -16q-38 0 -71.5 4t-47.5 8zM557 956l53 502q74 17 193 17q50 0 96 -4.5t67 -8.5l21 -4l-160 -502q-51 -16 -137 -16q-38 0 -71.5 4t-47.5 8z" />
<glyph unicode="#" horiz-adv-x="1454" d="M-27 188q-7 56 13 154q10 45 23 83.5t21 54.5l7 16h242l131 264h-146q-3 75 15 153q16 86 51 154h233l92 190q74 19 160 19q99 0 164 -19l-92 -190h127l92 190q78 19 170 19t154 -19l-93 -190h146q6 -66 -10 -143q-16 -75 -56 -164h-233l-131 -264h137q10 -50 -10 -152 q-10 -44 -23.5 -83t-22.5 -56l-8 -17h-223l-84 -170q-67 -18 -160 -18q-99 0 -163 18l84 170h-127l-84 -170q-71 -18 -166 -18q-96 0 -158 18l84 170h-156zM602 496h127l131 264h-127z" />
<glyph unicode="$" horiz-adv-x="1208" d="M-59 104q16 76 59 158q20 36 44.5 71.5t39.5 52.5l14 17q20 -6 54.5 -15t136 -24.5t196.5 -15.5q84 0 144 15.5t67 48.5q6 27 -27 46.5t-89 33t-124.5 33.5t-133 47.5t-115 76.5t-71 119.5t0.5 175.5q34 161 156.5 271.5t314.5 146.5l33 237q66 17 170 17q50 0 91 -4 t57 -8l16 -5l-68 -227q84 -7 163 -24t116 -30l37 -13q-9 -66 -54 -152q-20 -36 -45 -70t-40 -51l-15 -16q-158 31 -281 31q-211 0 -225 -68q-6 -26 27.5 -45.5t90 -33t125.5 -34t134 -49t115.5 -78.5t71 -122t-0.5 -179q-38 -181 -169.5 -291t-340.5 -141l-34 -254 q-62 -16 -168 -16q-46 0 -87.5 4t-60.5 8l-18 4l71 250q-101 10 -195.5 35.5t-138.5 46.5z" />
<glyph unicode="%" horiz-adv-x="1601" d="M121 -6l1093 1429q54 15 160 15q46 0 85 -4t55 -8l16 -3l-1094 -1429q-54 -14 -160 -14q-46 0 -85 3.5t-55 6.5zM137 1061q78 362 406 362q329 0 252 -362q-76 -361 -406 -361q-328 0 -252 361zM405 934q3 -15 9 -19t20 -4q25 0 38 25.5t34 124.5q12 52 16.5 82t2.5 45.5 t-8 19.5t-19 4q-18 0 -28 -8.5t-21.5 -40.5t-26.5 -102q-11 -53 -15.5 -82.5t-1.5 -44.5zM840 340q78 362 405 362q329 0 252 -362q-76 -360 -405 -360q-159 0 -225.5 86t-26.5 274zM1107.5 213q2.5 -15 9 -19t20.5 -4q25 0 37.5 25t33.5 125q12 52 16.5 82.5t2.5 46 t-8 19.5t-19 4q-18 0 -28 -8.5t-21.5 -41t-26.5 -102.5q-11 -52 -15 -82t-1.5 -45z" />
<glyph unicode="&#x26;" horiz-adv-x="1357" d="M-33 334q17 79 58.5 150t97.5 125.5t108.5 92.5t110.5 70q-29 142 0 281q37 168 159.5 264t327.5 96q181 0 267 -74t57 -213q-14 -67 -51 -127.5t-93 -111.5t-114.5 -91t-134.5 -81q60 -102 143 -185q69 87 107 150q80 -11 146.5 -53.5t92.5 -102.5q-50 -74 -129 -159 q82 -50 201 -101q-43 -99 -125.5 -172t-165.5 -94q-120 46 -221 108q-212 -126 -453 -126q-101 0 -180 21t-133.5 63t-74.5 110.5t-1 159.5zM354 385q-13 -62 18.5 -94.5t88.5 -32.5q62 0 135 27q-102 105 -166 233q-64 -71 -76 -133zM682 954q55 40 85 80.5t40 89.5 q5 26 -5 44t-34 18q-61 0 -78 -88q-14 -65 -8 -144z" />
<glyph unicode="'" horiz-adv-x="468" d="M166 956l53 502q74 17 193 17q50 0 96 -4.5t67 -8.5l21 -4l-160 -502q-51 -16 -137 -16q-38 0 -71.5 4t-47.5 8z" />
<glyph unicode="(" horiz-adv-x="610" d="M9.5 337q6.5 163 39.5 318t94.5 316t125.5 279.5t123 214.5t96 146l38 50q9 1 23.5 0.5t54.5 -10t74 -29.5q35 -20 58 -46t28 -42l6 -16q-10 -13 -27.5 -37.5t-67 -108t-93.5 -176.5t-95 -240t-84 -301t-45 -299t-5.5 -243t17 -173.5t22.5 -111.5l11 -35q-1 -3 -3.5 -7.5 t-13.5 -17.5t-25 -25.5t-39 -28.5t-56 -29q-44 -18 -85.5 -27t-60.5 -8h-20q-7 18 -17.5 52t-33.5 141.5t-34.5 219t-5 274.5z" />
<glyph unicode=")" horiz-adv-x="610" d="M-152 -207q10 13 28 37t67.5 108t94 176.5t95.5 239.5t84 301t44.5 299.5t5 243t-17.5 173.5t-23 111l-11 36q5 7 14.5 18t45 38.5t77.5 47.5q43 20 85 30t63 10l20 -1q7 -18 17.5 -52t33.5 -141.5t34.5 -219t5 -275t-39.5 -318.5t-94.5 -316t-125.5 -279t-123 -214.5 t-96 -145.5l-38 -50q-71 -6 -153 35q-39 20 -62.5 47t-26.5 44z" />
<glyph unicode="*" horiz-adv-x="671" d="M172 1202q23 113 94 178l125 -37l29 134q102 31 192 -2l-28 -132l143 37q40 -59 16 -178l-137 -39l58 -123q-89 -81 -183 -106l-55 117l-104 -117q-45 13 -81.5 42t-56.5 64l105 119z" />
<glyph unicode="+" horiz-adv-x="921" d="M25 449q-4 53 16 145q8 41 19 77t18 52l8 16h254l53 254q58 15 150 15q41 0 76 -4t50 -8l15 -3l-53 -254h254q3 -53 -15 -145q-9 -41 -20.5 -77t-19.5 -52l-7 -16h-254l-55 -254q-57 -17 -149 -17q-41 0 -76.5 4t-50.5 8l-15 5l56 254h-254z" />
<glyph unicode="," horiz-adv-x="567" d="M-55 16l84 400q84 16 215 16q56 0 107.5 -4t75.5 -8l24 -4l-68 -318q-16 -76 -53 -149.5t-78 -123.5t-80 -89.5t-64 -58.5l-26 -19l-131 104q10 11 26.5 30.5t52 81.5t52.5 126q-33 2 -67 6t-52 7z" />
<glyph unicode="-" horiz-adv-x="675" d="M55 449q-3 53 17 145q8 41 19 77t19 52l7 16h491q4 -53 -14 -145q-9 -41 -20.5 -77t-19.5 -52l-7 -16h-492z" />
<glyph unicode="." horiz-adv-x="563" d="M-55 16l84 398q78 16 215 16q60 0 112 -4t74 -8l21 -4l-84 -398q-80 -16 -215 -16q-60 0 -111.5 4t-73.5 8z" />
<glyph unicode="/" horiz-adv-x="1181" d="M-117 -78l1020 1596q100 18 221 18q56 0 110 -4.5t80 -9.5l27 -4l-1019 -1596q-101 -18 -222 -18q-56 0 -110 4.5t-80 9.5z" />
<glyph unicode="0" horiz-adv-x="1296" d="M70 696q82 381 267.5 559.5t483.5 178.5q300 0 409 -177t27 -561t-266 -560.5t-483 -176.5q-300 0 -410 176.5t-28 560.5zM491.5 438q-4.5 -89 16 -119t70.5 -30t83 30.5t65.5 119t68.5 257.5q37 170 42 258.5t-15 119t-70 30.5t-83.5 -30.5t-66.5 -119.5t-70 -258 q-36 -169 -40.5 -258z" />
<glyph unicode="1" horiz-adv-x="905" d="M91.5 943q-15.5 88 14.5 192q127 37 220 100t174 160q96 18 225 18q56 0 110 -4.5t79 -8.5l26 -5l-293 -1377q-90 -18 -221 -18q-57 0 -111 4.5t-79 9.5l-25 4l170 805l18 80q-108 -70 -239 -96q-53 48 -68.5 136z" />
<glyph unicode="2" horiz-adv-x="1136" d="M-61 0q-10 80 10 178q13 61 37.5 117t53 100t70.5 88.5t77.5 75.5t89 67.5t89.5 59t93 55.5q138 81 193.5 137t68.5 117q21 103 -135 103q-68 0 -146.5 -16t-123.5 -32l-44 -16q-48 40 -63.5 124.5t6.5 166.5q9 4 25 11.5t68.5 26.5t109 33t141.5 26t170 12 q259 0 370 -111t66 -317q-33 -158 -135.5 -269.5t-302.5 -212.5q-35 -18 -104 -42.5t-106.5 -46.5t-53.5 -56q-8 -16 -4 -35h526q14 -69 -6 -174q-25 -107 -68 -170h-972z" />
<glyph unicode="3" horiz-adv-x="1103" d="M-92 57q20 74 68 157.5t100 127.5q150 -39 293 -39q111 0 156.5 35t60.5 106q15 69 -13 103.5t-120 34.5h-211q-6 64 13.5 154.5t51.5 152.5h211q70 0 103.5 28t44.5 84q12 59 -18 87t-111 28q-69 0 -135.5 -9t-97.5 -19l-32 -9q-46 37 -67 118.5t-4 156.5q24 9 66 22.5 t160 35.5t222 22q253 0 372.5 -97.5t80.5 -283.5q-23 -105 -89 -186t-175 -124q222 -91 166 -356q-42 -200 -208.5 -303.5t-476.5 -103.5q-74 0 -143.5 8t-116 19.5t-82.5 22.5t-53 19z" />
<glyph unicode="4" horiz-adv-x="1234" d="M-41 276q-9 58 14 164q10 47 24 88t23 58l9 18l739 791q88 18 221 18q59 0 111.5 -4.5t75.5 -8.5l22 -5l-168 -791h148q6 -58 -17 -164q-10 -47 -23.5 -88t-21.5 -58l-8 -18h-147l-56 -258q-78 -18 -203 -18q-57 0 -106 4.5t-70 9.5l-20 4l55 258h-602zM426 604h205 l59 285z" />
<glyph unicode="5" horiz-adv-x="1095" d="M-92 53q18 87 51 154t94 131q164 -35 318 -35q107 0 154.5 36t62.5 105q14 69 -18.5 108.5t-137.5 39.5q-138 0 -315 -10l178 831h850q5 -71 -15 -163.5t-55 -164.5h-440l-41 -184q91 0 176 -20q157 -39 221.5 -149t26.5 -288q-47 -225 -227.5 -344.5t-468.5 -119.5 q-71 0 -139.5 7.5t-116 18t-85 21.5t-55.5 19z" />
<glyph unicode="6" horiz-adv-x="1142" d="M31 537q84 396 364 624.5t701 251.5q4 -70 -16 -163t-54 -158q-275 -23 -412 -189q58 10 111 10q98 0 172.5 -29t123.5 -89t62 -151.5t-12 -215.5q-46 -225 -208.5 -336.5t-418.5 -111.5q-254 0 -363.5 138.5t-49.5 418.5zM438 372.5q4 -55.5 21 -74.5t49 -19q47 0 83 37 t50 112q21 103 2.5 142.5t-76.5 39.5q-42 0 -96 -20q-5 -16 -14 -62q-23 -100 -19 -155.5z" />
<glyph unicode="7" horiz-adv-x="1048" d="M14 12q36 170 103.5 311.5t148 241.5t158.5 181t157.5 169t123.5 166h-572q-4 70 19 168q9 43 22 84t22 61l9 19h981q-3 -80 -27 -190q-21 -98 -66 -187t-102 -159.5t-122.5 -140t-132 -144t-125.5 -156t-108.5 -191t-76.5 -233.5q-58 -12 -207 -12q-153 0 -205 12z" />
<glyph unicode="8" horiz-adv-x="1200" d="M-10 344q46 218 301 354q-157 143 -113 351q36 173 194.5 279t397.5 106q232 0 343.5 -97t74.5 -266q-39 -184 -230 -311q193 -152 142 -395q-40 -187 -212 -296.5t-437 -109.5q-253 0 -376.5 100.5t-84.5 284.5zM403 371q-10 -50 19 -80.5t100 -30.5q64 0 103 31t49 78 t-23.5 85.5t-103.5 80.5q-125 -78 -144 -164zM596 1057q-10 -43 16 -76.5t84 -67.5q81 58 99 134q18 100 -84 100q-45 0 -76 -25.5t-39 -64.5z" />
<glyph unicode="9" horiz-adv-x="1142" d="M84 0q-5 71 15 164.5t53 157.5q269 20 409 186q-58 -10 -106 -10q-98 0 -172.5 28.5t-125 87.5t-63.5 149.5t12 215.5q46 226 210 340.5t419 114.5t364.5 -136.5t49.5 -416.5q-84 -397 -365 -627.5t-700 -253.5zM534 838.5q18 -37.5 76 -37.5q45 0 97 18q2 11 8 34t8 36 q16 74 19 124.5t-6.5 76t-24.5 35.5t-39 10q-46 0 -83.5 -40.5t-51.5 -115.5q-21 -103 -3 -140.5z" />
<glyph unicode=":" horiz-adv-x="577" d="M-51 16l84 398q78 16 215 16q60 0 112 -4t74 -8l21 -4l-84 -398q-80 -16 -215 -16q-60 0 -111.5 4t-73.5 8zM86 664l84 397q78 16 215 16q60 0 111.5 -4t73.5 -8l22 -4l-84 -397q-80 -17 -215 -17q-60 0 -111.5 4.5t-73.5 8.5z" />
<glyph unicode=";" horiz-adv-x="579" d="M-51 16l84 400q84 16 215 16q56 0 107.5 -4t75.5 -8l24 -4l-68 -318q-16 -76 -53 -149.5t-78 -123.5t-80 -89.5t-64 -58.5l-26 -19l-131 104q10 11 26.5 30.5t52 81.5t52.5 126q-33 2 -67 6t-52 7zM86 664l84 397q78 16 215 16q60 0 111.5 -4t73.5 -8l22 -4l-84 -397 q-80 -17 -215 -17q-60 0 -111.5 4.5t-73.5 8.5z" />
<glyph unicode="&#x3c;" horiz-adv-x="849" d="M18 436q1 64 21 160q9 44 20.5 82.5t18.5 55.5l8 16l758 292q3 -47 -17 -145q-9 -43 -20 -79.5t-18 -51.5l-7 -16l-409 -158l342 -156q3 -47 -17 -145q-9 -43 -20 -80t-18 -53l-7 -15z" />
<glyph unicode="=" horiz-adv-x="1042" d="M18 236q-1 64 17.5 149.5t46.5 142.5h840q4 -58 -15 -144.5t-49 -147.5h-840zM109 657q-2 65 16.5 150.5t46.5 142.5h840q4 -57 -15.5 -143.5t-48.5 -149.5h-839z" />
<glyph unicode="&#x3e;" horiz-adv-x="849" d="M-8 143q-4 52 16 148q9 44 20 80t18 51l7 14l408 156l-340 158q-4 51 16 147q9 44 20 80t18 51l7 14l635 -292q2 -56 -18 -154q-9 -43 -21 -83t-20 -59l-8 -18z" />
<glyph unicode="?" horiz-adv-x="976" d="M57 16l84 398q78 16 215 16q60 0 111.5 -4t73.5 -8l22 -4l-84 -398q-80 -16 -215 -16q-60 0 -111.5 4t-73.5 8zM186.5 1176q-14.5 78 8.5 163q20 8 56 20.5t143.5 33t211.5 20.5q61 0 112 -4.5t100.5 -15.5t85.5 -29.5t67 -45.5t45 -63.5t19.5 -85t-9.5 -108.5 q-15 -72 -47 -129.5t-71.5 -94.5t-83.5 -66.5t-87.5 -53.5t-80 -48t-63.5 -58t-36 -76q-65 -25 -184 -25q-53 0 -97.5 6t-62.5 12l-18 7q20 94 56.5 164.5t76.5 107.5t84 66.5t79.5 46t62.5 42.5t34 60q9 41 -16.5 59.5t-94.5 18.5q-49 0 -105 -12t-87 -24l-31 -11 q-53 45 -67.5 123z" />
<glyph unicode="@" horiz-adv-x="1869" d="M45 205.5q-37 155.5 4 365.5q42 195 144 353.5t246 264t325.5 163t382.5 57.5q265 0 436 -97t232 -274.5t10 -416.5q-29 -141 -110.5 -244.5t-187.5 -153t-224 -49.5q-227 0 -293 111q-94 -111 -285 -111q-152 0 -215 92t-18 303q45 213 147 305.5t254 92.5 q132 0 201 -56l8 45q49 21 166 21q52 0 90 -5.5t50 -10.5l13 -5l-94 -444q-21 -106 47 -106q53 0 86 45t58 167q56 261 -53.5 402t-372.5 141q-281 0 -464 -150t-245 -440q-20 -109 -19 -193.5t30 -148t71 -106.5t103.5 -70t129 -39t146.5 -12q288 0 514 117 q37 -18 59 -72.5t17 -107.5q-329 -193 -672 -193q-177 0 -323 50t-251.5 152t-142.5 257.5zM816.5 432q11.5 -39 72.5 -39q44 0 74.5 28.5t46.5 102.5l24 109q10 66 -9 90.5t-60 24.5q-61 0 -87 -36.5t-49 -142.5q-24 -98 -12.5 -137z" />
<glyph unicode="A" horiz-adv-x="1417" d="M-139 18l733 1438q102 19 297 19q90 0 162.5 -4.5t99.5 -9.5l27 -5l120 -1438q-82 -18 -229 -18q-61 0 -113.5 4.5t-75.5 9.5l-22 4l-18 246h-432l-121 -246q-86 -18 -219 -18q-59 0 -111.5 4.5t-74.5 9.5zM557 557h264l-20 287q-3 52 -3 97v33q2 58 6 95l5 37h-8 q-31 -123 -99 -262z" />
<glyph unicode="B" horiz-adv-x="1302" d="M-35 0l314 1475h647q232 0 330 -101q69 -71 70 -191q0 -51 -13 -112q-46 -213 -240 -311q155 -75 155 -244q0 -45 -11 -96q-48 -222 -195.5 -321t-400.5 -99h-656zM473 303h131q70 0 113 32.5t59 110.5q7 31 7 54q1 36 -17 56q-28 32 -100 32h-131zM602 903h127 q54 0 91 34t52 101q6 26 6 47q0 86 -92 86h-127z" />
<glyph unicode="C" horiz-adv-x="1177" d="M78 776q155 729 842 729q77 0 146.5 -9.5t113 -23t76.5 -27t47 -23.5l14 -9q-41 -182 -187 -285q-91 39 -212 39q-151 0 -237.5 -95.5t-137.5 -336.5q-25 -123 -27 -205v-10q0 -76 23 -122q25 -49 72.5 -70t123.5 -21q56 0 117.5 11.5t95.5 22.5l33 11q53 -49 71 -128 q9 -37 8 -75q0 -43 -11 -88q-6 -4 -18 -10t-54.5 -22t-91 -28t-127.5 -22t-164 -10q-328 0 -462 214q-84 134 -83 334q0 118 29 259z" />
<glyph unicode="D" horiz-adv-x="1368" d="M-35 0l314 1475h552q343 0 467 -185q73 -109 72 -291q0 -127 -35 -290q-42 -198 -110.5 -334t-170.5 -219t-231.5 -119.5t-304.5 -36.5h-553zM481 330h107q82 0 133.5 33t91 120.5t74.5 253.5q27 126 33 204q2 22 2 42q0 49 -12 82q-16 46 -51 63t-97 17h-107z" />
<glyph unicode="E" horiz-adv-x="1163" d="M-35 0l314 1475h989q2 -16 2 -35q0 -50 -15 -121q-21 -105 -57 -168h-543l-51 -248h440q1 -14 1 -28q0 -58 -13 -127q-22 -96 -55 -160h-440l-56 -264h563q2 -16 2 -34q0 -54 -16 -126q-23 -110 -55 -164h-1010z" />
<glyph unicode="F" horiz-adv-x="1128" d="M-31 18l310 1457h968q2 -17 2 -37q0 -54 -16 -123q-21 -104 -55 -164h-523l-57 -272h461q3 -15 3 -37q0 -47 -15 -123q-23 -104 -56 -164h-461l-114 -537q-101 -18 -230 -18q-56 0 -110.5 4.5t-80.5 9.5z" />
<glyph unicode="G" horiz-adv-x="1323" d="M80 784q78 364 297.5 537.5t576.5 173.5q80 0 154.5 -10.5t124.5 -25t88 -29t56 -24.5l18 -11q-42 -170 -183 -295q-14 7 -39.5 17t-99 27t-141.5 17q-156 0 -257 -97.5t-151 -328.5q-26 -122 -28 -201v-9q0 -73 24 -119q26 -50 77 -69.5t136 -19.5h45l53 256h-167 q-4 18 -4 41q0 49 16 119q10 48 24.5 89t23.5 58l9 17h576l-174 -817q-7 -4 -21.5 -11t-63.5 -24t-103 -30t-139.5 -24t-174.5 -11q-346 0 -489 214q-92 139 -92 343q0 114 28 247z" />
<glyph unicode="H" horiz-adv-x="1404" d="M-31 18l305 1438q99 19 226 19q57 0 112.5 -4.5t81.5 -9.5l27 -5l-113 -528h316l112 528q101 19 228 19q56 0 111 -4.5t81 -9.5l27 -5l-305 -1438q-99 -18 -226 -18q-61 0 -116 4.5t-80 9.5l-25 4l121 566h-315l-121 -566q-103 -18 -228 -18q-60 0 -115 4.5t-79 9.5z" />
<glyph unicode="I" horiz-adv-x="643" d="M-31 18l305 1438q99 19 226 19q57 0 112.5 -4.5t81.5 -9.5l27 -5l-305 -1438q-103 -18 -228 -18q-60 0 -115 4.5t-79 9.5z" />
<glyph unicode="J" horiz-adv-x="1007" d="M-104 61q16 77 65.5 167.5t110.5 142.5q88 -37 182 -37q86 0 129 39t66 143l198 940q92 19 227 19q57 0 112 -4.5t82 -9.5l26 -5l-222 -1044q-45 -208 -196.5 -320t-394.5 -112q-76 0 -143.5 8.5t-109.5 20t-73.5 23.5t-44.5 20z" />
<glyph unicode="K" horiz-adv-x="1343" d="M-31 18l305 1438q91 19 230 19q62 0 116 -4.5t78 -9.5l23 -5l-113 -534h54l360 534q112 19 240 19q119 0 235 -19l-481 -692l235 -746q-117 -18 -260 -18q-69 0 -123 4.5t-73 9.5l-19 4l-166 592h-69l-125 -592q-78 -18 -228 -18q-63 0 -117.5 4.5t-78.5 9.5z" />
<glyph unicode="L" horiz-adv-x="1118" d="M-35 0l309 1456q99 19 226 19q57 0 112.5 -4.5t81.5 -9.5l27 -5l-238 -1116h547q1 -17 1 -35q0 -60 -15 -135q-15 -71 -58 -170h-993z" />
<glyph unicode="M" horiz-adv-x="1703" d="M-31 18l305 1438q110 19 283 19q80 0 145.5 -4.5t91.5 -9.5l25 -5l39 -379q8 -84 7 -170q0 -106 -11 -213h8q20 89 103 269q25 55 60.5 124t61 116t73 133.5t65.5 119.5q90 19 264 19q198 0 293 -19l-305 -1438q-80 -18 -211 -18q-59 0 -110.5 4.5t-73.5 9.5l-21 4 l84 394q25 120 69.5 268.5t75.5 238t33 89.5h-14q-2 -3 -29 -71.5t-70 -166.5t-80 -166l-184 -340q-65 -20 -196 -20q-59 0 -106.5 5t-65.5 10l-17 5q-14 158 -33 326q-10 78 -10 182v29q0 84 3 140q3 65 5 67h-14q0 -1 -2.5 -36.5t-8 -97t-13 -134.5t-21 -162t-29.5 -166 l-84 -394q-75 -18 -192 -18q-55 0 -103 4.5t-69 9.5z" />
<glyph unicode="N" horiz-adv-x="1445" d="M-31 18l305 1438q101 19 306 19q91 0 162.5 -4.5t97.5 -9.5l26 -5l62 -598q10 -98 12 -216q1 -47 1 -87q0 -59 -2 -101l-3 -69h10q29 241 78 477l127 594q89 19 195 19q52 0 96.5 -4.5t63.5 -9.5l18 -5l-305 -1438q-94 -18 -299 -18q-84 0 -157 4.5t-105 9.5l-31 4 l-72 607q-12 103 -15 209q-2 53 -2 93t2 67l3 55h-13q-8 -184 -59 -424l-129 -607q-72 -18 -197 -18q-55 0 -99 4.5t-60 9.5z" />
<glyph unicode="O" d="M82 784q43 196 116.5 336t177.5 224t230 122.5t285 38.5q315 -1 451 -211q84 -130 84 -329q0 -125 -33 -277q-42 -198 -115.5 -338.5t-178.5 -223t-230.5 -120t-284.5 -37.5q-315 -1 -450 209q-84 130 -84 331q0 124 32 275zM512 518q-2 -28 -3 -51q0 -51 11 -83 q15 -48 45 -66.5t80 -18.5q69 0 116 34.5t89.5 131.5t79.5 272q28 133 36 219q2 28 3 53q-1 50 -11 82q-16 48 -45.5 66.5t-81.5 18.5q-67 0 -113.5 -34.5t-89.5 -131.5t-81 -273q-28 -133 -35 -219z" />
<glyph unicode="P" horiz-adv-x="1249" d="M-31 18l310 1457h600q250 -1 355 -143q70 -95 70 -235q0 -71 -18 -155q-50 -237 -201 -340.5t-413 -103.5h-154l-102 -480q-91 -18 -228 -18q-61 0 -115.5 4.5t-78.5 9.5zM588 825h86q137 0 170 162q7 32 7 58q0 102 -110 102h-86z" />
<glyph unicode="Q" d="M82 784q43 196 116.5 336t177.5 224t230 122.5t285 38.5q315 0 451 -211q84 -129 84 -329q0 -125 -33 -277q-79 -381 -289 -557q109 -51 225 -74q-31 -119 -105.5 -204.5t-148.5 -118.5q-98 36 -172 103.5t-119 148.5q-107 -17 -200 -17q-315 0 -450 209q-84 130 -84 331 q0 124 32 275zM512 518q-2 -27 -2 -51q0 -50 10 -83q15 -48 45 -66.5t80 -18.5q69 0 116 34.5t89.5 131.5t79.5 272q29 133 36 219q3 29 3 53q0 50 -11 82q-15 48 -45 66.5t-82 18.5q-67 0 -113.5 -34.5t-89.5 -131.5t-81 -273q-28 -132 -35 -219z" />
<glyph unicode="R" horiz-adv-x="1314" d="M-31 18l310 1457h610q111 0 194.5 -25.5t133 -71t77.5 -108.5q28 -62 29 -135q0 -74 -16 -160q-28 -135 -95 -224.5t-184 -144.5l168 -588q-99 -18 -246 -18q-69 0 -124 4.5t-75 9.5l-20 4l-127 519h-78l-110 -519q-99 -18 -226 -18q-61 0 -116 4.5t-80 9.5zM594 860h96 q136 0 164 146q6 27 6 50q0 95 -108 95h-97z" />
<glyph unicode="S" horiz-adv-x="1198" d="M-68 88q18 89 60.5 176.5t99.5 147.5q16 -7 45.5 -17.5t127 -27.5t202.5 -17q173 0 192 80q1 6 1 12q0 35 -40 59q-47 28 -147 60q-36 11 -68.5 24.5t-68 32.5t-64.5 43.5t-55.5 54.5t-44.5 68q-18 36 -28 80q-10 42 -11 94q0 57 14 119q47 218 207.5 324t464.5 106 q80 0 154 -8.5t122.5 -21t85.5 -25t53 -20.5l17 -9q-34 -198 -155 -313q-132 35 -275 35q-200 0 -219 -84q-3 -16 2.5 -30.5t22 -27.5t34.5 -23.5t48 -22.5t54.5 -20.5t63.5 -22t64 -23.5q159 -61 219 -181q34 -69 35 -160q0 -68 -19 -149q-54 -234 -222 -333t-470 -99 q-94 0 -180.5 12.5t-142.5 30t-98.5 34.5t-61.5 30z" />
<glyph unicode="T" horiz-adv-x="1212" d="M139 1110q-1 11 -1 23q0 67 20 155q11 51 26 98t24 68l9 21h1141q1 -11 1 -23q0 -67 -20 -160q-10 -46 -25 -91.5t-24 -68.5l-10 -22h-342l-231 -1092q-103 -18 -228 -18q-60 0 -114.5 4.5t-79.5 9.5l-25 4l232 1092h-353z" />
<glyph unicode="U" horiz-adv-x="1382" d="M68 555l190 901q88 19 225 19q62 0 117.5 -4.5t79.5 -9.5l25 -5l-199 -938q-8 -35 -7 -63q1 -44 19 -69q32 -42 115 -42t130.5 41.5t67.5 132.5l199 938q84 19 221 19q61 0 115.5 -4.5t79.5 -9.5l24 -5l-200 -948q-55 -258 -236.5 -398.5t-455.5 -140.5q-195 0 -324 75 t-176 207q-26 74 -26 160q0 68 16 144z" />
<glyph unicode="V" horiz-adv-x="1415" d="M168 1450q107 25 244 25q57 0 105.5 -5.5t68.5 -10.5l20 -5l41 -698q5 -105 5 -184v-25q-1 -86 -5 -132l-4 -46h8q49 143 170 389l338 696q67 21 225 21q64 0 117.5 -5.5t75.5 -10.5l22 -5l-714 -1436q-117 -18 -310 -18q-87 0 -162.5 4.5t-108.5 9.5l-32 4z" />
<glyph unicode="W" horiz-adv-x="2072" d="M166 18l16 1438q97 19 234 19q57 0 106 -4.5t70 -9.5l20 -5l-22 -713q-3 -88 -11.5 -181.5t-16.5 -143.5l-7 -49h8q41 175 117 372l268 715q95 19 279 19q79 0 147.5 -4.5t97.5 -9.5l29 -5l-41 -713q-5 -93 -17 -186.5t-21 -140.5l-9 -47h8q47 165 129 372l283 715 q72 19 203 19q54 0 104 -4.5t73 -9.5l23 -5l-591 -1438q-100 -18 -293 -18q-92 0 -166 4.5t-102 9.5l-29 4l39 678q6 100 19 201.5t23 152.5l9 52h-10q-37 -185 -121 -406l-256 -678q-113 -18 -299 -18q-190 0 -293 18z" />
<glyph unicode="X" horiz-adv-x="1335" d="M-154 18l557 773l-217 665q78 19 258 19q67 0 124.5 -4.5t81.5 -9.5l24 -5l121 -328l233 328q117 19 244 19q92 0 233 -19l-514 -711l248 -727q-84 -18 -244 -18q-68 0 -125 4.5t-80 9.5l-24 4l-152 408l-292 -408q-119 -18 -232 -18q-133 0 -244 18z" />
<glyph unicode="Y" horiz-adv-x="1363" d="M164 1456q94 19 260 19q63 0 120 -4.5t83 -9.5l26 -5l123 -450l320 450q100 19 235 19q64 0 121.5 -4.5t83.5 -9.5l25 -5l-680 -932l-107 -506q-82 -18 -227 -18q-69 0 -124 4.5t-75 9.5l-20 4l108 512z" />
<glyph unicode="Z" horiz-adv-x="1294" d="M-84 0q-2 17 -2 37q0 56 16 139q23 102 60 168l786 789h-561q-1 20 -1 39q0 66 15 135q19 92 58 168h1104q2 -20 2 -43q0 -54 -13 -121q-18 -90 -61 -178l-801 -789h660q0 -79 -19 -172q-25 -107 -55 -172h-1188z" />
<glyph unicode="[" horiz-adv-x="729" d="M-84 -348l426 2007h559q4 -54 -16 -148q-9 -42 -20 -78t-18 -51l-7 -16h-158l-303 -1421h158q3 -54 -17 -148q-9 -42 -20 -78t-18 -51l-7 -16h-559z" />
<glyph unicode="\" horiz-adv-x="1177" d="M217 1518q100 18 225 18q54 0 107 -4.5t79 -9.5l27 -4l344 -1596q-100 -18 -225 -18q-54 0 -107 4.5t-79 9.5l-27 4z" />
<glyph unicode="]" horiz-adv-x="729" d="M-160 -348q-3 51 17 145q9 42 20 79t18 53l7 16h157l303 1421h-157q-4 51 16 145q9 42 20 79t18 53l7 16h559l-426 -2007h-559z" />
<glyph unicode="^" horiz-adv-x="1198" d="M98 879l520 581q70 15 164 15q42 0 82 -3.5t59 -7.5l19 -4l270 -581q-75 -15 -184 -15q-49 0 -94.5 4t-66.5 8l-21 3l-131 280l-250 -280q-75 -15 -186 -15q-48 0 -93.5 4t-66.5 8z" />
<glyph unicode="_" horiz-adv-x="1075" d="M-127 -291q-8 33 12 125q8 41 18 72t17 42l6 11h942q8 -33 -10 -125q-9 -41 -19.5 -72t-16.5 -42l-7 -11h-942z" />
<glyph unicode="`" horiz-adv-x="487" d="M-14 1581q55 67 167.5 105.5t213.5 27.5l133 -342q-84 -86 -256 -112z" />
<glyph unicode="a" horiz-adv-x="1153" d="M33 580q33 154 80 260t111 166.5t138.5 86t172.5 25.5q68 0 129 -26.5t90 -81.5l20 73q74 19 201 19q56 0 107.5 -4t74.5 -8l23 -5l-228 -1069q-81 -16 -204 -16q-56 0 -101.5 4t-63.5 8l-18 4l2 78q-117 -114 -270 -114q-180 0 -254 149q-40 80 -40 204q0 107 30 247z M448 348q8 -52 66 -53q65 0 96 82l72 332v11q0 83 -61 83q-58 0 -87.5 -53.5t-62.5 -210.5q-24 -109 -25 -165q0 -15 2 -26z" />
<glyph unicode="b" horiz-adv-x="1163" d="M-57 16l319 1504q86 16 213 16q56 0 108.5 -4t76.5 -8l24 -4l-109 -504q117 102 259 102q88 0 150.5 -32.5t102 -104t41.5 -184.5v-17q0 -108 -28 -256q-27 -126 -66.5 -221t-86 -156t-104.5 -99t-118.5 -53t-132.5 -15q-145 0 -215 96l-12 -60q-88 -16 -215 -16 q-56 0 -108 4t-76 8zM446 410q-4 -22 -4 -39q0 -29 11 -47q18 -29 53 -29q54 0 83.5 51t61.5 201q25 119 25 177q0 14 -2 26q-8 52 -62 53q-33 0 -62.5 -31.5t-43.5 -91.5z" />
<glyph unicode="c" horiz-adv-x="919" d="M31 590q32 149 85 251.5t131 163t175 87t227 26.5q60 0 116.5 -8t94 -19.5t66 -23t42.5 -19.5l13 -8q-25 -79 -74.5 -153.5t-111.5 -124.5q-43 31 -121 31q-87 0 -134.5 -54.5t-76.5 -191.5q-14 -68 -15 -115q0 -44 14 -70q26 -52 118 -51q38 0 75 8.5t55 17.5l17 9 q70 -87 70 -230q0 -23 -2 -48q-6 -4 -17.5 -9.5t-50.5 -21t-81 -27t-106.5 -21t-129.5 -9.5q-250 0 -346 154q-58 92 -59 238q0 97 26 218z" />
<glyph unicode="d" horiz-adv-x="1169" d="M33 580q32 154 79.5 260t112.5 166.5t139.5 86t172.5 25.5q70 0 129 -28t92 -74l106 502q88 18 215 18q56 0 108.5 -4t76.5 -8l24 -4l-319 -1504q-86 -16 -209 -16q-56 0 -101.5 4t-62.5 8l-18 4l2 78q-117 -114 -275 -114q-181 0 -258 150q-42 82 -42 210q0 105 28 240z M460 348q8 -52 66 -53q66 0 97 82l71 332v11q0 83 -61 83q-58 0 -87.5 -53.5t-62.5 -210.5q-24 -109 -24 -165q-1 -15 1 -26z" />
<glyph unicode="e" horiz-adv-x="1046" d="M29 586q60 279 214.5 405.5t399.5 126.5q212 0 321 -120q77 -85 77 -211q0 -53 -13 -113q-14 -64 -32.5 -124.5t-29.5 -89.5l-12 -28h-514q-1 -11 -1 -22q0 -54 27 -74q32 -24 109 -25q47 0 96 12.5t74 24.5l25 12q38 -47 67 -127q24 -66 24 -122q0 -12 -1 -23 q-5 -4 -14.5 -11.5t-46 -26t-80 -33t-117 -26t-156.5 -11.5q-258 0 -368 158q-70 102 -71 258q0 87 22 190zM477 657h164q5 15 14 60q6 26 6 48q-1 23 -7 39q-12 32 -44 32q-82 0 -133 -179z" />
<glyph unicode="f" horiz-adv-x="768" d="M27 16l161 768h-131q0 65 17 152q14 69 47 141h131l27 123q35 169 150 252.5t339 83.5q90 0 166.5 -17.5t107.5 -34.5l31 -18q-23 -79 -71 -149t-105 -121q-31 27 -121 27q-72 0 -88 -78l-14 -68h168v-22q0 -58 -13 -119q-16 -79 -51 -152h-168l-161 -768 q-79 -16 -216 -16q-58 0 -109.5 4t-73.5 8z" />
<glyph unicode="g" horiz-adv-x="1167" d="M-92 -428q41 172 143 274q12 -6 33.5 -14.5t80 -22.5t107.5 -14q39 0 65.5 3t63 17.5t61.5 40.5t49.5 76t39.5 121l6 27q-106 -100 -250 -100q-117 0 -191.5 65.5t-99.5 200.5q-10 50 -10 108q0 103 29 236q32 153 81.5 258.5t115 163t137.5 82t163 24.5q76 0 136 -31.5 t88 -85.5l30 80q74 17 201 17q56 0 107.5 -4t74.5 -8l23 -5l-219 -1028q-28 -130 -74.5 -228t-106 -162t-138 -103.5t-162.5 -55.5t-187 -16q-102 0 -201 21t-148 42zM468 312q17 -17 54 -17q38 0 67.5 35.5t37.5 79.5l59 276q4 24 4 43q0 74 -61 74q-37 0 -61 -18 t-48 -76.5t-47 -169.5q-22 -99 -22 -153q0 -55 17 -74z" />
<glyph unicode="h" horiz-adv-x="1118" d="M-57 16l319 1504q76 16 213 16q60 0 112 -4t75 -8l22 -4l-106 -498q131 96 264 96q73 0 125 -22t79 -57q26 -35 38 -85q9 -41 10 -81v-18q-2 -50 -15 -107l-153 -732q-74 -16 -215 -16q-62 0 -113.5 4t-72.5 8l-21 4l149 709q4 16 4 28q0 50 -57 50q-29 0 -74 -23 l-161 -764q-80 -16 -215 -16q-60 0 -111.5 4t-73.5 8z" />
<glyph unicode="i" horiz-adv-x="565" d="M-57 16l225 1065q78 17 215 17q60 0 111.5 -4t73.5 -8l22 -5l-225 -1065q-80 -16 -215 -16q-60 0 -111.5 4t-73.5 8zM197 1214l75 357q78 16 215 16q60 0 111.5 -4t73.5 -8l22 -4l-76 -357q-80 -16 -215 -16q-60 0 -111.5 4t-73.5 8z" />
<glyph unicode="j" horiz-adv-x="565" d="M-381 -453q0 44 10 91q13 57 35.5 108t38.5 74l16 22q37 -10 74 -10q56 0 89.5 29.5t47.5 103.5l238 1116q84 17 215 17q56 0 107.5 -4t75.5 -8l24 -5l-268 -1261q-35 -164 -143.5 -248t-303.5 -84q-77 0 -141 15t-90 29zM195 1206l75 357q78 16 215 16q60 0 111.5 -4 t73.5 -8l22 -4l-76 -357q-80 -16 -215 -16q-60 0 -111.5 4t-73.5 8z" />
<glyph unicode="k" horiz-adv-x="1116" d="M-57 18l319 1506q78 12 215 12q57 0 109 -3t75 -6l23 -3l-170 -805h33l217 362q64 17 207 17q64 0 120 -4t81 -8l24 -5l-326 -508l138 -555q-82 -20 -234 -20q-59 0 -109.5 5t-70.5 10l-21 5l-84 408h-38l-86 -408q-70 -18 -213 -18q-62 0 -114 4.5t-74 9.5z" />
<glyph unicode="l" horiz-adv-x="565" d="M-57 16l319 1504q76 16 213 16q60 0 112 -4t75 -8l22 -4l-319 -1504q-80 -16 -215 -16q-60 0 -111.5 4t-73.5 8z" />
<glyph unicode="m" horiz-adv-x="1673" d="M-57 16l225 1065q78 17 215 17q59 0 106 -4t65 -8l17 -5v-84q159 121 289 121q90 0 144.5 -31t80.5 -96q148 127 332 127q147 0 201 -94q31 -55 31 -139q0 -59 -15 -133l-155 -736q-90 -16 -215 -16q-58 0 -110 4t-74 8l-23 4l149 705q3 16 3 30q0 52 -54 52 q-33 0 -72 -27l-161 -760q-90 -16 -215 -16q-58 0 -110 4t-75 8l-22 4l149 705q3 16 3 30q0 52 -54 52q-34 0 -72 -23l-161 -764q-90 -16 -215 -16q-58 0 -110 4t-74 8z" />
<glyph unicode="n" horiz-adv-x="1118" d="M-57 16l225 1065q78 17 215 17q60 0 107.5 -4t65.5 -8l17 -5v-80q81 60 147 88.5t138 28.5q152 0 206 -94q32 -56 33 -139q0 -58 -16 -129l-155 -740q-74 -16 -215 -16q-62 0 -113.5 4t-72.5 8l-21 4l149 709q4 16 4 28q0 50 -57 50q-32 0 -74 -25l-161 -762 q-80 -16 -215 -16q-60 0 -111.5 4t-73.5 8z" />
<glyph unicode="o" horiz-adv-x="1142" d="M26 243q-21 66 -22 149q0 86 23 190q32 150 89 255t138.5 166t179 88t223.5 27q167 0 275 -64q106 -64 150 -198q21 -66 22 -148q0 -86 -23 -190q-32 -150 -89.5 -255.5t-139 -167t-179.5 -88.5t-224 -27q-166 0 -272.5 64.5t-150.5 198.5zM438 348q10 -52 64 -53 q53 0 84 53t63 201q24 115 24 172q0 17 -2 29q-9 52 -63 51q-53 0 -85 -52.5t-64 -199.5q-23 -113 -24 -170q1 -18 3 -31z" />
<glyph unicode="p" horiz-adv-x="1161" d="M-156 -442l324 1523q88 17 215 17q56 0 103.5 -4t67.5 -8l19 -5v-84q139 121 271 121q65 0 114.5 -17.5t88.5 -61.5t58 -113q17 -62 17 -156v-20q-2 -108 -30 -248q-25 -124 -63 -217t-82.5 -150.5t-102.5 -92.5t-116.5 -48.5t-129.5 -13.5q-151 0 -221 102l-111 -524 q-88 -17 -215 -17q-56 0 -108 4.5t-75 8.5zM447 368q0 -29 15 -50q15 -23 44 -23q24 0 40.5 8t34.5 33.5t35 78t35 136.5q22 103 25 157v14q0 42 -13 60q-15 21 -51 21q-33 0 -61.5 -26.5t-42.5 -78.5l-55 -268q-6 -33 -6 -62z" />
<glyph unicode="q" horiz-adv-x="1157" d="M35 588q32 153 80.5 258.5t113 164t137 83t166.5 24.5q145 0 211 -112l35 75q72 17 199 17q56 0 107.5 -4t74.5 -8l23 -5l-324 -1523q-86 -17 -213 -17q-56 0 -108.5 4.5t-76.5 8.5l-24 4l111 522q-108 -100 -256 -100q-178 0 -249 152q-37 80 -37 202q0 110 30 254z M448 348q11 -53 64 -53q39 0 69.5 40t41.5 95l53 258q5 24 5 44q0 25 -9 42q-16 29 -54 29q-53 0 -86.5 -53.5t-64.5 -200.5q-22 -109 -22 -166q0 -21 3 -35z" />
<glyph unicode="r" horiz-adv-x="882" d="M-57 16l225 1065q84 17 215 17q61 0 106 -4t59 -8l15 -5l-6 -100q55 73 124.5 104t135.5 31q93 0 172 -59q-12 -75 -64 -171.5t-128 -162.5q-36 29 -115 29q-37 0 -88 -18.5t-90 -51.5l-139 -666q-90 -16 -215 -16q-58 0 -110 4t-74 8z" />
<glyph unicode="s" horiz-adv-x="948" d="M-82 70q35 158 141 258q120 -43 263 -43q73 0 104.5 11t36.5 34q3 13 -6.5 23.5t-31.5 20t-45 17.5t-60.5 19.5t-63.5 21.5q-45 18 -80.5 45.5t-65 71.5t-35.5 101q-2 18 -2 38q0 43 9 96q37 173 162 253.5t354 80.5q108 0 201.5 -17t133.5 -33l40 -17 q-21 -169 -137 -265q-117 33 -256 33q-109 0 -119 -45q-2 -12 8 -22.5t33.5 -20t48 -17t62 -19.5t65.5 -23q46 -18 81.5 -44.5t64.5 -70t35 -99.5q2 -18 2 -37q0 -43 -9 -95q-36 -174 -163.5 -260t-369.5 -86q-74 0 -142.5 9.5t-113.5 22.5t-79.5 26t-49.5 22z" />
<glyph unicode="t" horiz-adv-x="802" d="M49 784q1 60 17 146q9 42 20.5 78.5t19.5 52.5l7 16h118l41 193q84 36 206 50q65 7 125 7q53 0 102 -6l-52 -244h181v-6q0 -52 -17 -139q-8 -39 -19.5 -76t-19.5 -54l-8 -18h-180l-84 -395q-4 -18 -4 -33q0 -32 16 -48q24 -23 80 -23q24 0 50 3t40 6l14 3q3 -6 6 -17 t3 -54t-11 -95q-8 -35 -18 -65.5t-16 -43.5l-7 -14q-124 -28 -249 -28q-93 0 -157 13t-107.5 41t-63.5 76q-19 47 -19 112q0 68 21 165l84 397h-119z" />
<glyph unicode="u" horiz-adv-x="1118" d="M-6 206q-2 18 -2 37q0 54 14 115l154 723q74 17 215 17q62 0 113.5 -4t72.5 -8l21 -5l-150 -708q-4 -16 -3 -28q0 -50 56 -50q31 0 74 24l162 762q80 17 215 17q60 0 112 -4t74 -8l21 -5l-225 -1065q-79 -16 -216 -16q-60 0 -103 4t-56 8l-13 4v84q-123 -120 -282 -120 q-82 0 -138.5 28.5t-83 78t-32.5 119.5z" />
<glyph unicode="v" horiz-adv-x="1116" d="M86 1081q98 17 223 17q51 0 99 -4t70 -8l22 -5l16 -266q2 -47 2 -95q0 -62 -4 -124q-6 -112 -16 -170l-9 -57h9q6 23 18 63.5t57 158.5t99 226l129 264q84 17 215 17q54 0 104 -4t74 -8l23 -5l-525 -1065q-98 -16 -266 -16q-77 0 -141.5 4t-90.5 8l-26 4z" />
<glyph unicode="w" horiz-adv-x="1652" d="M94 1081q82 17 205 17q57 0 102.5 -4t62.5 -8l17 -5l2 -264q0 -215 -32 -448h6q75 268 153 448l113 264q94 17 213 17q56 0 107 -4t75 -8l23 -5l4 -264v-16q0 -170 -39 -432h8q68 253 154 448l110 264q68 17 185 17q53 0 98 -4t63 -8l19 -5l-447 -1065q-96 -16 -258 -16 q-159 0 -247 16l4 250q3 208 61 494h-8q-70 -303 -143 -494l-99 -250q-109 -16 -248 -16q-149 0 -258 16z" />
<glyph unicode="x" horiz-adv-x="1140" d="M-162 16l445 564l-177 501q109 17 238 17q60 0 111.5 -4t73.5 -8l22 -5l78 -217l170 217q94 17 219 17q56 0 111.5 -4t82.5 -8l27 -5l-418 -528l221 -537q-108 -16 -237 -16q-60 0 -111.5 4t-73.5 8l-22 4l-113 271l-211 -271q-108 -16 -225 -16q-56 0 -108.5 4t-77.5 8z " />
<glyph unicode="y" horiz-adv-x="1120" d="M-158 -428q36 150 156 270q98 -47 209 -47q33 0 47.5 0.5t47 4.5t50 12.5t44.5 26t43.5 43t34 65t28.5 90.5l6 29q-59 -52 -124.5 -69t-154.5 -17q-151 0 -207 92q-34 57 -34 143q0 54 14 119l160 747q74 17 215 17q62 0 113.5 -4t72.5 -8l21 -5l-150 -708q-4 -16 -4 -28 q0 -50 57 -50q31 0 74 24l162 762q80 17 215 17q60 0 112 -4t74 -8l21 -5l-227 -1065q-130 -528 -678 -528q-102 0 -201.5 21t-148.5 42z" />
<glyph unicode="z" horiz-adv-x="1005" d="M-76 0v11q0 61 19 151q14 69 47 151l514 471h-398v17q0 58 17 139q8 41 20.5 80.5t21.5 58.5l9 19h866q0 -77 -14 -148q-20 -97 -53 -166l-516 -471h417q4 -16 4 -39q0 -46 -16 -116q-9 -44 -22 -83.5t-22 -56.5l-9 -18h-885z" />
<glyph unicode="{" horiz-adv-x="868" d="M-8 535q-5 52 16 153q19 82 49 148h62q60 0 100.5 34.5t52.5 92.5l82 383q30 142 130 227.5t249 85.5h307q5 -54 -16 -152q-15 -81 -47 -151h-72q-61 0 -102 -34.5t-53 -92.5l-60 -285q-41 -185 -182 -258q113 -75 72 -260l-60 -285q-12 -58 13 -92.5t85 -34.5h72 q3 -66 -16 -157q-20 -90 -47 -146h-308q-149 0 -213 86.5t-32 227.5l80 383q12 58 -14 92.5t-87 34.5h-61z" />
<glyph unicode="|" horiz-adv-x="684" d="M-94 -387l422 1989q94 16 225 16q56 0 110 -4t81 -8l26 -4l-422 -1989q-100 -16 -225 -16q-58 0 -112.5 4t-79.5 8z" />
<glyph unicode="}" horiz-adv-x="868" d="M-147 -289q-4 66 14 146q18 87 49 157h72q61 0 102 34.5t53 92.5l60 285q41 187 182 260q-113 75 -72 258l60 285q12 58 -13.5 92.5t-85.5 34.5h-71q-3 58 14 151q21 98 49 152h307q149 0 213.5 -86t34.5 -227l-82 -383q-12 -58 14 -92.5t87 -34.5h61q3 -63 -16 -148 q-21 -97 -49 -153h-62q-60 0 -100.5 -34.5t-52.5 -92.5l-80 -383q-32 -142 -132 -228t-249 -86h-307z" />
<glyph unicode="~" horiz-adv-x="1071" d="M43 608q4 6 12.5 16.5t38.5 37.5t63.5 47.5t87.5 37.5t111 17q64 0 117 -16.5t82.5 -36t70.5 -36t85 -16.5q39 0 75.5 16.5t53.5 32.5l16 17q64 -25 104 -79.5t41 -125.5q-4 -6 -12.5 -16.5t-38.5 -37.5t-63 -47t-86.5 -37t-110.5 -17q-64 0 -118 16.5t-84.5 35.5 t-71 35.5t-80.5 16.5q-41 0 -78 -16.5t-54 -32.5l-16 -17q-65 28 -103.5 79.5t-41.5 125.5z" />
<glyph unicode="&#xa1;" horiz-adv-x="632" d="M-127 -397l248 970q69 15 188 15q52 0 98.5 -4t66.5 -8l20 -3l-162 -970q-82 -17 -234 -17q-64 0 -120.5 4t-80.5 8zM111 647l84 397q80 17 215 17q60 0 111.5 -4.5t72.5 -8.5l22 -4l-84 -397q-78 -16 -215 -16q-60 0 -111.5 4t-73.5 8z" />
<glyph unicode="&#xa2;" horiz-adv-x="985" d="M41 539q54 250 173 389t308 176l21 180q90 21 190 21q48 0 94.5 -5.5t68.5 -10.5l22 -5l-58 -188q42 -10 78.5 -24t51.5 -23l16 -9q-50 -159 -185 -268q-43 31 -121 31q-86 0 -135 -59t-78 -197q-29 -133 -2.5 -189.5t117.5 -56.5q38 0 75 8.5t55 17.5l18 9 q81 -101 69 -268q-73 -43 -192 -68l-27 -207q-83 -20 -192 -20q-44 0 -90 5t-70 10l-23 5l62 199q-173 33 -236 165t-10 382z" />
<glyph unicode="&#xa3;" horiz-adv-x="1134" d="M-41 0l72 334q142 115 186 215h-162q1 63 17 143q8 40 19 75t17 49l7 15h102q-8 108 10 195q17 81 59.5 147t100 110.5t129.5 74.5t147.5 43.5t155.5 13.5q140 0 226.5 -19t166.5 -57q-43 -169 -176 -276q-103 39 -192 39q-169 -4 -207 -172q-8 -41 -8 -99h346 q4 -47 -14 -135q-7 -37 -18.5 -74t-19.5 -55l-8 -18h-305q-39 -126 -149 -215h543q3 -60 -17 -162q-10 -44 -24 -87t-23 -64l-8 -21h-973z" />
<glyph unicode="&#xa4;" horiz-adv-x="1243" d="M-44 180l1 19l170 141q-30 104 -4 215q20 108 96 215l-110 141q2 8 8 21t33 50t65 69q40 35 79 54t58 21l19 2l110 -141q111 51 228 51q114 0 202 -51l172 141q7 0 19.5 -2t45.5 -21t58 -54q25 -32 37.5 -67t12.5 -54l-1 -19l-172 -141q28 -102 7 -215q-27 -119 -99 -215 l113 -141q-2 -8 -8 -21.5t-33.5 -51t-65.5 -69.5q-40 -36 -79.5 -54.5t-58.5 -19.5l-19 -1l-111 141q-114 -51 -227 -51q-118 0 -203 51l-172 -141q-8 0 -20.5 3t-46 22.5t-58.5 53.5q-24 32 -35.5 66.5t-10.5 52.5zM432 555q-17 -73 22.5 -123.5t112.5 -50.5t134.5 50 t78.5 124q15 74 -24.5 124t-112.5 50q-72 0 -134 -50.5t-77 -123.5z" />
<glyph unicode="&#xa5;" horiz-adv-x="1335" d="M119 217q4 74 16 127q10 50 35 113h266l23 98h-266q-2 45 12 119q8 46 37 121h149l-194 583q94 23 229 23q57 0 111 -5.5t79 -10.5l25 -5l115 -346l278 350q92 17 217 17q51 0 102.5 -4.5t76.5 -8.5l26 -4l-467 -589h141q3 -44 -12 -119q-8 -46 -37 -121h-260l-22 -98 h260q3 -48 -10 -111q-17 -77 -41 -129h-260l-41 -199q-109 -18 -187 -18q-34 0 -78 4.5t-71 9.5l-27 4l41 199h-266z" />
<glyph unicode="&#xa6;" horiz-adv-x="671" d="M-104 -408l196 924q92 16 223 16q56 0 111 -4t82 -8l27 -4l-197 -924q-100 -16 -225 -16q-58 0 -112.5 4t-79.5 8zM135 719l191 903q94 16 225 16q56 0 110 -4t81 -8l26 -4l-190 -903q-101 -17 -226 -17q-58 0 -112.5 4t-79.5 8z" />
<glyph unicode="&#xa7;" horiz-adv-x="1013" d="M-51 53q16 75 56.5 149t94.5 117q108 -40 228 -49q151 -11 159 33q3 15 -22.5 23.5t-67.5 15t-93 15t-100 27.5t-86.5 47.5t-53.5 80.5t-1 121q32 152 191 235q-105 77 -68 246q30 147 160.5 223t331.5 76q204 0 360 -67q-15 -69 -55 -137.5t-92 -114.5q-66 20 -154 32 q-160 19 -172 -39q-3 -15 15.5 -24t51.5 -14t74.5 -12t84.5 -17t81.5 -29t66 -49t38 -76.5t-3.5 -111.5q-33 -151 -187 -222q136 -75 99 -256q-16 -77 -66 -135.5t-125 -93t-164 -51t-192 -16.5q-95 0 -192 18t-147 36zM438 713q-8 -42 25 -66.5t96 -40.5q34 34 43 74 q8 43 -23.5 66.5t-95.5 41.5q-36 -36 -45 -75z" />
<glyph unicode="&#xa8;" horiz-adv-x="931" d="M-4 1235l65 303q66 14 183 14q51 0 95.5 -3.5t63.5 -6.5l19 -4l-66 -303q-67 -14 -182 -14q-51 0 -95.5 3.5t-63.5 7.5zM457 1235l65 303q66 14 183 14q51 0 95.5 -3.5t63.5 -6.5l19 -4l-66 -303q-67 -14 -182 -14q-51 0 -95.5 3.5t-63.5 7.5z" />
<glyph unicode="&#xa9;" horiz-adv-x="1617" d="M54 456q-12 113 12 240q33 155 123 295.5t212.5 241.5t275.5 161t308 60q124 0 232 -38.5t185 -107.5t129 -164t63 -208t-13 -240q-43 -207 -181 -381t-333.5 -275t-402.5 -101q-124 0 -232 38.5t-185.5 107t-129 163.5t-63.5 208zM333.5 503.5q20.5 -89.5 70 -156.5 t132 -105.5t183.5 -38.5q205 0 377 143.5t215 349.5q29 135 -11 248.5t-138.5 179.5t-233.5 66t-261 -66t-214 -179.5t-117 -248.5q-23 -103 -2.5 -192.5zM467 702q43 201 158 304.5t295 103.5q69 0 129.5 -19t86.5 -38l25 -19q-37 -128 -149 -186q-31 29 -92 29 q-62 0 -100 -41t-58 -136q-21 -93 0 -129t84 -36q31 0 59 5.5t41 11.5l12 5q42 -23 61.5 -74t10.5 -112q-14 -9 -39 -22t-99.5 -34.5t-146.5 -21.5q-179 0 -249.5 105.5t-28.5 303.5z" />
<glyph unicode="&#xaa;" horiz-adv-x="722" d="M-10 299q-2 42 10.5 100.5t32.5 100.5h594q3 -41 -10 -101t-33 -100h-594zM84 823q16 71 61 118.5t104 68t130 20.5l86 -4l6 21q3 21 -6 30.5t-39 9.5q-41 0 -83.5 -7.5t-64.5 -15.5l-22 -7q-22 35 -32 83.5t-3 94.5q16 6 44 15t107.5 24.5t149.5 15.5q150 0 202 -58 t26 -177l-91 -424q-49 -17 -129 -17q-32 0 -61 4t-42 8l-13 5l-6 45q-72 -72 -170 -72q-93 0 -135 56.5t-19 162.5zM362 823q-8 -51 19 -51q30 0 45 64l8 36q-8 2 -26 2q-35 0 -46 -51z" />
<glyph unicode="&#xab;" horiz-adv-x="1181" d="M27 397q-12 54 8 150q9 44 23 82t24 55l10 16l529 373q35 -46 47.5 -116.5t1.5 -145.5l-303 -260l192 -258q-25 -83 -62 -144.5t-98 -117.5zM551 408q-10 53 8 139q8 40 21.5 76.5t22.5 52.5l9 16l508 357q63 -92 41 -244l-282 -254l176 -252q-47 -148 -146 -244z" />
<glyph unicode="&#xac;" horiz-adv-x="1224" d="M68 621q-8 63 12 159q9 44 23 84t24 58l10 18h1065l-135 -635q-57 -22 -166 -22q-48 0 -87 5.5t-54 11.5l-15 5l66 316h-743z" />
<glyph unicode="&#xad;" horiz-adv-x="520" />
<glyph unicode="&#xae;" horiz-adv-x="1044" d="M121 965q27 129 113 238t208.5 172t251.5 63t224.5 -63t135.5 -172t13 -238t-113 -238t-208.5 -172t-251.5 -63t-224.5 63t-135.5 172t-13 238zM264 965q-29 -136 48 -233t212 -97q136 0 252.5 96.5t145.5 233.5q29 136 -46 231.5t-212 95.5q-136 0 -253.5 -95.5 t-146.5 -231.5zM367 750l96 456h231q73 0 110 -40t23 -105q-9 -46 -41 -82t-77 -51l61 -172q-27 -17 -80 -17q-18 0 -34.5 2.5t-23.5 5.5l-7 3l-62 165h-12l-35 -165q-29 -11 -76 -11q-22 0 -40 2.5t-26 5.5zM573 1026h52q22 0 33.5 7.5t15.5 27.5t-3.5 27.5t-29.5 7.5h-51z " />
<glyph unicode="&#xaf;" horiz-adv-x="833" d="M8 1260q-2 54 14 128t39 121h703q3 -49 -13 -123t-40 -126h-703z" />
<glyph unicode="&#xb0;" horiz-adv-x="753" d="M142.5 1067q-11.5 59 4.5 121q30 137 145.5 239.5t276.5 102.5q67 0 120 -19t85 -51t52.5 -75t22.5 -91t-7 -98q-28 -136 -141 -236t-275 -100q-86 0 -149 28t-93 74t-41.5 105zM420 1192q-7 -29 8 -50.5t51 -21.5q33 0 57.5 22t30.5 52t-8 52t-47 22q-36 0 -61 -22.5 t-31 -53.5z" />
<glyph unicode="&#xb1;" horiz-adv-x="974" d="M-8 150q-2 53 18 145q8 41 19 77t19 52l7 16h799q4 -53 -14 -145q-9 -41 -21 -77t-20 -52l-8 -16h-799zM104 678q-1 53 17 145q9 41 20 77.5t18 52.5l7 16h254l37 172q57 14 149 14q41 0 76.5 -3.5t50.5 -7.5l15 -3l-37 -172h254q5 -54 -15 -146q-8 -41 -19.5 -77 t-19.5 -52l-8 -16h-254l-37 -172q-55 -17 -147 -17q-41 0 -76.5 4.5t-50.5 8.5l-16 4l36 172h-254z" />
<glyph unicode="&#xb2;" horiz-adv-x="624" d="M57 709q-3 51 11 125q16 73 59 126t94.5 80.5t101 47.5t85.5 41.5t41 48.5q4 21 -14 31t-56 10q-59 0 -148 -21q-18 33 -19 84.5t17 103.5q115 35 252 35q138 0 198.5 -50.5t37.5 -158.5q-14 -67 -46 -112.5t-73.5 -69.5t-82.5 -39t-87 -32.5t-74 -38.5h264 q5 -44 -8 -109q-9 -51 -35 -102h-518z" />
<glyph unicode="&#xb3;" horiz-adv-x="636" d="M45 745q9 41 36 86.5t58 71.5q65 -20 137 -20q60 0 84.5 12t30.5 41t-8.5 39t-63.5 10h-98q-5 34 7 89.5t32 88.5h98q36 0 50 7t20 30q3 22 -11 30.5t-61 8.5q-32 0 -65 -4t-51 -8l-17 -4q-49 55 -30 157q117 41 256 41q161 0 222 -48t42 -142q-25 -115 -138 -152 q117 -44 91 -166q-22 -105 -103 -160t-258 -55q-76 0 -141 12t-92 24z" />
<glyph unicode="&#xb4;" horiz-adv-x="458" d="M-59 1372l280 342q104 11 200.5 -27.5t123.5 -105.5l-393 -321q-160 25 -211 112z" />
<glyph unicode="&#xb5;" horiz-adv-x="1212" d="M-98 -498q-1 128 73 469l236 1110q90 17 215 17q58 0 110 -4t74 -8l23 -5l-150 -702q-17 -84 52 -84q33 0 75 27l162 759q90 17 215 17q58 0 110 -4t75 -8l22 -5l-225 -1065q-84 -16 -215 -16q-56 0 -107.5 4t-75.5 8l-24 4l12 64q-71 -100 -203 -100q-17 0 -49 4 q-2 -73 3 -141t14.5 -113t19 -79.5t16.5 -50.5l7 -16q-63 -47 -144.5 -71t-160 -23.5t-160.5 12.5z" />
<glyph unicode="&#xb6;" horiz-adv-x="1556" d="M79.5 774q1.5 56 14.5 113q24 105 80.5 201t139 173.5t197 124t243.5 46.5h344l-402 -1885q-78 -12 -184 -12q-49 0 -94 3t-66 6l-20 3l170 799q-73 1 -135.5 18t-109 45.5t-81.5 68t-56.5 86.5t-31.5 100.5t-8.5 109.5zM815 -453l397 1872q76 13 187 13q47 0 91.5 -3 t65.5 -7l21 -3l-397 -1872q-79 -12 -185 -12q-49 0 -94 3t-65 6z" />
<glyph unicode="&#xb7;" horiz-adv-x="538" d="M31 406l75 356q70 16 195 16q55 0 101.5 -4t65.5 -8l19 -4l-75 -356q-72 -17 -195 -17q-55 0 -101.5 4.5t-65.5 8.5z" />
<glyph unicode="&#xb8;" horiz-adv-x="606" d="M-356 -412q6 35 31 81t51 65q63 -23 143 -29q131 -8 147 59q6 29 -7.5 41.5t-49.5 12.5h-158l-22 32l102 259l209 -37l-43 -105q228 0 182 -211q-24 -107 -112.5 -162t-220.5 -55q-72 0 -135 12.5t-90 24.5z" />
<glyph unicode="&#xb9;" horiz-adv-x="561" d="M131.5 1171q-5.5 55 7.5 107q148 38 240 121q48 10 145 10q80 0 125 -10l-145 -682q-62 -10 -133 -10q-92 0 -146 10l68 317q18 76 29 105q-78 -47 -164 -56q-21 33 -26.5 88z" />
<glyph unicode="&#xba;" horiz-adv-x="743" d="M2 299q-2 26 10 100q13 59 33 101h594q3 -37 -8 -99q-13 -59 -35 -102h-594zM113 950q37 173 134.5 256.5t264.5 83.5t230.5 -82t27.5 -258q-38 -176 -137.5 -261t-265.5 -85q-167 0 -229.5 84.5t-24.5 261.5zM381.5 833.5q2.5 -14.5 8.5 -18.5t20 -4q25 0 38.5 24.5 t32.5 114.5q10 47 13.5 73.5t1.5 41t-8 18.5t-19 4q-26 0 -40 -24.5t-32 -112.5q-10 -47 -14 -74.5t-1.5 -42z" />
<glyph unicode="&#xbb;" horiz-adv-x="1181" d="M-12 299l282 252l-176 254q20 70 60 135t88 109l356 -357q10 -55 -8 -145q-8 -38 -21 -73t-23 -50l-9 -16l-506 -353q-32 52 -42 109t-1 135zM479 293l303 258l-192 260q20 74 63 144.5t97 117.5l372 -373q12 -55 -8 -153q-9 -43 -23 -80.5t-24 -53.5l-10 -16l-529 -366 q-36 56 -47 117.5t-2 144.5z" />
<glyph unicode="&#xbc;" horiz-adv-x="1478" d="M68 -6l1093 1429q54 15 160 15q47 0 86 -4t55 -8l15 -3l-1096 -1429q-62 -14 -160 -14q-42 0 -80 3.5t-55 6.5zM170.5 1171q-5.5 55 7.5 107q148 38 240 121q48 10 145 10q80 0 125 -10l-145 -682q-62 -10 -133 -10q-92 0 -146 10l68 317q20 84 28 105q-78 -47 -163 -56 q-21 33 -26.5 88zM670 127q0 47 8 88q7 33 24 76l406 399q56 12 127 12q69 0 121 -12l-84 -387h76q3 -40 -9 -88q-7 -36 -28 -88h-76l-25 -117q-64 -10 -127 -10q-66 0 -122 10l24 117h-315zM936 303h86l25 115z" />
<glyph unicode="&#xbd;" horiz-adv-x="1550" d="M68 -6l1093 1429q54 15 160 15q47 0 86 -4t55 -8l15 -3l-1096 -1429q-62 -14 -160 -14q-42 0 -80 3.5t-55 6.5zM170.5 1171q-5.5 55 7.5 107q148 38 240 121q48 10 145 10q80 0 125 -10l-145 -682q-62 -10 -133 -10q-92 0 -146 10l68 317q20 84 28 105q-78 -47 -163 -56 q-21 33 -26.5 88zM809 0q-4 51 12 125q15 73 58 126t94 80.5t100.5 47.5t86 41.5t42.5 48.5q4 21 -13.5 31t-53.5 10q-61 0 -150 -21q-19 33 -20.5 85t16.5 104q117 35 254 35q138 0 197.5 -50.5t35.5 -158.5q-14 -67 -45.5 -112.5t-73 -69.5t-82.5 -39.5t-86.5 -33 t-72.5 -38.5h264q3 -54 -8 -109q-12 -54 -37 -102h-518z" />
<glyph unicode="&#xbe;" horiz-adv-x="1519" d="M74 745q9 41 36 86.5t58 71.5q65 -20 137 -20q60 0 84.5 12t30.5 41t-8.5 39t-63.5 10h-98q-5 34 7 89.5t32 88.5h98q36 0 50 7t20 30q3 22 -11 30.5t-61 8.5q-32 0 -65 -4t-50 -8l-18 -4q-49 56 -31 157q117 41 256 41q161 0 222 -48t42 -142q-25 -115 -137 -152 q116 -44 90 -166q-22 -105 -102.5 -160t-257.5 -55q-76 0 -141 12t-92 24zM117 -6l1093 1429q54 15 160 15q47 0 86 -4t54 -8l16 -3l-1096 -1429q-62 -14 -160 -14q-42 0 -80 3.5t-56 6.5zM719 127q0 47 8 88q6 28 25 76l405 399q55 12 127 12q68 0 121 -12l-84 -387h76 q3 -43 -8 -88q-6 -32 -29 -88h-76l-24 -117q-64 -10 -127 -10q-67 0 -123 10l24 117h-315zM985 303h86l25 115z" />
<glyph unicode="&#xbf;" horiz-adv-x="970" d="M-99.5 -104.5q-5.5 48.5 9.5 108.5q15 72 47 129.5t71.5 94.5t83.5 66.5t87.5 53.5t80 48t63.5 58t36 76q67 21 186 21q53 0 97 -5.5t62 -10.5l17 -5q-17 -82 -46.5 -145.5t-63 -101.5t-70.5 -66.5t-71.5 -47t-64 -35.5t-50 -39.5t-27.5 -51.5q-8 -42 17.5 -60t93.5 -18 q49 0 105 11.5t87 23.5l31 12q54 -44 68.5 -122.5t-9.5 -163.5q-20 -8 -55.5 -20.5t-142.5 -33t-211 -20.5q-61 0 -112 4.5t-101 15.5t-86 29.5t-67 45.5t-45.5 63.5t-20 85zM375 651l84 398q78 16 213 16q60 0 112 -4t74 -8l23 -4l-84 -398q-78 -16 -215 -16q-60 0 -112 4 t-74 8z" />
<glyph unicode="&#xc0;" horiz-adv-x="1417" d="M-139 18l733 1438q102 19 297 19q90 0 162.5 -4.5t99.5 -9.5l27 -5l120 -1438q-82 -18 -229 -18q-61 0 -113.5 4.5t-75.5 9.5l-22 4l-18 246h-432l-121 -246q-86 -18 -219 -18q-59 0 -111.5 4.5t-74.5 9.5zM557 557h264l-20 287q-4 71 -2.5 129.5t5.5 95.5l5 37h-8 q-31 -123 -99 -262zM631 1855q55 67 167 106t212 28l135 -342q-88 -88 -258 -113z" />
<glyph unicode="&#xc1;" horiz-adv-x="1417" d="M-139 18l733 1438q102 19 297 19q90 0 162.5 -4.5t99.5 -9.5l27 -5l120 -1438q-82 -18 -229 -18q-61 0 -113.5 4.5t-75.5 9.5l-22 4l-18 246h-432l-121 -246q-86 -18 -219 -18q-59 0 -111.5 4.5t-74.5 9.5zM557 557h264l-20 287q-4 71 -2.5 129.5t5.5 95.5l5 37h-8 q-31 -123 -99 -262zM756 1647l278 342q105 11 202 -28t124 -106l-395 -321q-160 26 -209 113z" />
<glyph unicode="&#xc2;" horiz-adv-x="1417" d="M-139 18l733 1438q102 19 297 19q90 0 162.5 -4.5t99.5 -9.5l27 -5l120 -1438q-82 -18 -229 -18q-61 0 -113.5 4.5t-75.5 9.5l-22 4l-18 246h-432l-121 -246q-86 -18 -219 -18q-59 0 -111.5 4.5t-74.5 9.5zM508 1722l434 324h113l303 -324q-92 -133 -219 -188l-215 152 l-279 -150q-53 27 -89 76t-48 110zM557 557h264l-20 287q-4 71 -2.5 129.5t5.5 95.5l5 37h-8q-31 -123 -99 -262z" />
<glyph unicode="&#xc3;" horiz-adv-x="1417" d="M-139 18l733 1438q102 19 297 19q90 0 162.5 -4.5t99.5 -9.5l27 -5l120 -1438q-82 -18 -229 -18q-61 0 -113.5 4.5t-75.5 9.5l-22 4l-18 246h-432l-121 -246q-86 -18 -219 -18q-59 0 -111.5 4.5t-74.5 9.5zM500 1675q44 85 128 145t177 60q49 0 90 -14t65.5 -30t62 -30 t79.5 -14q34 0 65 14t45 28l15 15q99 -43 139 -145q-132 -170 -293 -170q-61 0 -109 19.5t-93 39t-97 19.5q-34 0 -67.5 -16.5t-50.5 -33.5l-17 -16q-108 35 -139 129zM557 557h264l-20 287q-4 71 -2.5 129.5t5.5 95.5l5 37h-8q-31 -123 -99 -262z" />
<glyph unicode="&#xc4;" horiz-adv-x="1417" d="M-139 18l733 1438q102 19 297 19q90 0 162.5 -4.5t99.5 -9.5l27 -5l120 -1438q-82 -18 -229 -18q-61 0 -113.5 4.5t-75.5 9.5l-22 4l-18 246h-432l-121 -246q-86 -18 -219 -18q-59 0 -111.5 4.5t-74.5 9.5zM489 1548l64 303q67 15 184 15q51 0 95 -4t62 -8l19 -3 l-63 -303q-69 -14 -184 -14q-51 0 -95.5 3.5t-62.5 6.5zM557 557h264l-20 287q-4 71 -2.5 129.5t5.5 95.5l5 37h-8q-31 -123 -99 -262zM950 1548l64 303q67 15 184 15q51 0 95 -4t63 -8l18 -3l-63 -303q-70 -14 -185 -14q-51 0 -95 3.5t-63 6.5z" />
<glyph unicode="&#xc5;" horiz-adv-x="1425" d="M-141 18l737 1389q-55 69 -33 184q34 155 157.5 242.5t270.5 87.5q69 0 128 -21.5t102.5 -61t60.5 -104t0 -143.5q-26 -120 -113 -188l142 -1385q-89 -18 -236 -18q-61 0 -113.5 4.5t-75.5 9.5l-22 4l-18 246h-432l-121 -246q-86 -18 -219 -18q-59 0 -113 4.5t-78 9.5z M561 557h264l-24 264q-5 71 -3.5 129.5t5.5 95.5l4 37h-8q-27 -123 -101 -262zM831 1591q-7 -35 10.5 -60.5t59.5 -25.5q43 0 72.5 26t36.5 60q8 35 -10.5 59.5t-61.5 24.5q-42 0 -71.5 -25.5t-35.5 -58.5z" />
<glyph unicode="&#xc6;" horiz-adv-x="1968" d="M-160 20l1196 1455h1037q10 -63 -11 -155t-57 -159h-475l-55 -260h372q12 -62 -8 -154t-57 -159h-373l-59 -275h495q9 -66 -9.5 -158t-55.5 -155h-942l61 285h-381l-213 -265q-82 -20 -239 -20q-167 0 -226 20zM770 598h195l69 328z" />
<glyph unicode="&#xc7;" horiz-adv-x="1177" d="M80 784q78 364 289 537.5t549 173.5q77 0 146.5 -9.5t113 -23t76.5 -27t47 -23.5l14 -9q-13 -72 -68 -158q-27 -42 -57 -73t-46 -42l-16 -10q-92 39 -213 39q-102 0 -169 -36.5t-117 -129.5t-86 -258q-26 -124 -27.5 -205t24.5 -128.5t73 -66t124 -18.5q56 0 117.5 11.5 t95.5 22.5l33 11q5 -4 13 -12.5t26.5 -42t28.5 -76.5q9 -38 9 -78t-4 -61l-5 -20q-5 -3 -14 -8t-42.5 -18t-71.5 -24t-100.5 -22.5t-130.5 -15.5l-24 -58q228 0 182 -211q-23 -107 -111.5 -162t-220.5 -55q-72 0 -135 12t-90 24l-27 13q5 35 29.5 81t52.5 65q63 -23 144 -29 q132 -8 145 60q6 29 -6.5 41t-48.5 12h-158l-23 33l72 178q-262 35 -363 246.5t-30 549.5z" />
<glyph unicode="&#xc8;" horiz-adv-x="1163" d="M-35 0l314 1475h989q8 -59 -13 -156q-21 -105 -57 -168h-543l-51 -248h440q4 -69 -12 -155q-22 -96 -55 -160h-440l-56 -264h563q7 -65 -14 -160q-23 -110 -55 -164h-1010zM469 1855q55 67 167 106t212 28l135 -342q-88 -88 -258 -113z" />
<glyph unicode="&#xc9;" horiz-adv-x="1163" d="M-35 0l314 1475h989q8 -59 -13 -156q-21 -105 -57 -168h-543l-51 -248h440q4 -69 -12 -155q-22 -96 -55 -160h-440l-56 -264h563q7 -65 -14 -160q-23 -110 -55 -164h-1010zM569 1647l279 342q105 11 202 -28t124 -106l-396 -321q-160 26 -209 113z" />
<glyph unicode="&#xca;" horiz-adv-x="1163" d="M-35 0l314 1475h989q8 -59 -13 -156q-21 -105 -57 -168h-543l-51 -248h440q4 -69 -12 -155q-22 -96 -55 -160h-440l-56 -264h563q7 -65 -14 -160q-23 -110 -55 -164h-1010zM408 1722l434 324h112l303 -324q-92 -133 -219 -188l-215 152l-278 -150q-53 27 -89 76t-48 110z " />
<glyph unicode="&#xcb;" horiz-adv-x="1163" d="M-35 0l314 1475h989q8 -59 -13 -156q-21 -105 -57 -168h-543l-51 -248h440q4 -69 -12 -155q-22 -96 -55 -160h-440l-56 -264h563q7 -65 -14 -160q-23 -110 -55 -164h-1010zM371 1548l63 303q67 15 184 15q51 0 95.5 -4t62.5 -8l19 -3l-64 -303q-69 -14 -184 -14 q-51 0 -95 3.5t-62 6.5zM831 1548l64 303q67 15 184 15q51 0 95 -4t62 -8l19 -3l-63 -303q-69 -14 -184 -14q-51 0 -95.5 3.5t-62.5 6.5z" />
<glyph unicode="&#xcc;" horiz-adv-x="643" d="M-31 18l305 1438q99 19 226 19q57 0 112.5 -4.5t81.5 -9.5l27 -5l-305 -1438q-103 -18 -228 -18q-60 0 -115 4.5t-79 9.5zM254 1855q55 67 167 106t212 28l135 -342q-88 -88 -258 -113z" />
<glyph unicode="&#xcd;" horiz-adv-x="643" d="M-31 18l305 1438q99 19 226 19q57 0 112.5 -4.5t81.5 -9.5l27 -5l-305 -1438q-103 -18 -228 -18q-60 0 -115 4.5t-79 9.5zM313 1647l279 342q105 11 202 -28t124 -106l-396 -321q-160 26 -209 113z" />
<glyph unicode="&#xce;" horiz-adv-x="643" d="M-31 18l305 1438q99 19 226 19q57 0 112.5 -4.5t81.5 -9.5l27 -5l-305 -1438q-103 -18 -228 -18q-60 0 -115 4.5t-79 9.5zM137 1722l434 324h113l303 -324q-92 -133 -219 -188l-215 152l-279 -150q-53 27 -89 76t-48 110z" />
<glyph unicode="&#xcf;" horiz-adv-x="643" d="M-31 18l305 1438q99 19 226 19q57 0 112.5 -4.5t81.5 -9.5l27 -5l-305 -1438q-103 -18 -228 -18q-60 0 -115 4.5t-79 9.5zM94 1548l64 303q67 15 184 15q51 0 95 -4t63 -8l18 -3l-63 -303q-70 -14 -185 -14q-51 0 -95 3.5t-63 6.5zM555 1548l63 303q68 15 185 15 q51 0 95 -4t62 -8l19 -3l-64 -303q-69 -14 -184 -14q-51 0 -95 3.5t-62 6.5z" />
<glyph unicode="&#xd0;" horiz-adv-x="1409" d="M-6 0l125 590h-111q-2 56 16.5 142.5t43.5 135.5h110l129 607h553q345 0 473 -185t43 -579q-42 -198 -112.5 -334.5t-174.5 -220t-235.5 -120t-306.5 -36.5h-553zM510 330h106q82 0 133.5 33t91 120.5t74.5 253.5q27 126 33.5 204t-10 124t-51 63t-96.5 17h-107l-59 -277 h143q4 -50 -15 -138t-44 -140h-144z" />
<glyph unicode="&#xd1;" horiz-adv-x="1445" d="M-31 18l305 1438q101 19 306 19q91 0 162.5 -4.5t97.5 -9.5l26 -5l62 -598q10 -98 12 -216.5t-1 -187.5l-3 -69h10q29 241 78 477l127 594q89 19 195 19q52 0 96.5 -4.5t63.5 -9.5l18 -5l-305 -1438q-94 -18 -299 -18q-84 0 -157 4.5t-105 9.5l-31 4l-72 607 q-12 103 -15 209t0 160l3 55h-13q-8 -184 -59 -424l-129 -607q-72 -18 -197 -18q-55 0 -99 4.5t-60 9.5zM600 1776q5 4 13.5 11t36 25t55 32t67 25t76.5 11q75 0 157.5 -32.5t143.5 -32.5q38 0 71.5 13.5t47.5 26.5l14 13q52 -32 72.5 -96.5t9.5 -133.5q-4 -4 -12 -11 t-33.5 -25t-52.5 -32t-68 -25t-82 -11q-75 0 -157.5 32.5t-143.5 32.5q-34 0 -67 -13.5t-50 -26.5l-16 -13q-52 32 -74 94.5t-8 135.5z" />
<glyph unicode="&#xd2;" d="M82 784q43 196 116.5 336t177.5 224t230 122.5t285 38.5q315 0 451 -210.5t51 -606.5q-42 -198 -115.5 -338.5t-178.5 -223t-230.5 -120t-284.5 -37.5q-315 0 -450 209.5t-52 605.5zM512 518.5q-7 -86.5 8 -134.5t45 -66.5t80 -18.5q69 0 116 34.5t89.5 131.5t79.5 272 q29 133 36.5 219.5t-8 134.5t-45.5 66.5t-82 18.5q-67 0 -113.5 -34.5t-89.5 -131.5t-81 -273q-28 -132 -35 -218.5zM639 1876q55 67 167 105.5t212 27.5l135 -342q-88 -88 -258 -113z" />
<glyph unicode="&#xd3;" d="M82 784q43 196 116.5 336t177.5 224t230 122.5t285 38.5q315 0 451 -210.5t51 -606.5q-42 -198 -115.5 -338.5t-178.5 -223t-230.5 -120t-284.5 -37.5q-315 0 -450 209.5t-52 605.5zM512 518.5q-7 -86.5 8 -134.5t45 -66.5t80 -18.5q69 0 116 34.5t89.5 131.5t79.5 272 q29 133 36.5 219.5t-8 134.5t-45.5 66.5t-82 18.5q-67 0 -113.5 -34.5t-89.5 -131.5t-81 -273q-28 -132 -35 -218.5zM758 1665l278 342q106 11 202 -27.5t122 -105.5l-393 -322q-160 25 -209 113z" />
<glyph unicode="&#xd4;" d="M82 784q43 196 116.5 336t177.5 224t230 122.5t285 38.5q315 0 451 -210.5t51 -606.5q-42 -198 -115.5 -338.5t-178.5 -223t-230.5 -120t-284.5 -37.5q-315 0 -450 209.5t-52 605.5zM512 518.5q-7 -86.5 8 -134.5t45 -66.5t80 -18.5q69 0 116 34.5t89.5 131.5t79.5 272 q29 133 36.5 219.5t-8 134.5t-45.5 66.5t-82 18.5q-67 0 -113.5 -34.5t-89.5 -131.5t-81 -273q-28 -132 -35 -218.5zM520 1722l426 297h113l311 -297q-92 -133 -219 -188l-215 152l-279 -150q-53 27 -89 76t-48 110z" />
<glyph unicode="&#xd5;" d="M82 784q43 196 116.5 336t177.5 224t230 122.5t285 38.5q315 0 451 -210.5t51 -606.5q-42 -198 -115.5 -338.5t-178.5 -223t-230.5 -120t-284.5 -37.5q-315 0 -450 209.5t-52 605.5zM512 518.5q-7 -86.5 8 -134.5t45 -66.5t80 -18.5q69 0 116 34.5t89.5 131.5t79.5 272 q29 133 36.5 219.5t-8 134.5t-45.5 66.5t-82 18.5q-67 0 -113.5 -34.5t-89.5 -131.5t-81 -273q-28 -132 -35 -218.5zM551 1802q4 4 11 11.5t30 26.5t47.5 34t62 27.5t74.5 13.5q75 3 170 -27t156 -28q38 2 71 16t47 28l13 13q54 -29 78 -92t14 -131q-3 -4 -9.5 -11.5 t-28 -26.5t-45.5 -34t-62.5 -27.5t-79.5 -13.5q-76 -3 -170.5 27t-155.5 28q-35 -2 -67.5 -16t-48.5 -28l-15 -13q-55 29 -79 89.5t-13 133.5z" />
<glyph unicode="&#xd6;" d="M82 784q43 196 116.5 336t177.5 224t230 122.5t285 38.5q315 0 451 -210.5t51 -606.5q-42 -198 -115.5 -338.5t-178.5 -223t-230.5 -120t-284.5 -37.5q-315 0 -450 209.5t-52 605.5zM506 1597l63 304q68 14 185 14q51 0 95 -3.5t63 -7.5l18 -3l-64 -304q-69 -14 -184 -14 q-51 0 -95 3.5t-63 7.5zM512 518.5q-7 -86.5 8 -134.5t45 -66.5t80 -18.5q69 0 116 34.5t89.5 131.5t79.5 272q29 133 36.5 219.5t-8 134.5t-45.5 66.5t-82 18.5q-67 0 -113.5 -34.5t-89.5 -131.5t-81 -273q-28 -132 -35 -218.5zM967 1597l63 304q67 14 184 14 q51 0 95.5 -3.5t62.5 -7.5l19 -3l-64 -304q-69 -14 -184 -14q-51 0 -95 3.5t-62 7.5z" />
<glyph unicode="&#xd7;" horiz-adv-x="950" d="M-6 371l266 219l-172 221q39 49 117 115q36 28 69.5 51t49.5 32l16 9l172 -221l268 221q43 -26 94 -92q23 -29 39.5 -58t21.5 -43l5 -14l-268 -221l174 -219q-35 -49 -113 -115q-36 -29 -69.5 -51.5t-49.5 -30.5l-16 -8l-174 219l-266 -219q-44 26 -95 92 q-22 29 -39 57.5t-24 42.5z" />
<glyph unicode="&#xd8;" d="M-59 12l170 207q-103 212 -29 565q43 196 116.5 336t177.5 224t230 122.5t285 38.5q139 0 246 -43l114 140q80 -4 145 -43t97 -95l-147 -178q129 -210 47 -598q-42 -198 -115.5 -338.5t-178.5 -223t-230.5 -120t-284.5 -37.5t-277 56l-123 -152q-74 5 -143.5 43.5 t-99.5 95.5zM535 680l391 469q-35 27 -95 27q-67 0 -113.5 -34.5t-89.5 -131.5t-81 -273zM541 340q30 -41 104 -41q69 0 116 34.5t89.5 131.5t79.5 272q12 51 18 97z" />
<glyph unicode="&#xd9;" horiz-adv-x="1384" d="M59 508l201 948q88 19 225 19q62 0 117.5 -4.5t79.5 -9.5l25 -5l-199 -938q-20 -90 11.5 -132t115.5 -42q83 0 131 41.5t68 132.5l198 938q84 19 221 19q61 0 116 -4.5t79 -9.5l25 -5l-201 -948q-55 -257 -240.5 -398t-460.5 -141q-280 0 -423 143t-89 396zM608 1855 q55 67 167 106t212 28l135 -342q-88 -88 -258 -113z" />
<glyph unicode="&#xda;" horiz-adv-x="1384" d="M59 508l201 948q88 19 225 19q62 0 117.5 -4.5t79.5 -9.5l25 -5l-199 -938q-20 -90 11.5 -132t115.5 -42q83 0 131 41.5t68 132.5l198 938q84 19 221 19q61 0 116 -4.5t79 -9.5l25 -5l-201 -948q-55 -257 -240.5 -398t-460.5 -141q-280 0 -423 143t-89 396zM709 1647 l278 342q105 11 202 -28t124 -106l-395 -321q-160 26 -209 113z" />
<glyph unicode="&#xdb;" horiz-adv-x="1384" d="M59 508l201 948q88 19 225 19q62 0 117.5 -4.5t79.5 -9.5l25 -5l-199 -938q-20 -90 11.5 -132t115.5 -42q83 0 131 41.5t68 132.5l198 938q84 19 221 19q61 0 116 -4.5t79 -9.5l25 -5l-201 -948q-55 -257 -240.5 -398t-460.5 -141q-280 0 -423 143t-89 396zM514 1722 l412 299h112l326 -299q-92 -133 -219 -188l-215 152l-279 -150q-53 27 -89 76t-48 110z" />
<glyph unicode="&#xdc;" horiz-adv-x="1384" d="M59 508l201 948q88 19 225 19q62 0 117.5 -4.5t79.5 -9.5l25 -5l-199 -938q-20 -90 11.5 -132t115.5 -42q83 0 131 41.5t68 132.5l198 938q84 19 221 19q61 0 116 -4.5t79 -9.5l25 -5l-201 -948q-55 -257 -240.5 -398t-460.5 -141q-280 0 -423 143t-89 396zM477 1569 l64 303q67 14 184 14q51 0 95 -3.5t62 -6.5l19 -4l-63 -303q-70 -15 -185 -15q-51 0 -95 4t-62 8zM938 1569l63 303q68 14 185 14q51 0 95 -3.5t63 -6.5l18 -4l-64 -303q-69 -15 -184 -15q-51 0 -95 4t-63 8z" />
<glyph unicode="&#xdd;" horiz-adv-x="1363" d="M164 1456q94 19 260 19q63 0 120 -4.5t83 -9.5l26 -5l123 -450l320 450q100 19 235 19q64 0 121.5 -4.5t83.5 -9.5l25 -5l-680 -932l-107 -506q-82 -18 -227 -18q-69 0 -124 4.5t-75 9.5l-20 4l108 512zM682 1647l279 342q105 11 201.5 -28t123.5 -106l-395 -321 q-160 26 -209 113z" />
<glyph unicode="&#xde;" horiz-adv-x="1245" d="M-31 18l305 1438q88 19 215 19q57 0 110 -4.5t77 -9.5l24 -5l-41 -196h205q117 0 202 -40t130 -111.5t58.5 -169.5t-13.5 -214q-49 -230 -200 -347.5t-390 -117.5h-205l-51 -242q-92 -18 -217 -18q-60 0 -112 4.5t-74 9.5zM514 580h86q97 0 146 37t71 143t-10 143 t-129 37h-86z" />
<glyph unicode="&#xdf;" horiz-adv-x="1232" d="M-57 16l233 1102q43 204 202.5 311t418.5 107q228 0 332 -108.5t71 -303.5q-17 -94 -55 -180q-177 -15 -199 -115q-8 -36 8.5 -73.5t46 -69.5t62.5 -73t59.5 -84.5t37.5 -105t-5 -134.5q-33 -158 -157.5 -233.5t-319.5 -75.5q-81 0 -153.5 10t-104.5 20l-33 10 q28 173 139 279q75 -20 125 -20q91 0 103 55q5 25 -18 59.5t-57.5 70t-68 88t-48.5 114t1 149.5q11 53 37 98.5t54.5 72.5t55.5 46.5t44 27.5l18 7q25 48 27 74q7 43 -13.5 66.5t-64.5 23.5q-63 0 -98.5 -34.5t-53.5 -119.5l-225 -1061q-90 -16 -215 -16q-58 0 -104.5 4 t-64.5 8z" />
<glyph unicode="&#xe0;" horiz-adv-x="1153" d="M33 580q33 154 80 260t111 166.5t138.5 86t172.5 25.5q68 0 129 -26.5t90 -81.5l20 73q74 19 201 19q56 0 107.5 -4t74.5 -8l23 -5l-228 -1069q-81 -16 -204 -16q-56 0 -101.5 4t-63.5 8l-18 4l2 78q-117 -114 -270 -114q-180 0 -254 149t-10 451zM448.5 347.5 q8.5 -52.5 65.5 -52.5q65 0 96 82l72 332q4 94 -61 94q-58 0 -87.5 -53.5t-62.5 -210.5q-31 -139 -22.5 -191.5zM467 1475q56 68 164.5 108.5t206.5 30.5l131 -348q-85 -87 -256 -113z" />
<glyph unicode="&#xe1;" horiz-adv-x="1153" d="M33 580q33 154 80 260t111 166.5t138.5 86t172.5 25.5q68 0 129 -26.5t90 -81.5l20 73q74 19 201 19q56 0 107.5 -4t74.5 -8l23 -5l-228 -1069q-81 -16 -204 -16q-56 0 -101.5 4t-63.5 8l-18 4l2 78q-117 -114 -270 -114q-180 0 -254 149t-10 451zM448.5 347.5 q8.5 -52.5 65.5 -52.5q65 0 96 82l72 332q4 94 -61 94q-58 0 -87.5 -53.5t-62.5 -210.5q-31 -139 -22.5 -191.5zM528 1262l279 342q105 11 202 -28t124 -106l-396 -321q-160 26 -209 113z" />
<glyph unicode="&#xe2;" horiz-adv-x="1153" d="M33 580q33 154 80 260t111 166.5t138.5 86t172.5 25.5q68 0 129 -26.5t90 -81.5l20 73q74 19 201 19q56 0 107.5 -4t74.5 -8l23 -5l-228 -1069q-81 -16 -204 -16q-56 0 -101.5 4t-63.5 8l-18 4l2 78q-117 -114 -270 -114q-180 0 -254 149t-10 451zM352 1356l412 293h110 l310 -293q-87 -128 -213 -182l-211 147l-273 -145q-52 26 -86.5 73t-48.5 107zM448.5 347.5q8.5 -52.5 65.5 -52.5q65 0 96 82l72 332q4 94 -61 94q-58 0 -87.5 -53.5t-62.5 -210.5q-31 -139 -22.5 -191.5z" />
<glyph unicode="&#xe3;" horiz-adv-x="1153" d="M33 580q33 154 80 260t111 166.5t138.5 86t172.5 25.5q68 0 129 -26.5t90 -81.5l20 73q74 19 201 19q56 0 107.5 -4t74.5 -8l23 -5l-228 -1069q-81 -16 -204 -16q-56 0 -101.5 4t-63.5 8l-18 4l2 78q-117 -114 -270 -114q-180 0 -254 149t-10 451zM387 1434l11 11t31 25 t49 32t62 25t74 11q75 0 168 -32.5t154 -32.5q38 0 71 13.5t47 26.5l13 13q52 -32 73 -96t11 -134q-3 -4 -9.5 -11t-28.5 -25t-46.5 -32t-63 -25t-79.5 -11q-75 0 -169 32.5t-155 32.5q-34 0 -66.5 -13.5t-48.5 -26.5l-16 -13q-53 32 -74.5 94t-7.5 136zM448.5 347.5 q8.5 -52.5 65.5 -52.5q65 0 96 82l72 332q4 94 -61 94q-58 0 -87.5 -53.5t-62.5 -210.5q-31 -139 -22.5 -191.5z" />
<glyph unicode="&#xe4;" horiz-adv-x="1153" d="M33 580q33 154 80 260t111 166.5t138.5 86t172.5 25.5q68 0 129 -26.5t90 -81.5l20 73q74 19 201 19q56 0 107.5 -4t74.5 -8l23 -5l-228 -1069q-81 -16 -204 -16q-56 0 -101.5 4t-63.5 8l-18 4l2 78q-117 -114 -270 -114q-180 0 -254 149t-10 451zM328 1206l65 303 q65 15 182 15q51 0 96 -4t64 -8l19 -3l-66 -303q-67 -14 -182 -14q-51 0 -95.5 3.5t-63.5 6.5zM448.5 347.5q8.5 -52.5 65.5 -52.5q65 0 96 82l72 332q4 94 -61 94q-58 0 -87.5 -53.5t-62.5 -210.5q-31 -139 -22.5 -191.5zM788 1206l66 303q65 15 182 15q51 0 95.5 -4 t63.5 -8l19 -3l-65 -303q-67 -14 -182 -14q-51 0 -96 3.5t-64 6.5z" />
<glyph unicode="&#xe5;" horiz-adv-x="1153" d="M33 580q33 154 80 260t111 166.5t138.5 86t172.5 25.5q68 0 129 -26.5t90 -81.5l20 73q74 19 201 19q56 0 107.5 -4t74.5 -8l23 -5l-228 -1069q-81 -16 -204 -16q-56 0 -101.5 4t-63.5 8l-18 4l2 78q-117 -114 -270 -114q-180 0 -254 149t-10 451zM448.5 347.5 q8.5 -52.5 65.5 -52.5q65 0 96 82l72 332q4 94 -61 94q-58 0 -87.5 -53.5t-62.5 -210.5q-31 -139 -22.5 -191.5zM459 1456q24 134 137 209.5t254 75.5q66 0 123.5 -18t100.5 -52.5t63 -90t8 -124.5q-22 -134 -135.5 -211.5t-259.5 -77.5q-150 0 -232 77t-59 212zM715 1456 q-7 -30 10 -52t57 -22q41 0 68.5 22.5t34.5 51.5q7 30 -10.5 51t-59.5 21q-40 0 -66.5 -21.5t-33.5 -50.5z" />
<glyph unicode="&#xe6;" horiz-adv-x="1587" d="M29 561q43 206 113 330t162.5 175.5t221.5 51.5q144 0 195 -108l20 73q45 19 172 19q56 0 93.5 -4t47.5 -8l9 -5l-8 -67q125 88 270 88q166 0 225.5 -109t16.5 -313q-14 -62 -33 -125t-31 -95l-12 -32h-518q2 -64 34 -96.5t103 -32.5q45 0 93.5 13.5t74.5 26.5l25 13 q41 -40 63 -114.5t10 -153.5q-5 -4 -14.5 -11.5t-41 -26t-65 -33t-85.5 -26t-105 -11.5q-143 0 -211 100l-20 -68q-44 -12 -150 -12q-56 0 -94 4t-48 8l-10 4l3 78q-54 -56 -112.5 -85t-137.5 -29q-378 0 -256 581zM439.5 347.5q10.5 -52.5 62.5 -52.5q36 0 63 26t33 60 l72 328q8 40 -8.5 67t-53.5 27q-53 0 -86.5 -56.5t-64.5 -207.5q-28 -139 -17.5 -191.5zM1014 657h151q9 29 15 58q25 121 -37 121q-77 0 -129 -179z" />
<glyph unicode="&#xe7;" horiz-adv-x="915" d="M16 -463q5 35 29.5 81t52.5 65q64 -23 144 -29q132 -8 145 59q6 29 -7 41.5t-48 12.5h-158l-22 32l79 199q-155 40 -205.5 189.5t5.5 392.5q64 281 213 409.5t403 128.5q60 0 116.5 -8t94 -19.5t66 -23t42.5 -19.5l13 -8q-51 -160 -184 -268q-43 31 -121 31 q-86 0 -135 -59t-78 -197q-29 -133 -3 -189.5t117 -56.5q38 0 75 8.5t55 17.5l18 9q82 -102 70 -268q-15 -9 -43.5 -22t-119 -37.5t-184.5 -28.5l-28 -66q227 0 182 -209q-23 -107 -111.5 -162t-220.5 -55q-72 0 -135 12t-90 24z" />
<glyph unicode="&#xe8;" horiz-adv-x="1046" d="M29 586q60 279 214.5 405.5t399.5 126.5q212 0 321 -119.5t64 -324.5q-14 -64 -32.5 -124.5t-29.5 -89.5l-12 -28h-514q-6 -72 26 -96.5t109 -24.5q47 0 96 12.5t74 24.5l25 12q38 -47 67 -127t23 -145q-5 -4 -14.5 -11.5t-46 -26t-80 -33t-117 -26t-156.5 -11.5 q-259 0 -368.5 158.5t-48.5 447.5zM393 1493q55 67 167.5 105.5t213.5 27.5l133 -342q-85 -87 -256 -113zM477 657h164q5 15 14 60q12 54 -0.5 86.5t-44.5 32.5q-82 0 -133 -179z" />
<glyph unicode="&#xe9;" horiz-adv-x="1044" d="M29 586q60 279 214.5 405.5t399.5 126.5q212 0 321 -119.5t64 -324.5q-14 -64 -32.5 -124.5t-29.5 -89.5l-12 -28h-514q-6 -72 26 -96.5t109 -24.5q47 0 96 12.5t74 24.5l25 12q38 -47 67 -127t23 -145q-5 -4 -14.5 -11.5t-46 -26t-80 -33t-117 -26t-156.5 -11.5 q-259 0 -368.5 158.5t-48.5 447.5zM430 1284l281 342q104 11 200 -27.5t123 -105.5l-393 -322q-159 25 -211 113zM477 657h164q5 15 14 60q12 54 -0.5 86.5t-44.5 32.5q-82 0 -133 -179z" />
<glyph unicode="&#xea;" horiz-adv-x="1046" d="M29 586q60 279 214.5 405.5t399.5 126.5q212 0 321 -119.5t64 -324.5q-14 -64 -32.5 -124.5t-29.5 -89.5l-12 -28h-514q-6 -72 26 -96.5t109 -24.5q47 0 96 12.5t74 24.5l25 12q38 -47 67 -127t23 -145q-5 -4 -14.5 -11.5t-46 -26t-80 -33t-117 -26t-156.5 -11.5 q-259 0 -368.5 158.5t-48.5 447.5zM274 1333l416 301h111l305 -301q-87 -128 -213 -182l-211 147l-272 -145q-106 52 -136 180zM477 657h164q5 15 14 60q12 54 -0.5 86.5t-44.5 32.5q-82 0 -133 -179z" />
<glyph unicode="&#xeb;" horiz-adv-x="1044" d="M29 586q60 279 214.5 405.5t399.5 126.5q212 0 321 -119.5t64 -324.5q-14 -64 -32.5 -124.5t-29.5 -89.5l-12 -28h-514q-6 -72 26 -96.5t109 -24.5q47 0 96 12.5t74 24.5l25 12q38 -47 67 -127t23 -145q-5 -4 -14.5 -11.5t-46 -26t-80 -33t-117 -26t-156.5 -11.5 q-259 0 -368.5 158.5t-48.5 447.5zM254 1206l65 303q66 15 183 15q51 0 95.5 -4t63.5 -8l19 -3l-66 -303q-67 -14 -182 -14q-51 0 -95.5 3.5t-63.5 6.5zM477 657h164q5 15 14 60q12 54 -0.5 86.5t-44.5 32.5q-82 0 -133 -179zM715 1206l65 303q66 15 183 15q51 0 95.5 -4 t63.5 -8l19 -3l-66 -303q-67 -14 -182 -14q-51 0 -95.5 3.5t-63.5 6.5z" />
<glyph unicode="&#xec;" horiz-adv-x="565" d="M-57 16l225 1065q78 17 215 17q60 0 111.5 -4t73.5 -8l22 -5l-225 -1065q-80 -16 -215 -16q-60 0 -111.5 4t-73.5 8zM129 1516q56 67 168.5 105.5t212.5 27.5l135 -342q-88 -88 -258 -113z" />
<glyph unicode="&#xed;" horiz-adv-x="565" d="M-57 16l225 1065q78 17 215 17q60 0 111.5 -4t73.5 -8l22 -5l-225 -1065q-80 -16 -215 -16q-60 0 -111.5 4t-73.5 8zM178 1305l281 342q104 11 200 -28t123 -106l-393 -321q-159 25 -211 113z" />
<glyph unicode="&#xee;" horiz-adv-x="565" d="M-57 16l225 1065q78 17 215 17q60 0 111.5 -4t73.5 -8l22 -5l-225 -1065q-80 -16 -215 -16q-60 0 -111.5 4t-73.5 8zM27 1374l426 318h110l295 -318q-87 -128 -213 -182l-211 147l-272 -145q-105 51 -135 180z" />
<glyph unicode="&#xef;" horiz-adv-x="565" d="M-57 16l225 1065q78 17 215 17q60 0 111.5 -4t73.5 -8l22 -5l-225 -1065q-80 -16 -215 -16q-60 0 -111.5 4t-73.5 8zM0 1206l66 303q65 15 182 15q51 0 95.5 -4t63.5 -8l19 -3l-66 -303q-67 -14 -182 -14q-51 0 -95.5 3.5t-63.5 6.5zM461 1206l65 303q66 15 183 15 q51 0 95.5 -4t63.5 -8l19 -3l-66 -303q-67 -14 -182 -14q-51 0 -95.5 3.5t-63.5 6.5z" />
<glyph unicode="&#xf0;" horiz-adv-x="1153" d="M-7 340q-4 78 15 176q28 135 85 233t134.5 153.5t164 81.5t186.5 26q47 0 107 -14t97 -42q-18 77 -98 174l-199 -92q-90 77 -112 189l110 51q-60 23 -135 33q5 69 31 129t70 98q205 -24 360 -109l231 109q43 -36 67 -88.5t21 -110.5l-131 -61q199 -239 113 -647 q-31 -148 -78.5 -260.5t-105.5 -186t-132 -119t-153 -64.5t-174 -19q-74 0 -140 12.5t-126 39t-103.5 69t-72 102t-32.5 137.5zM416.5 364.5q0.5 -52.5 17.5 -69t55 -16.5t62.5 16.5t48 69t45.5 151.5q16 77 20 125t-5.5 72.5t-25 32.5t-44.5 8q-38 0 -62 -16.5t-46.5 -69 t-43.5 -152.5q-22 -99 -21.5 -151.5z" />
<glyph unicode="&#xf1;" horiz-adv-x="1118" d="M-57 16l225 1065q78 17 215 17q60 0 107.5 -4t65.5 -8l17 -5v-80q81 60 147 88.5t138 28.5q152 0 206.5 -94.5t16.5 -267.5l-155 -740q-74 -16 -215 -16q-62 0 -113.5 4t-72.5 8l-21 4l149 709q18 78 -53 78q-32 0 -74 -25l-161 -762q-80 -16 -215 -16q-60 0 -111.5 4 t-73.5 8zM297 1425l11 11t31 25.5t49 32t62 25t74 11.5q75 0 168 -33t154 -33q38 0 71 13.5t47 26.5l13 14q53 -32 74 -96.5t10 -133.5q-3 -4 -9.5 -11t-28.5 -25t-46.5 -32t-63 -25t-79.5 -11q-75 0 -168 32.5t-154 32.5q-34 0 -67 -13.5t-49 -26.5l-17 -13q-52 32 -74 94 t-8 135z" />
<glyph unicode="&#xf2;" horiz-adv-x="1142" d="M25.5 243q-43.5 134 1.5 339q32 150 89 255t138.5 166t179 88t223.5 27q167 0 274.5 -64t151 -197.5t-1.5 -338.5q-32 -150 -89.5 -255.5t-139 -167t-179.5 -88.5t-224 -27q-166 0 -273 64.5t-150.5 198.5zM379 1493q55 67 167.5 105.5t213.5 27.5l133 -342 q-85 -87 -256 -113zM438 347.5q10 -52.5 64 -52.5q53 0 84 53t63 201q31 149 22 200.5t-63 51.5q-53 0 -85 -52.5t-64 -199.5q-31 -149 -21 -201.5z" />
<glyph unicode="&#xf3;" horiz-adv-x="1142" d="M25.5 243q-43.5 134 1.5 339q32 150 89 255t138.5 166t179 88t223.5 27q167 0 274.5 -64t151 -197.5t-1.5 -338.5q-32 -150 -89.5 -255.5t-139 -167t-179.5 -88.5t-224 -27q-166 0 -273 64.5t-150.5 198.5zM438 347.5q10 -52.5 64 -52.5q53 0 84 53t63 201 q31 149 22 200.5t-63 51.5q-53 0 -85 -52.5t-64 -199.5q-31 -149 -21 -201.5zM449 1284l280 342q104 11 200.5 -27.5t123.5 -105.5l-394 -322q-158 25 -210 113z" />
<glyph unicode="&#xf4;" horiz-adv-x="1144" d="M27.5 243q-43.5 134 1.5 339q32 150 89 255t138.5 166t179 88t223.5 27q167 0 274.5 -64t151 -197.5t-1.5 -338.5q-32 -150 -89.5 -255.5t-139 -167t-179.5 -88.5t-224 -27q-166 0 -273 64.5t-150.5 198.5zM291 1327l409 295h111l311 -295q-88 -130 -213 -182l-209 147 l-274 -145q-52 26 -86.5 73t-48.5 107zM440 347.5q10 -52.5 64 -52.5q53 0 84 53t63 201q31 149 22 200.5t-63 51.5q-53 0 -85 -52.5t-64 -199.5q-31 -149 -21 -201.5z" />
<glyph unicode="&#xf5;" horiz-adv-x="1142" d="M25.5 243q-43.5 134 1.5 339q32 150 89 255t138.5 166t179 88t223.5 27q167 0 274.5 -64t151 -197.5t-1.5 -338.5q-32 -150 -89.5 -255.5t-139 -167t-179.5 -88.5t-224 -27q-166 0 -273 64.5t-150.5 198.5zM344 1434l11 11t31 25t49 32t62 25t74 11q75 0 168 -32.5 t154 -32.5q38 0 71 13.5t46 26.5l14 13q52 -32 73 -96t11 -134q-3 -4 -9.5 -11t-28.5 -25t-46.5 -32t-63 -25t-79.5 -11q-75 0 -169 32.5t-155 32.5q-34 0 -66.5 -13.5t-48.5 -26.5l-16 -13q-53 32 -74.5 94t-7.5 136zM438 347.5q10 -52.5 64 -52.5q53 0 84 53t63 201 q31 149 22 200.5t-63 51.5q-53 0 -85 -52.5t-64 -199.5q-31 -149 -21 -201.5z" />
<glyph unicode="&#xf6;" horiz-adv-x="1142" d="M25.5 243q-43.5 134 1.5 339q32 150 89 255t138.5 166t179 88t223.5 27q167 0 274.5 -64t151 -197.5t-1.5 -338.5q-32 -150 -89.5 -255.5t-139 -167t-179.5 -88.5t-224 -27q-166 0 -273 64.5t-150.5 198.5zM266 1202l66 303q65 15 182 15q51 0 95.5 -4t63.5 -8l19 -3 l-65 -303q-68 -14 -183 -14q-51 0 -95.5 3.5t-63.5 6.5zM438 347.5q10 -52.5 64 -52.5q53 0 84 53t63 201q31 149 22 200.5t-63 51.5q-53 0 -85 -52.5t-64 -199.5q-31 -149 -21 -201.5zM727 1202l66 303q65 15 182 15q51 0 95.5 -4t63.5 -8l19 -3l-66 -303q-67 -14 -182 -14 q-51 0 -95.5 3.5t-63.5 6.5z" />
<glyph unicode="&#xf7;" horiz-adv-x="1017" d="M20 449q-3 53 17 145q8 41 19 77t18 52l8 16h901q4 -53 -14 -145q-9 -41 -20.5 -77t-18.5 -52l-8 -16h-902zM190 16l76 357q70 14 193 14q54 0 101 -3.5t67 -7.5l20 -3l-76 -357q-73 -16 -194 -16q-54 0 -100.5 4t-66.5 8zM360 817l76 357q70 14 193 14q54 0 101 -3.5 t67 -6.5l20 -4l-76 -357q-73 -16 -194 -16q-54 0 -100.5 4t-66.5 8z" />
<glyph unicode="&#xf8;" horiz-adv-x="1144" d="M-51 -41l137 166q-122 160 -57 457q32 150 89 255t138.5 166t179 88t223.5 27q128 0 218 -37l100 121q116 -9 164 -96l-113 -135q118 -152 55 -453q-32 -150 -89.5 -255.5t-139 -167t-179.5 -88.5t-224 -27q-121 0 -211 34l-125 -153q-57 4 -100.5 30t-65.5 68zM449 322 q18 -27 55 -27q53 0 84 53t63 201l4 18zM457 535l207 243q-17 23 -54 23q-53 0 -85 -52.5t-64 -199.5z" />
<glyph unicode="&#xf9;" horiz-adv-x="1118" d="M-6.5 206.5q-6.5 69.5 12.5 151.5l154 723q74 17 215 17q62 0 113.5 -4t72.5 -8l21 -5l-150 -708q-18 -78 53 -78q31 0 74 24l162 762q80 17 215 17q60 0 112 -4t74 -8l21 -5l-225 -1065q-79 -16 -216 -16q-60 0 -103 4t-56 8l-13 4v84q-123 -120 -282 -120 q-82 0 -138.5 28.5t-83 78.5t-33 119.5zM358 1493q55 67 167.5 105.5t213.5 27.5l133 -342q-85 -87 -256 -113z" />
<glyph unicode="&#xfa;" horiz-adv-x="1118" d="M-6.5 206.5q-6.5 69.5 12.5 151.5l154 723q74 17 215 17q62 0 113.5 -4t72.5 -8l21 -5l-150 -708q-18 -78 53 -78q31 0 74 24l162 762q80 17 215 17q60 0 112 -4t74 -8l21 -5l-225 -1065q-79 -16 -216 -16q-60 0 -103 4t-56 8l-13 4v84q-123 -120 -282 -120 q-82 0 -138.5 28.5t-83 78.5t-33 119.5zM457 1284l280 342q104 11 200.5 -27.5t123.5 -105.5l-393 -322q-159 25 -211 113z" />
<glyph unicode="&#xfb;" horiz-adv-x="1118" d="M-6.5 206.5q-6.5 69.5 12.5 151.5l154 723q74 17 215 17q62 0 113.5 -4t72.5 -8l21 -5l-150 -708q-18 -78 53 -78q31 0 74 24l162 762q80 17 215 17q60 0 112 -4t74 -8l21 -5l-225 -1065q-79 -16 -216 -16q-60 0 -103 4t-56 8l-13 4v84q-123 -120 -282 -120 q-82 0 -138.5 28.5t-83 78.5t-33 119.5zM289 1354l411 295h111l309 -295q-41 -60 -97 -108.5t-116 -74.5l-211 148l-272 -145q-105 51 -135 180z" />
<glyph unicode="&#xfc;" horiz-adv-x="1120" d="M4 338l158 743q74 17 215 17q62 0 113.5 -4t72.5 -8l21 -5l-150 -708q-18 -78 53 -78q31 0 74 24l162 762q80 17 215 17q60 0 112 -4t74 -8l21 -5l-225 -1065q-78 -16 -215 -16q-60 0 -103.5 4t-56.5 8l-13 4v84q-123 -120 -282 -120q-163 0 -222.5 94t-23.5 264z M276 1206l66 303q65 15 182 15q51 0 95.5 -4t63.5 -8l19 -3l-65 -303q-67 -14 -182 -14q-51 0 -96 3.5t-64 6.5zM737 1206l66 303q65 15 182 15q51 0 95.5 -4t63.5 -8l19 -3l-65 -303q-68 -14 -183 -14q-51 0 -95.5 3.5t-63.5 6.5z" />
<glyph unicode="&#xfd;" horiz-adv-x="1120" d="M-158 -428q36 150 156 270q98 -47 209 -47q33 0 47.5 0.5t47 4.5t50 12.5t44.5 26t43.5 43t34 65t28.5 90.5l6 29q-59 -52 -124.5 -69t-154.5 -17q-151 0 -206.5 92.5t-20.5 261.5l160 747q74 17 215 17q62 0 113.5 -4t72.5 -8l21 -5l-150 -708q-18 -78 53 -78 q31 0 74 24l162 762q80 17 215 17q60 0 112 -4t74 -8l21 -5l-227 -1065q-130 -528 -678 -528q-102 0 -201.5 21t-148.5 42zM455 1294l280 342q104 11 200.5 -27.5t123.5 -105.5l-393 -321q-160 25 -211 112z" />
<glyph unicode="&#xfe;" horiz-adv-x="1165" d="M-156 -442l422 1982q88 16 215 16q56 0 108 -4t75 -8l24 -4l-110 -518q111 96 266 96q81 0 141 -31.5t101 -102t44.5 -184.5t-28.5 -278q-26 -124 -65.5 -219t-86 -155.5t-105 -98.5t-118 -53.5t-129.5 -15.5q-151 0 -221 102l-111 -524q-88 -17 -215 -17q-56 0 -108 4.5 t-75 8.5zM447.5 370q-0.5 -30 14.5 -52.5t44 -22.5q24 0 40.5 8t34.5 33.5t35 78t35 136.5q22 103 24.5 156.5t-12.5 74.5t-51 21q-33 0 -61.5 -26.5t-42.5 -78.5l-55 -268q-5 -30 -5.5 -60z" />
<glyph unicode="&#xff;" horiz-adv-x="1120" d="M-158 -428q36 150 156 270q98 -47 209 -47q33 0 47.5 0.5t47 4.5t50 12.5t44.5 26t43.5 43t34 65t28.5 90.5l6 29q-59 -52 -124.5 -69t-154.5 -17q-151 0 -206.5 92.5t-20.5 261.5l160 747q74 17 215 17q62 0 113.5 -4t72.5 -8l21 -5l-150 -708q-18 -78 53 -78 q31 0 74 24l162 762q80 17 215 17q60 0 112 -4t74 -8l21 -5l-227 -1065q-130 -528 -678 -528q-102 0 -201.5 21t-148.5 42zM268 1206l66 303q65 15 182 15q51 0 95.5 -4t63.5 -8l19 -3l-65 -303q-68 -14 -183 -14q-51 0 -95.5 3.5t-63.5 6.5zM729 1206l66 303q65 15 182 15 q51 0 95.5 -4t63.5 -8l19 -3l-65 -303q-68 -14 -183 -14q-51 0 -95.5 3.5t-63.5 6.5z" />
<glyph unicode="&#x152;" horiz-adv-x="1810" d="M80 782q43 196 115.5 334.5t176 221t228.5 120t285 37.5q102 0 192 -20h838q9 -49 -12 -156q-24 -106 -56 -158h-501l-56 -260h400q10 -55 -13 -156q-18 -94 -53 -157h-399l-60 -275h523q8 -49 -13 -157q-18 -92 -53 -156h-860q-110 -20 -199 -20q-313 0 -439.5 206 t-43.5 596zM463.5 511q-5.5 -87 14.5 -133.5t55.5 -62.5t97.5 -16q80 0 157 49l166 776q-62 52 -137 52q-62 0 -104.5 -16.5t-82 -63.5t-71 -134t-61.5 -225q-29 -139 -34.5 -226z" />
<glyph unicode="&#x153;" horiz-adv-x="1646" d="M27 580q26 121 70 214t99 153.5t126.5 99.5t147.5 55t165 16q83 0 171 -34t130 -97q69 59 164 95t180 36q204 0 298.5 -113.5t49.5 -330.5q-14 -64 -32.5 -124.5t-29.5 -89.5l-12 -28h-512q3 -65 36.5 -95t99.5 -30q47 0 95.5 12.5t73.5 24.5l25 12q40 -37 63.5 -115.5 t10.5 -152.5q-147 -108 -375 -108q-203 0 -303 155q-69 -76 -158 -115.5t-176 -39.5q-251 0 -361 150t-46 450zM434 347.5q13 -52.5 68 -52.5q53 0 84 53t63 201q31 149 22 200.5t-63 51.5q-55 0 -90.5 -54t-66.5 -198q-30 -149 -17 -201.5zM1081 657h154q5 15 14 60 q26 119 -37 119q-80 0 -131 -179z" />
<glyph unicode="&#x178;" horiz-adv-x="1363" d="M164 1456q94 19 260 19q63 0 120 -4.5t83 -9.5l26 -5l123 -450l320 450q100 19 235 19q64 0 121.5 -4.5t83.5 -9.5l25 -5l-680 -932l-107 -506q-82 -18 -227 -18q-69 0 -124 4.5t-75 9.5l-20 4l108 512zM496 1552l65 303q65 15 182 15q51 0 96 -4t64 -8l19 -3l-66 -303 q-67 -14 -182 -14q-51 0 -95.5 3.5t-63.5 6.5zM956 1552l66 303q65 15 182 15q51 0 95.5 -4t63.5 -8l19 -3l-65 -303q-67 -14 -182 -14q-51 0 -96 3.5t-64 6.5z" />
<glyph unicode="&#x2c6;" horiz-adv-x="811" d="M-63 1286l436 324h112l301 -324q-88 -132 -217 -188l-215 151l-278 -149q-53 27 -89 76t-50 110z" />
<glyph unicode="&#x2dc;" horiz-adv-x="669" d="M-61 1477q5 4 13.5 11t35.5 25t54.5 32t67 25t76.5 11q75 0 157.5 -32.5t143.5 -32.5q38 0 71.5 13t47.5 27l15 13q51 -32 71.5 -96.5t9.5 -133.5q-4 -4 -12 -11t-33 -25t-52.5 -32t-68 -25t-81.5 -11q-75 0 -157.5 32.5t-143.5 32.5q-34 0 -67.5 -13t-50.5 -27l-16 -13 q-52 32 -73.5 94.5t-7.5 135.5z" />
<glyph unicode="&#x2000;" horiz-adv-x="1023" />
<glyph unicode="&#x2001;" horiz-adv-x="2046" />
<glyph unicode="&#x2002;" horiz-adv-x="1023" />
<glyph unicode="&#x2003;" horiz-adv-x="2046" />
<glyph unicode="&#x2004;" horiz-adv-x="682" />
<glyph unicode="&#x2005;" horiz-adv-x="511" />
<glyph unicode="&#x2006;" horiz-adv-x="341" />
<glyph unicode="&#x2007;" horiz-adv-x="341" />
<glyph unicode="&#x2008;" horiz-adv-x="255" />
<glyph unicode="&#x2009;" horiz-adv-x="409" />
<glyph unicode="&#x200a;" horiz-adv-x="113" />
<glyph unicode="&#x2010;" horiz-adv-x="675" d="M55 449q-3 53 17 145q8 41 19 77t19 52l7 16h491q4 -53 -14 -145q-9 -41 -20.5 -77t-19.5 -52l-7 -16h-492z" />
<glyph unicode="&#x2011;" horiz-adv-x="675" d="M55 449q-3 53 17 145q8 41 19 77t19 52l7 16h491q4 -53 -14 -145q-9 -41 -20.5 -77t-19.5 -52l-7 -16h-492z" />
<glyph unicode="&#x2012;" horiz-adv-x="675" d="M55 449q-3 53 17 145q8 41 19 77t19 52l7 16h491q4 -53 -14 -145q-9 -41 -20.5 -77t-19.5 -52l-7 -16h-492z" />
<glyph unicode="&#x2013;" horiz-adv-x="1085" d="M55 449q-3 53 17 145q8 41 19 77t19 52l7 16h901q4 -53 -14 -145q-9 -41 -21 -77t-19 -52l-8 -16h-901z" />
<glyph unicode="&#x2014;" horiz-adv-x="1597" d="M55 449q-3 53 17 145q8 41 19 77t19 52l7 16h1413q4 -53 -14 -145q-9 -41 -21 -77t-19 -52l-8 -16h-1413z" />
<glyph unicode="&#x2018;" horiz-adv-x="544" d="M82 717l68 317q17 76 54 149.5t78 124t79.5 90t64.5 58.5l25 19l131 -105q-10 -11 -26.5 -30.5t-52.5 -82.5t-54 -127q34 -2 69 -5.5t54 -6.5l18 -2l-86 -399q-82 -17 -213 -17q-56 0 -108 4t-77 8z" />
<glyph unicode="&#x2019;" horiz-adv-x="528" d="M143 1059l84 399q84 17 215 17q56 0 107.5 -4.5t75.5 -8.5l24 -4l-67 -317q-16 -76 -52.5 -149.5t-77.5 -124t-79.5 -90t-64.5 -58.5l-25 -19l-133 105q10 10 26.5 29.5t52 81.5t52.5 126q-32 2 -66.5 6t-52.5 8z" />
<glyph unicode="&#x201a;" horiz-adv-x="565" d="M-55 16l84 400q84 16 215 16q56 0 107.5 -4t75.5 -8l24 -4l-68 -318q-16 -76 -53 -149.5t-78 -123.5t-80 -89.5t-64 -58.5l-26 -19l-131 104q10 11 26.5 30.5t52 81.5t52.5 126q-33 2 -67 6t-52 7z" />
<glyph unicode="&#x201c;" horiz-adv-x="1028" d="M82 717l68 317q17 76 54 149.5t78 124t79.5 90t64.5 58.5l25 19l131 -105q-10 -11 -26.5 -30.5t-52.5 -82.5t-54 -127q34 -2 69 -5.5t54 -6.5l18 -2l-86 -399q-82 -17 -213 -17q-56 0 -108 4t-77 8zM565 717l68 317q17 76 54 149.5t78 124t79.5 90t63.5 58.5l26 19 l131 -105q-10 -11 -26.5 -30.5t-52.5 -82.5t-54 -127q34 -2 69 -5.5t53 -6.5l19 -2l-86 -399q-82 -17 -213 -17q-56 0 -108 4t-76 8z" />
<glyph unicode="&#x201d;" horiz-adv-x="1011" d="M143 1059l84 399q84 17 215 17q56 0 107.5 -4.5t75.5 -8.5l24 -4l-67 -317q-16 -76 -52.5 -149.5t-77.5 -124t-79.5 -90t-64.5 -58.5l-25 -19l-133 105q10 10 26.5 29.5t52 81.5t52.5 126q-32 2 -66.5 6t-52.5 8zM627 1059l84 399q84 17 215 17q56 0 107.5 -4.5 t75.5 -8.5l24 -4l-68 -317q-16 -76 -52.5 -149.5t-77.5 -124t-79.5 -90t-63.5 -58.5l-26 -19l-133 105q10 10 26.5 29.5t52 81.5t52.5 126q-32 2 -66.5 6t-52.5 8z" />
<glyph unicode="&#x201e;" horiz-adv-x="1048" d="M-55 16l84 400q84 16 215 16q56 0 107.5 -4t75.5 -8l24 -4l-68 -318q-16 -76 -53 -149.5t-78 -123.5t-80 -89.5t-64 -58.5l-26 -19l-131 104q10 11 26.5 30.5t52 81.5t52.5 126q-33 2 -67 6t-52 7zM428 16l84 400q84 16 215 16q56 0 107.5 -4t75.5 -8l24 -4l-68 -318 q-16 -76 -53 -149.5t-78 -123.5t-80 -89.5t-65 -58.5l-25 -19l-131 104q10 11 26.5 30.5t52 81.5t52.5 126q-33 2 -67 6t-52 7z" />
<glyph unicode="&#x2022;" horiz-adv-x="770" d="M80 578q27 130 128.5 211t229.5 81q126 0 192.5 -81t39.5 -211q-27 -129 -128 -209t-227 -80q-128 0 -195 80t-40 209z" />
<glyph unicode="&#x2026;" horiz-adv-x="1531" d="M-55 16l84 398q78 16 215 16q60 0 112 -4t74 -8l21 -4l-84 -398q-80 -16 -215 -16q-60 0 -111.5 4t-73.5 8zM428 16l84 398q78 16 215 16q60 0 111.5 -4t73.5 -8l22 -4l-84 -398q-80 -16 -215 -16q-60 0 -111.5 4t-73.5 8zM911 16l84 398q78 16 215 16q60 0 112 -4t74 -8 l21 -4l-84 -398q-80 -16 -215 -16q-60 0 -112 4t-74 8z" />
<glyph unicode="&#x202f;" horiz-adv-x="409" />
<glyph unicode="&#x2039;" horiz-adv-x="716" d="M16 397q-5 52 13 148q10 44 23.5 82.5t21.5 55.5l8 17l571 373q35 -46 47.5 -116.5t1.5 -145.5l-303 -260l193 -258q-25 -83 -62 -144.5t-98 -117.5z" />
<glyph unicode="&#x203a;" horiz-adv-x="714" d="M-14 293l303 258l-193 260q20 74 63 144.5t97 117.5l416 -373q6 -57 -17 -155q-8 -43 -20.5 -80t-20.5 -53l-8 -15l-571 -366q-36 56 -47 117.5t-2 144.5z" />
<glyph unicode="&#x205f;" horiz-adv-x="511" />
<glyph unicode="&#x20ac;" horiz-adv-x="1255" d="M8 403q2 52 25 123.5t55 116.5h105l8 43q2 7 5 22.5t5 22.5h-133q2 52 25 123.5t55 116.5h137q100 208 270 315t404 107q68 0 131 -9t103.5 -22t71 -26t44.5 -22l14 -9q-15 -75 -66.5 -149.5t-113.5 -111.5q-90 39 -203 39q-77 0 -132 -25.5t-95 -86.5h395 q-2 -51 -25.5 -122.5t-54.5 -117.5h-407q-4 -10 -13 -47q-6 -21 -6 -41h353q-1 -51 -25 -122.5t-55 -117.5h-283q14 -61 57.5 -85.5t122.5 -24.5q48 0 108 9.5t96 19.5l36 10q46 -43 64 -118.5t4 -145.5q-7 -4 -19.5 -9.5t-55 -21t-88 -27t-116 -21t-141.5 -9.5 q-236 0 -360.5 106.5t-135.5 316.5h-166z" />
<glyph unicode="&#x2122;" horiz-adv-x="1261" d="M203 1329q-3 21 6 70q14 58 24 76h474q3 -24 -9 -74q-6 -37 -22 -72h-146l-92 -436q-41 -8 -92 -8q-24 0 -45.5 2t-30.5 4l-10 2l92 436h-149zM621 893l120 573q83 9 113 9q32 0 59 -2.5t39 -4.5l11 -2l10 -151q8 -103 4 -141q47 105 63 137l76 155q41 9 111 9 q26 0 55 -2.5t45 -4.5l16 -2l-120 -573q-33 -8 -84 -8q-24 0 -44.5 2t-28.5 4l-9 2l45 211q6 30 33 143q-7 -15 -24.5 -48.5t-20.5 -41.5l-66 -133q-29 -8 -86 -8q-25 0 -45.5 2t-28.5 4l-8 2l-4 186l-6 37q-4 -25 -12 -64.5t-15 -78.5l-45 -211q-31 -8 -78 -8 q-22 0 -40.5 2t-26.5 4z" />
<glyph unicode="&#x25fc;" horiz-adv-x="1095" d="M0 0v1096h1096v-1096h-1096z" />
</font>
</defs>
</svg>
