<?xml version="1.0" standalone="no"?>
<!DOCTYPE svg PUBLIC "-//W3C//DTD SVG 1.1//EN" "http://www.w3.org/Graphics/SVG/1.1/DTD/svg11.dtd" >
<svg xmlns="http://www.w3.org/2000/svg">
<metadata></metadata>
<defs>
<font id="globerblack" horiz-adv-x="1161" >
<font-face units-per-em="2048" ascent="1536" descent="-512" />
<missing-glyph horiz-adv-x="333" />
<glyph unicode="&#xfb01;" horiz-adv-x="1269" d="M8 942q0 43 4 82t8 56l5 18h131v102q0 169 113 252.5t368 83.5q154 0 294 -22.5t203 -45.5l64 -22q-11 -150 -119 -270q-175 47 -368 47q-77 0 -105 -17t-28 -61v-47h409q60 0 112.5 -4t75.5 -8l23 -5v-1065q-76 -16 -211 -16q-60 0 -112.5 4t-75.5 8l-23 4v768h-198 v-768q-74 -16 -211 -16q-58 0 -111 4t-76 8l-24 4v768h-131q-17 62 -17 158z" />
<glyph unicode="&#xfb02;" horiz-adv-x="1269" d="M10 938q0 96 15 160h131v102q0 169 113 252.5t368 83.5q123 0 263 -22.5t219 -45.5l79 -22v-1430q-76 -16 -211 -16q-60 0 -112.5 4t-75.5 8l-23 4v1205q-12 0 -33 1t-32 1q-77 0 -105 -17t-28 -61v-47h112q17 -70 17 -156q0 -97 -17 -158h-112v-768q-74 -16 -211 -16 q-58 0 -111 4t-76 8l-24 4v768h-131q-15 64 -15 154z" />
<glyph horiz-adv-x="0" />
<glyph horiz-adv-x="682" />
<glyph unicode=" "  horiz-adv-x="333" />
<glyph unicode="&#x09;" horiz-adv-x="333" />
<glyph unicode="&#xa0;" horiz-adv-x="333" />
<glyph unicode="!" horiz-adv-x="651" d="M94 1458q78 17 230 17q64 0 121.5 -4.5t82.5 -8.5l25 -4l-43 -971q-65 -18 -184 -18q-52 0 -99 4.5t-69 8.5l-21 5zM115 16v398q74 16 211 16q60 0 113 -4t75 -8l23 -4v-398q-76 -16 -211 -16q-60 0 -113 4t-75 8z" />
<glyph unicode="&#x22;" horiz-adv-x="858" d="M45 1458q69 17 188 17q50 0 97.5 -4.5t69.5 -8.5l22 -4l-53 -502q-50 -16 -136 -16q-38 0 -72 4t-49 8l-14 4zM436 1458q70 17 189 17q50 0 97 -4.5t69 -8.5l22 -4l-53 -502q-49 -16 -135 -16q-38 0 -72 4t-49 8l-15 4z" />
<glyph unicode="#" horiz-adv-x="1452" d="M45 342q0 45 4.5 83.5t8.5 54.5l5 16h242l74 264h-146q-18 77 -18 153q0 91 18 154h234l53 190q68 19 156 19q97 0 168 -19l-53 -190h127l53 190q71 19 166 19q89 0 157 -19l-53 -190h145q21 -70 21 -143q0 -75 -21 -164h-233l-74 -264h138q20 -50 20 -152q0 -44 -5 -83 t-10 -56l-5 -17h-224l-47 -170q-65 -18 -155 -18q-101 0 -168 18l47 170h-127l-47 -170q-67 -18 -162 -18q-98 0 -162 18l47 170h-156q-18 56 -18 154zM629 496h127l73 264h-127z" />
<glyph unicode="$" horiz-adv-x="1208" d="M51 104q0 76 27 158q12 36 28.5 71.5t27.5 52.5l11 17q21 -6 58 -15t142 -24.5t200 -15.5q84 0 140 15.5t56 48.5q0 27 -37 46t-96 34t-130.5 32.5t-143.5 49t-131 75.5t-96 120t-37 175q0 161 99 271.5t284 146.5l-19 237q62 17 166 17q50 0 92 -4t59 -8l17 -5l-18 -227 q86 -7 168 -24t122 -30l39 -13q5 -66 -22 -152q-12 -36 -29.5 -70t-29.5 -51l-11 -16q-166 31 -289 31q-95 0 -153 -16.5t-58 -51.5q0 -21 23.5 -37t62.5 -28t90 -24t107.5 -28.5t113 -37.5t107.5 -55t90 -77.5t62.5 -108.5t23.5 -145q0 -181 -108 -291t-311 -141l20 -254 q-60 -16 -166 -16q-46 0 -88 4t-61 8l-19 4l19 250q-104 10 -204.5 35.5t-148.5 46.5z" />
<glyph unicode="%" horiz-adv-x="1601" d="M45 1061q0 362 328 362q329 0 329 -362q0 -361 -329 -361q-328 0 -328 361zM256 -6l788 1429q52 15 158 15q46 0 85.5 -4t56.5 -8l16 -3l-789 -1429q-51 -14 -157 -14q-46 0 -85.5 3.5t-56.5 6.5zM330 1061q0 -69 4.5 -101t12.5 -40.5t26 -8.5q17 0 25 8.5t12 40.5t4 101 t-4 101.5t-12 41t-25 8.5q-18 0 -26 -8.5t-12.5 -40.5t-4.5 -102zM901 340q0 362 328 362q330 0 330 -362q0 -360 -330 -360q-328 0 -328 360zM1186 340q0 -69 4.5 -101t12.5 -40.5t26 -8.5q17 0 25 8.5t12 40.5t4 101t-4 101.5t-12 41.5t-25 9q-18 0 -26 -8.5t-12.5 -41 t-4.5 -102.5z" />
<glyph unicode="&#x26;" horiz-adv-x="1359" d="M27 334q0 78 26.5 149.5t71 126t89 92.5t95.5 70q-59 141 -59 281q0 168 102 264t307 96q181 0 283 -74t102 -213q0 -67 -24 -127.5t-69.5 -111.5t-95.5 -90.5t-116 -81.5q75 -97 183 -185q49 83 73 150q84 -11 159.5 -53.5t115.5 -102.5q-34 -72 -96 -159 q103 -55 223 -101q-22 -99 -90 -172t-146 -94q-132 46 -243 108q-184 -126 -426 -126q-101 0 -184.5 21t-147 63t-98.5 110.5t-35 159.5zM403 385q0 -62 38.5 -94.5t95.5 -32.5q63 0 129 27q-124 106 -215 233q-48 -69 -48 -133zM588 1098q0 -67 22 -144q88 79 88 170 q0 26 -13.5 44t-37.5 18q-59 0 -59 -88z" />
<glyph unicode="'" horiz-adv-x="466" d="M45 1458q69 17 188 17q50 0 97.5 -4.5t69.5 -8.5l22 -4l-53 -502q-50 -16 -136 -16q-38 0 -72 4t-49 8l-14 4z" />
<glyph unicode="(" horiz-adv-x="608" d="M45 655q0 155 27 316t66 279.5t78 214.5t66 146l27 50q74 6 160 -39q38 -20 67 -46t38 -42l10 -16q-8 -13 -20 -37.5t-44 -108t-56.5 -176.5t-44.5 -240t-20 -301t19 -299t46.5 -243t54.5 -173.5t46 -111.5l19 -35l-2.5 -7.5t-10 -17.5t-20 -25.5t-33.5 -28.5t-49 -29 q-40 -18 -80 -27t-60 -8h-20q-11 18 -28.5 52t-63 141.5t-80.5 219t-63.5 274.5t-28.5 318z" />
<glyph unicode=")" horiz-adv-x="608" d="M25 -207q7 13 19.5 37t44.5 108t56 176.5t44 239.5t20 301t-19 299.5t-46 243t-54 173.5t-46 111l-19 36q3 7 10 18t36.5 38.5t67.5 47.5t78 30t61 10l21 -1q11 -18 28.5 -52t63 -141.5t80.5 -219t63.5 -275t28.5 -318.5t-27 -316t-66 -279t-78 -214.5t-66 -145.5 l-27 -50q-70 -6 -160 35q-44 20 -72.5 47t-34.5 44z" />
<glyph unicode="*" horiz-adv-x="665" d="M47 1202q0 115 57 178l134 -37v134q95 31 192 -2v-132l135 37q53 -62 53 -178l-129 -39l84 -123q-69 -80 -159 -106l-80 117l-80 -117q-94 25 -160 106l80 119z" />
<glyph unicode="+" horiz-adv-x="919" d="M45 594q0 41 3.5 77t7.5 52l3 16h254v254q54 15 146 15q41 0 77 -4t52 -8l16 -3v-254h254q16 -53 16 -145q0 -41 -4 -77t-8 -52l-4 -16h-254v-254q-53 -17 -145 -17q-41 0 -77.5 4t-52.5 8l-16 5v254h-254q-14 53 -14 145z" />
<glyph unicode="," horiz-adv-x="567" d="M74 16v400q80 16 211 16q56 0 108.5 -4t77.5 -8l25 -4v-318q0 -76 -21.5 -149.5t-52 -123.5t-60.5 -89.5t-52 -58.5l-21 -19l-154 104q3 4 8 11t17.5 31.5t23 50.5t20 65.5t11.5 79.5q-33 2 -68 6t-54 7z" />
<glyph unicode="-" horiz-adv-x="675" d="M78 594q0 41 3.5 77t6.5 52l4 16h492q16 -53 16 -145q0 -41 -4 -77t-8 -52l-4 -16h-492q-14 53 -14 145z" />
<glyph unicode="." horiz-adv-x="565" d="M72 16v398q74 16 211 16q60 0 113 -4t76 -8l22 -4v-398q-76 -16 -211 -16q-60 0 -112.5 4t-75.5 8z" />
<glyph unicode="/" horiz-adv-x="1177" d="M29 -78l682 1596q96 18 217 18q56 0 111 -4.5t83 -9.5l27 -4l-682 -1596q-96 -18 -217 -18q-56 0 -111 4.5t-83 9.5z" />
<glyph unicode="0" horiz-adv-x="1298" d="M55 696q0 381 147.5 559.5t446.5 178.5q300 0 447 -177t147 -561t-147 -560.5t-447 -176.5t-447 176.5t-147 560.5zM518 696q0 -170 14 -258.5t40.5 -118.5t76.5 -30t76.5 30.5t40.5 119t14 257.5q0 170 -14 258.5t-40.5 119t-76.5 30.5t-76.5 -30.5t-40.5 -119 t-14 -258.5z" />
<glyph unicode="1" horiz-adv-x="905" d="M2 1135q119 37 198 99.5t140 160.5q92 18 221 18q56 0 111 -4.5t82 -8.5l26 -5v-1377q-86 -18 -217 -18q-57 0 -112 4.5t-81 9.5l-26 4v805v80q-95 -71 -219 -96q-62 48 -96 137t-27 191z" />
<glyph unicode="2" horiz-adv-x="1132" d="M41 178q0 61 12.5 117.5t31 100t51.5 88t62 75.5t74.5 67.5t77 59t80.5 55.5q121 81 165 137.5t44 116.5q0 103 -158 103q-68 0 -143 -16t-116 -32l-40 -16q-57 40 -89.5 122.5t-29.5 168.5q8 4 22 11.5t63 26.5t102 33t135.5 26t167.5 12q259 0 393.5 -111t134.5 -317 q0 -158 -78.5 -269.5t-257.5 -212.5q-32 -17 -95.5 -42t-96.5 -47t-41 -56q-2 -6 -1.5 -17t3.5 -18h526q31 -76 31 -174q0 -100 -31 -170h-972q-27 80 -27 178z" />
<glyph unicode="3" horiz-adv-x="1101" d="M27 57q3 73 34 156.5t74 128.5q158 -39 301 -39q58 0 96.5 9.5t57.5 30t26 43.5t7 58q0 69 -35 103.5t-127 34.5h-211q-20 65 -20 155t20 152h211q70 0 96.5 28t26.5 84q0 59 -36.5 87t-117.5 28q-69 0 -133 -9t-93 -19l-30 -9q-54 37 -92.5 118.5t-36.5 156.5 q8 3 22.5 8.5t61 19.5t94.5 24.5t117.5 19t134.5 8.5q253 0 394 -97.5t141 -283.5q0 -105 -49.5 -186t-149.5 -124q119 -44 180.5 -135t61.5 -221q0 -201 -144 -304t-454 -103q-74 0 -145 8t-120 19t-87.5 22.5t-56.5 19.5z" />
<glyph unicode="4" horiz-adv-x="1230" d="M12 440q0 47 5 88t11 58l5 18l571 791q84 18 217 18q59 0 112.5 -4.5t76.5 -8.5l24 -5v-791h148q18 -58 18 -164q0 -47 -4.5 -88t-9.5 -58l-4 -18h-148v-258q-73 -18 -198 -18q-57 0 -107.5 4.5t-72.5 9.5l-21 4v258h-602q-21 58 -21 164zM430 604h205v285z" />
<glyph unicode="5" horiz-adv-x="1089" d="M27 53q-2 87 17 154t67 131q171 -35 325 -35q107 0 147 36t40 105q0 68 -41 108t-146 40q-140 0 -313 -10v831h850q20 -71 20 -163.5t-20 -164.5h-441v-184q89 0 181 -20q165 -39 252.5 -149t87.5 -288q0 -225 -155 -344.5t-443 -119.5q-112 0 -219 18t-158 36z" />
<glyph unicode="6" horiz-adv-x="1138" d="M49 537q0 396 232 624.5t647 251.5q20 -71 20 -164t-20 -157q-269 -23 -373 -189q58 10 109 10q202 0 326 -123t124 -362q0 -225 -138.5 -336.5t-393.5 -111.5q-254 0 -393.5 138.5t-139.5 418.5zM477 528q0 -98 14.5 -155t36.5 -75.5t54 -18.5q47 0 74.5 37t27.5 112 q0 99 -27.5 140.5t-85.5 41.5q-42 0 -92 -20q-2 -20 -2 -62z" />
<glyph unicode="7" horiz-adv-x="1050" d="M23 1249q0 43 4.5 84t8.5 61l5 19h981q17 -90 14 -190q0 -98 -26 -187t-68 -159.5t-93 -140t-101.5 -144t-92.5 -156t-68 -191t-26 -233.5q-55 -12 -205 -12t-206 12q0 124 20 233t53.5 191.5t74.5 154.5t87.5 134t88 117t79.5 117.5t59 121.5h-571q-18 70 -18 168z" />
<glyph unicode="8" horiz-adv-x="1200" d="M49 344q0 218 227 354q-188 142 -188 351q0 173 135.5 279t374.5 106q231 0 363.5 -97t132.5 -266q0 -184 -164 -311q67 -45 114 -95t79 -128t32 -172q0 -187 -149 -296.5t-414 -109.5q-253 0 -398 100.5t-145 284.5zM459 371q0 -50 34.5 -80.5t106.5 -30.5 q64 0 96.5 30.5t32.5 78.5q0 47 -41.5 85.5t-120.5 80.5q-108 -75 -108 -164zM504 1057q0 -43 33.5 -76.5t97.5 -67.5q70 59 70 134q0 49 -27.5 74.5t-77.5 25.5q-45 0 -70.5 -25.5t-25.5 -64.5z" />
<glyph unicode="9" horiz-adv-x="1138" d="M25 979q0 226 139 340.5t393 114.5q255 0 394 -136.5t139 -416.5q0 -397 -232.5 -627.5t-646.5 -253.5q-20 70 -20 164t20 158q265 20 369 186q-55 -10 -105 -10q-202 0 -326 121t-124 360zM455 979q0 -99 27 -138.5t85 -39.5q43 0 92 18q0 11 1.5 34t1.5 36 q0 98 -15 154.5t-36 74t-54 17.5q-46 0 -74 -40t-28 -116z" />
<glyph unicode=":" horiz-adv-x="573" d="M76 16v398q74 16 211 16q60 0 113 -4t76 -8l22 -4v-398q-76 -16 -211 -16q-60 0 -112.5 4t-75.5 8zM76 664v397q74 16 211 16q60 0 113 -4t76 -8l22 -4v-397q-76 -17 -211 -17q-60 0 -113 4.5t-76 8.5z" />
<glyph unicode=";" horiz-adv-x="573" d="M76 16v400q80 16 211 16q56 0 108.5 -4t77.5 -8l25 -4v-318q0 -76 -21.5 -149.5t-52 -123.5t-60.5 -89.5t-52 -58.5l-21 -19l-154 104q3 4 8 11t17.5 31.5t23 50.5t20 65.5t11.5 79.5q-33 2 -68 6t-54 7zM76 664v397q74 16 211 16q60 0 113 -4t76 -8l22 -4v-397 q-76 -17 -211 -17q-60 0 -113 4.5t-76 8.5z" />
<glyph unicode="&#x3c;" horiz-adv-x="847" d="M45 596q0 44 3.5 82.5t7.5 55.5l3 16l697 292q14 -47 14 -145q0 -43 -3.5 -79.5t-6.5 -51.5l-4 -16l-375 -158l375 -156q14 -47 14 -145q0 -43 -3.5 -80t-6.5 -53l-4 -15l-697 293q-14 64 -14 160z" />
<glyph unicode="=" horiz-adv-x="1036" d="M81 386q0 85 15 142h840q17 -61 16.5 -145.5t-16.5 -146.5h-840q-15 65 -15 150zM81 807q0 86 15 143h840q17 -61 16.5 -146t-16.5 -147h-840q-15 64 -15 150z" />
<glyph unicode="&#x3e;" horiz-adv-x="849" d="M80 291q0 44 3.5 80t6.5 51l4 14l375 156l-375 158q-14 51 -14 147q0 44 3.5 80t6.5 51l4 14l697 -292q14 -56 14 -154q0 -43 -3.5 -83t-7.5 -59l-3 -18l-697 -293q-14 52 -14 148z" />
<glyph unicode="?" horiz-adv-x="976" d="M45 1339q18 8 51.5 20.5t136.5 33t207 20.5q87 0 157 -9t135 -33.5t108.5 -63t69.5 -101t26 -145.5q0 -72 -19.5 -129.5t-51 -94.5t-69.5 -66.5t-76 -53.5t-69.5 -48t-51 -58t-19.5 -76q-62 -25 -181 -25q-53 0 -98.5 6t-64.5 12l-19 7q0 82 16 145.5t41.5 101.5 t56.5 66.5t61.5 47t56 35.5t41.5 39.5t16 51.5q0 42 -29 60t-98 18q-49 0 -102.5 -12t-82.5 -24l-28 -11q-63 44 -93.5 120.5t-27.5 165.5zM188 16v398q74 16 211 16q60 0 113 -4t76 -8l22 -4v-398q-76 -16 -211 -16q-60 0 -112.5 4t-75.5 8z" />
<glyph unicode="@" horiz-adv-x="1863" d="M55 571q0 195 68.5 353.5t190.5 264t291 163t370 57.5q399 0 622.5 -212.5t223.5 -575.5q0 -141 -59.5 -244.5t-155 -153t-213.5 -49.5q-227 0 -318 111q-69 -111 -260 -111q-152 0 -234.5 92t-82.5 303q0 213 82.5 305.5t234.5 92.5q133 0 211 -56v45q45 21 162 21 q52 0 91.5 -5.5t52.5 -10.5l14 -5v-444q0 -106 69 -106q52 0 75 45t23 167q0 261 -138.5 402t-401.5 141q-281 0 -432.5 -150t-151.5 -440q0 -127 31.5 -226t85 -163t129.5 -105t158 -58t178 -17q287 0 489 117q40 -18 73.5 -72.5t39.5 -107.5q-289 -193 -631 -193 q-141 0 -270 31.5t-242 98t-196 162t-131 232.5t-48 301zM836 569q0 -103 17.5 -139.5t78.5 -36.5q45 0 69.5 28.5t24.5 102.5v109q-3 65 -27.5 90t-66.5 25q-61 0 -78.5 -36t-17.5 -143z" />
<glyph unicode="A" horiz-adv-x="1419" d="M-10 18l428 1438q98 19 293 19q90 0 163.5 -4.5t101.5 -9.5l28 -5l426 -1438q-79 -18 -226 -18q-61 0 -114.5 4.5t-77.5 9.5l-23 4l-69 246h-433l-69 -246q-82 -18 -215 -18q-59 0 -112.5 4.5t-76.5 9.5zM571 557h265l-82 287q-17 62 -29 127.5t-15 100.5l-3 34h-9 q-4 -123 -43 -262z" />
<glyph unicode="B" horiz-adv-x="1300" d="M96 0v1475h647q233 0 353.5 -101t120.5 -303q0 -212 -175 -311q215 -95 215 -340q0 -222 -126.5 -321t-378.5 -99h-656zM541 303h131q70 0 105.5 32.5t35.5 110.5q0 79 -35 110.5t-106 31.5h-131v-285zM541 903h127q54 0 84 34t30 101q0 133 -114 133h-127v-268z" />
<glyph unicode="C" horiz-adv-x="1185" d="M47 737q0 373 179.5 570.5t512.5 197.5q77 0 148.5 -9.5t118 -23t82 -27t51.5 -23.5l16 -9q0 -180 -125 -285q-100 39 -221 39q-101 0 -161.5 -39.5t-91 -134.5t-30.5 -258t30.5 -257t90.5 -132.5t162 -38.5q56 0 114.5 11.5t89.5 22.5l31 11q62 -50 98 -128 q34 -74 34 -154v-9q-5 -4 -16 -10t-50 -22t-85 -28t-123.5 -22t-162.5 -10q-333 0 -512.5 197.5t-179.5 570.5z" />
<glyph unicode="D" horiz-adv-x="1378" d="M96 0v1475h553q173 0 298 -41t211 -129.5t127.5 -229t41.5 -338.5q0 -391 -165 -564t-513 -173h-553zM543 330h106q82 0 126.5 33t65.5 120.5t21 253.5q0 167 -21 254.5t-65 120.5t-127 33h-106v-815z" />
<glyph unicode="E" d="M96 0v1475h989q21 -65 21 -156q0 -107 -21 -168h-542v-248h440q21 -78 21 -155q0 -92 -21 -160h-440v-264h563q20 -62 20 -160q0 -108 -20 -164h-1010z" />
<glyph unicode="F" horiz-adv-x="1124" d="M96 18v1457h969q20 -66 20 -160q0 -106 -20 -164h-522v-272h461q20 -48 20 -160q0 -109 -20 -164h-461v-537q-97 -18 -226 -18q-56 0 -111.5 4.5t-82.5 9.5z" />
<glyph unicode="G" horiz-adv-x="1327" d="M47 737q0 369 187.5 563.5t539.5 194.5q87 0 166 -10.5t130.5 -25t90.5 -29t57 -24.5l17 -11q-6 -173 -119 -295q-16 7 -43.5 17t-104.5 27t-145 17q-77 0 -133.5 -21.5t-98.5 -70t-63.5 -132t-21.5 -202.5q0 -158 34 -251t97 -130t166 -37h33v256h-156q-23 56 -23 160 q0 48 5.5 89t11.5 58l6 17h575v-817q-7 -4 -19.5 -11t-58 -24t-96.5 -30t-134.5 -24t-172.5 -11q-352 0 -539.5 194t-187.5 563z" />
<glyph unicode="H" horiz-adv-x="1400" d="M96 18v1438q94 19 221 19q57 0 113.5 -4.5t84.5 -9.5l28 -5v-528h315v528q96 19 223 19q56 0 112 -4.5t84 -9.5l28 -5v-1438q-95 -18 -222 -18q-61 0 -117 4.5t-82 9.5l-26 4v566h-315v-566q-99 -18 -224 -18q-60 0 -115.5 4.5t-81.5 9.5z" />
<glyph unicode="I" horiz-adv-x="638" d="M96 18v1438q94 19 221 19q57 0 113.5 -4.5t84.5 -9.5l28 -5v-1438q-99 -18 -224 -18q-60 0 -115.5 4.5t-81.5 9.5z" />
<glyph unicode="J" horiz-adv-x="1001" d="M14 61v9q0 73 29 158q31 91 82 143q94 -37 188 -37q86 0 121 39t35 143v940q88 19 223 19q57 0 113 -4.5t83 -9.5l27 -5v-1044q0 -208 -128 -320t-371 -112q-76 0 -145 8.5t-114 20t-79 23.5t-49 20z" />
<glyph unicode="K" horiz-adv-x="1345" d="M96 18v1438q87 19 226 19q62 0 117 -4.5t79 -9.5l25 -5v-534h53l258 534q108 19 225 19q120 0 240 -19l-326 -661l385 -777q-113 -18 -256 -18q-69 0 -129 4.5t-85 9.5l-25 4l-287 592h-53v-592q-74 -18 -224 -18q-63 0 -118.5 4.5t-80.5 9.5z" />
<glyph unicode="L" horiz-adv-x="1122" d="M96 0v1456q94 19 221 19q57 0 113.5 -4.5t84.5 -9.5l28 -5v-1116h547q20 -73 20 -170q0 -82 -20 -170h-994z" />
<glyph unicode="M" horiz-adv-x="1695" d="M94 18v1438q106 19 279 19q80 0 146.5 -4.5t92.5 -9.5l27 -5l119 -379q57 -183 78 -383h8q3 104 45 269q14 55 34.5 123t37 118t43.5 131.5t40 120.5q87 19 261 19q197 0 297 -19v-1438q-76 -18 -207 -18q-59 0 -111.5 4.5t-75.5 9.5l-22 4v394q0 120 12.5 268.5 t24.5 238t14 89.5h-14q0 -1 -13 -71t-35 -167.5t-45 -165.5l-110 -340q-62 -20 -193 -20q-59 0 -107 5t-66 10l-19 5q-17 54 -51.5 162.5t-51.5 163.5q-25 78 -48 183t-33.5 167.5t-10.5 67.5h-14l3 -20q3 -19 7.5 -52.5t10 -77.5t11.5 -98t10.5 -110t7.5 -119t3 -119v-394 q-71 -18 -188 -18q-55 0 -104 4.5t-71 9.5z" />
<glyph unicode="N" horiz-adv-x="1439" d="M94 18v1438q96 19 301 19q91 0 164 -4.5t100 -9.5l27 -5l188 -598q31 -98 58.5 -216.5t39.5 -187.5l11 -69h10q-22 241 -22 477v594q84 19 190 19q52 0 97.5 -4.5t65.5 -9.5l19 -5v-1438q-89 -18 -294 -18q-84 0 -158 4.5t-107 9.5l-32 4l-201 607q-34 103 -59.5 209 t-33.5 160l-9 55h-13q31 -184 31 -424v-607q-68 -18 -193 -18q-55 0 -100 4.5t-62 9.5z" />
<glyph unicode="O" horiz-adv-x="1437" d="M47 737q0 387 176.5 577.5t495.5 190.5q320 0 496 -188.5t176 -579.5q0 -390 -176.5 -579t-495.5 -189q-320 0 -496 188.5t-176 579.5zM528 737q0 -132 11.5 -218.5t37 -134.5t59 -66.5t83.5 -18.5q69 0 109 34.5t61.5 131.5t21.5 272q0 176 -21.5 273t-61.5 131.5 t-109 34.5q-68 0 -107 -34t-61.5 -132t-22.5 -273z" />
<glyph unicode="P" horiz-adv-x="1255" d="M96 18v1457h600q256 0 392.5 -123t136.5 -365t-136.5 -365.5t-392.5 -123.5h-153v-480q-87 -18 -224 -18q-61 0 -116.5 4.5t-80.5 9.5zM543 825h86q137 0 137 162q0 160 -137 160h-86v-322z" />
<glyph unicode="Q" horiz-adv-x="1437" d="M47 737q0 387 176.5 577.5t495.5 190.5q320 0 496 -188.5t176 -579.5q0 -403 -195 -598q118 -55 258 -82q-5 -119 -61 -204.5t-123 -118.5q-208 72 -350 258q-88 -23 -201 -23q-320 0 -496 188.5t-176 579.5zM528 737q0 -132 11.5 -218.5t37 -134.5t59 -66.5t83.5 -18.5 q69 0 109 34.5t61.5 131.5t21.5 272q0 176 -21.5 273t-61.5 131.5t-109 34.5q-68 0 -107 -34t-61.5 -132t-22.5 -273z" />
<glyph unicode="R" horiz-adv-x="1316" d="M96 18v1457h611q272 0 400 -125t128 -344q0 -288 -205 -400l293 -588q-95 -18 -242 -18q-69 0 -130 4.5t-87 9.5l-26 4l-238 519h-57v-519q-94 -18 -221 -18q-61 0 -117.5 4.5t-82.5 9.5zM543 860h96q133 0 133 146q0 145 -133 145h-96v-291z" />
<glyph unicode="S" horiz-adv-x="1208" d="M35 88q0 88 29 178t75 146q18 -7 51.5 -17.5t137.5 -27.5t209 -17q84 0 129 21t45 59q0 22 -12 38.5t-47.5 32t-56 22.5t-79.5 25q-11 3 -16 5q-51 15 -86 26.5t-85.5 33t-85 44.5t-73 59t-61.5 78t-38.5 100.5t-15.5 127.5q0 224 145.5 353.5t442.5 129.5 q128 0 243.5 -20.5t167.5 -40.5l52 -21v-18q0 -79 -24 -153q-27 -82 -78 -142q-140 35 -283 35q-201 0 -201 -84q0 -22 16.5 -39.5t50.5 -31t69 -24t90 -26t94 -29.5q57 -20 102 -43t92 -61t78.5 -84t51.5 -113.5t20 -148.5q0 -245 -147.5 -368.5t-452.5 -123.5 q-94 0 -185 12.5t-154 29.5t-112.5 34.5t-73.5 30.5z" />
<glyph unicode="T" horiz-adv-x="1212" d="M16 1288q0 51 5 98t11 68l5 21h1141q20 -74 20 -183q0 -46 -5 -91.5t-10 -68.5l-5 -22h-342v-1092q-99 -18 -224 -18q-60 0 -116 4.5t-82 9.5l-25 4v1092h-352q-21 74 -21 178z" />
<glyph unicode="U" horiz-adv-x="1384" d="M86 508v948q84 19 221 19q62 0 118 -4.5t81 -9.5l26 -5v-938q0 -90 40 -132t124 -42t123 42t39 132v938q80 19 217 19q61 0 116.5 -4.5t80.5 -9.5l26 -5v-948q0 -255 -164 -397t-442 -142t-442 142t-164 397z" />
<glyph unicode="V" horiz-adv-x="1415" d="M-6 1450q100 25 237 25q57 0 110 -5.5t77 -10.5l24 -5l191 -698q29 -108 48.5 -205t24.5 -139l5 -43h8q18 143 86 389l190 696q64 21 209 21q64 0 118.5 -5.5t77.5 -10.5l23 -5l-409 -1436q-112 -18 -305 -18q-87 0 -164 4.5t-111 9.5l-33 4z" />
<glyph unicode="W" horiz-adv-x="2074" d="M10 1456q93 19 230 19q57 0 107 -4.5t71 -9.5l22 -5l129 -713q16 -88 27 -181.5t14 -143.5l4 -49h9q3 175 36 372l117 715q91 19 275 19q79 0 148.5 -4.5t99.5 -9.5l30 -5l111 -713q15 -93 22.5 -186.5t9.5 -140.5l1 -47h8q12 165 49 372l131 715q68 19 199 19 q54 0 105 -4.5t75 -9.5l24 -5l-286 -1438q-96 -18 -289 -18q-92 0 -167.5 4.5t-104.5 9.5l-29 4l-105 678q-16 100 -24.5 201.5t-8.5 152.5l-1 52h-11v-28q0 -174 -34 -378l-113 -678q-110 -18 -295 -18q-191 0 -297 18z" />
<glyph unicode="X" horiz-adv-x="1341" d="M-25 18l381 750l-346 688q86 19 266 19q67 0 127.5 -4.5t87.5 -9.5l27 -5l178 -350l176 350q114 19 228 19q85 0 229 -19l-348 -684l387 -754q-80 -18 -240 -18q-76 0 -138.5 4.5t-87.5 9.5l-25 4l-224 435l-221 -435q-113 -18 -209 -18q-134 0 -248 18z" />
<glyph unicode="Y" horiz-adv-x="1363" d="M-12 1456q90 19 256 19q63 0 121 -4.5t85 -9.5l27 -5l219 -450l224 450q96 19 231 19q64 0 122.5 -4.5t84.5 -9.5l26 -5l-481 -932v-506q-78 -18 -223 -18q-69 0 -125 4.5t-77 9.5l-21 4v512z" />
<glyph unicode="Z" horiz-adv-x="1292" d="M25 176q0 97 22 168l619 789h-562q-22 83 -22 174q0 85 22 168h1104q25 -77 25 -164q0 -92 -25 -178l-633 -789h660q18 -79 18 -172q0 -98 -18 -172h-1188q-22 67 -22 176z" />
<glyph unicode="[" horiz-adv-x="724" d="M121 -348v2007h559q14 -54 14 -148q0 -42 -3.5 -78t-6.5 -51l-4 -16h-158v-1421h158q14 -54 14 -148q0 -42 -3.5 -78t-6.5 -51l-4 -16h-559z" />
<glyph unicode="\" horiz-adv-x="1177" d="M29 1518q96 18 221 18q54 0 108 -4.5t82 -9.5l27 -4l682 -1596q-96 -18 -221 -18q-54 0 -108 4.5t-82 9.5l-27 4z" />
<glyph unicode="]" horiz-adv-x="727" d="M33 -203q0 42 3.5 79t7.5 53l3 16h158v1421h-158q-14 51 -14 145q0 42 3.5 79t7.5 53l3 16h559v-2007h-559q-14 51 -14 145z" />
<glyph unicode="^" horiz-adv-x="1191" d="M39 879l395 581q68 15 162 15q42 0 82.5 -3.5t59.5 -7.5l20 -4l395 -581q-73 -15 -182 -15q-49 0 -95.5 4t-67.5 8l-22 3l-190 280l-190 -280q-74 -15 -185 -15q-48 0 -93.5 4t-67.5 8z" />
<glyph unicode="_" horiz-adv-x="1079" d="M53 -166q0 41 4 72t7 42l4 11h942q16 -33 16 -125q0 -41 -4 -72t-8 -42l-4 -11h-942q-15 33 -15 125z" />
<glyph unicode="`" horiz-adv-x="487" d="M-37 1581q41 67 145 105.5t207 27.5l207 -342q-68 -87 -233 -112z" />
<glyph unicode="a" horiz-adv-x="1064" d="M18 342q0 177 104.5 255.5t328.5 78.5q6 0 129 -6v14q0 52 -33.5 73t-100.5 21q-51 0 -108 -10t-88 -20l-31 -9q-55 47 -90 131q-16 37 -23 76t-6 60v20q7 4 21 10t58.5 22t92 28t118.5 22t140 10q242 0 356.5 -93.5t114.5 -287.5v-721q-73 -16 -186 -16q-51 0 -96.5 4 t-65.5 8l-20 4l-29 80q-69 -116 -268 -116q-161 0 -239.5 89.5t-78.5 272.5zM428 334q0 -65 16.5 -91t51.5 -26q84 0 84 168v59q-18 2 -56 2q-49 0 -72.5 -25.5t-23.5 -86.5z" />
<glyph unicode="b" d="M72 16v1504q84 16 211 16q56 0 109 -4t78 -8l24 -4v-504q92 102 235 102q89 0 158 -29.5t122 -94.5t81 -177.5t28 -269.5t-28 -268.5t-81 -176t-122 -93.5t-158 -29q-146 0 -235 96v-60q-84 -16 -211 -16q-56 0 -109 4t-78 8zM494 410q0 -57 23 -86t58 -29q54 0 73.5 52 t19.5 200q0 150 -19.5 203t-73.5 53q-33 0 -55.5 -31.5t-25.5 -91.5v-270z" />
<glyph unicode="c" horiz-adv-x="925" d="M39 539q0 297 127.5 438t382.5 141q96 0 183 -19.5t126 -38.5l39 -20q-8 -79 -41.5 -153t-85.5 -125q-49 31 -127 31q-87 0 -123.5 -54.5t-36.5 -191.5q0 -132 38 -184t130 -52q38 0 73 8.5t51 17.5l16 9q104 -101 127 -278q-5 -4 -15.5 -9.5t-46.5 -21t-75.5 -27 t-102 -21t-127.5 -9.5q-257 0 -384.5 131.5t-127.5 427.5z" />
<glyph unicode="d" d="M43 539q0 305 98.5 442t292.5 137q148 0 234 -102v502q84 18 211 18q56 0 109 -4t78 -8l24 -4v-1504q-82 -16 -205 -16q-56 0 -102.5 4t-65.5 8l-19 4l-14 78q-92 -114 -250 -114q-391 0 -391 559zM494 539q0 -143 18.5 -193.5t75.5 -50.5q65 0 80 82v332q-15 94 -80 94 q-58 0 -76 -53t-18 -211z" />
<glyph unicode="e" horiz-adv-x="1054" d="M39 545q0 290 133 431.5t385 141.5q225 0 348 -113t123 -331q0 -64 -5.5 -124.5t-10.5 -89.5l-6 -28h-519q17 -67 56 -94t106 -27q47 0 93.5 12.5t69.5 24.5l22 12q48 -37 88 -117.5t43 -154.5q-5 -4 -15 -11.5t-46.5 -26t-78 -33t-110.5 -26t-144 -11.5 q-265 0 -398.5 135.5t-133.5 429.5zM479 657h154q2 18 2 60q0 55 -16.5 87t-47.5 32q-79 0 -92 -179z" />
<glyph unicode="f" horiz-adv-x="763" d="M6 936q0 68 17 141h131v123q0 170 97.5 253t321.5 83q90 0 170 -17.5t115 -34.5l35 -18q-11 -150 -119 -270q-37 27 -127 27q-72 0 -72 -78v-68h168q19 -68 19 -141q0 -74 -19 -152h-168v-768q-73 -16 -210 -16q-58 0 -111 4t-76 8l-24 4v768h-131q-17 73 -17 152z" />
<glyph unicode="g" horiz-adv-x="1146" d="M-10 -233q0 163 172 251q-43 56 -43 140q0 139 135 233q-215 95 -215 340q0 181 125.5 284t361.5 103q175 0 289 -57l301 57q29 -54 29 -142q-1 -92 -29 -151l-119 23q17 -63 17 -117q0 -182 -124.5 -284.5t-363.5 -102.5h-34q-14 -22 -14 -43q0 -9 3 -18 q6 -21 37.5 -33.5t78 -16.5t104 -11t116 -15.5t114.5 -31t99 -56t69.5 -92.5t26.5 -138q0 -190 -161 -301.5t-453 -111.5q-522 0 -522 291zM358 -152q0 -54 35.5 -80t118.5 -26q108 0 159.5 25t51.5 67q0 33 -45.5 46t-148.5 20t-156 16q-15 -30 -15 -68zM453 731 q0 -83 17 -117t56 -34t56.5 34t17.5 117q0 82 -18 117t-56 35q-39 0 -56 -34.5t-17 -117.5z" />
<glyph unicode="h" horiz-adv-x="1120" d="M72 16v1504q74 16 211 16q60 0 113 -4t76 -8l22 -4v-498q110 96 260 96t225.5 -80t75.5 -219v-803q-70 -16 -211 -16q-62 0 -114.5 4t-74.5 8l-22 4v709q0 78 -70 78q-30 0 -69 -23v-764q-76 -16 -211 -16q-60 0 -112.5 4t-75.5 8z" />
<glyph unicode="i" horiz-adv-x="561" d="M70 16v1065q74 17 211 17q60 0 112.5 -4t75.5 -8l23 -5v-1065q-76 -16 -211 -16q-60 0 -113 4t-76 8zM70 1214v357q74 16 211 16q60 0 113 -4t76 -8l22 -4v-357q-76 -16 -211 -16q-60 0 -113 4t-76 8z" />
<glyph unicode="j" horiz-adv-x="565" d="M-160 -362q0 57 11 108t23 74l11 22q39 -10 76 -10q56 0 83.5 29.5t27.5 103.5v1116q80 17 211 17q56 0 108.5 -4t77.5 -8l25 -5v-1261q0 -164 -91 -248t-286 -84q-77 0 -144.5 15t-96.5 29l-28 15q-8 44 -8 91zM72 1206v357q74 16 211 16q60 0 113 -4t76 -8l22 -4v-357 q-76 -16 -211 -16q-60 0 -113 4t-76 8z" />
<glyph unicode="k" horiz-adv-x="1124" d="M72 18v1506q76 12 213 12q57 0 109.5 -3t75.5 -6l24 -3v-805h28l148 362q57 17 200 17q64 0 121.5 -4t82.5 -8l26 -5l-209 -487l252 -576q-84 -20 -236 -20q-59 0 -114 5t-80 10l-25 5l-170 408h-24v-408q-66 -18 -209 -18q-62 0 -115 4.5t-76 9.5z" />
<glyph unicode="l" horiz-adv-x="565" d="M72 16v1504q74 16 211 16q60 0 113 -4t76 -8l22 -4v-1504q-76 -16 -211 -16q-60 0 -112.5 4t-75.5 8z" />
<glyph unicode="m" horiz-adv-x="1673" d="M72 16v1065q74 17 211 17q59 0 112 -4t76 -8l23 -5v-65q45 41 113 71.5t149 30.5q174 0 252 -127q121 127 305 127q148 0 221.5 -81.5t73.5 -229.5v-791q-86 -16 -211 -16q-58 0 -111 4t-76 8l-24 4v705q0 82 -68 82q-33 0 -67 -27v-760q-86 -16 -211 -16q-58 0 -111 4 t-77 8l-23 4v705q0 82 -68 82q-34 0 -67 -23v-764q-86 -16 -211 -16q-58 0 -111 4t-76 8z" />
<glyph unicode="n" horiz-adv-x="1120" d="M72 16v1065q74 17 211 17q60 0 112.5 -4t75.5 -8l23 -5v-59q110 96 260 96t225.5 -80t75.5 -219v-803q-70 -16 -211 -16q-62 0 -114.5 4t-74.5 8l-22 4v709q0 78 -70 78q-30 0 -69 -25v-762q-76 -16 -211 -16q-60 0 -112.5 4t-75.5 8z" />
<glyph unicode="o" horiz-adv-x="1153" d="M37 549q0 151 38.5 262t111 177.5t169.5 98t222 31.5q538 0 538 -569t-538 -569q-125 0 -222 31.5t-169.5 98t-111 177.5t-38.5 262zM481 549q0 -146 21.5 -200t75.5 -54q53 0 73.5 53.5t20.5 200.5t-20.5 199.5t-73.5 52.5q-54 0 -75.5 -53t-21.5 -199z" />
<glyph unicode="p" d="M72 -442v1523q84 17 211 17q56 0 109 -4t78 -8l24 -5v-59q89 96 245 96q379 0 379 -567q0 -571 -383 -571q-152 0 -241 102v-524q-84 -17 -211 -17q-56 0 -109 4.5t-78 8.5zM494 430q0 -32 6.5 -60.5t26 -51.5t48.5 -23q32 0 50 15t30.5 73t12.5 168q0 150 -19.5 201 t-73.5 51q-33 0 -55.5 -27t-25.5 -78v-268z" />
<glyph unicode="q" d="M43 549q0 301 100.5 435t288.5 134q150 0 236 -96v59q86 17 213 17q56 0 108.5 -4t76.5 -8l24 -5v-1523q-82 -17 -209 -17q-56 0 -109.5 4.5t-78.5 8.5l-25 4v522q-87 -100 -236 -100q-389 0 -389 569zM494 549q0 -104 9 -158.5t28 -75t55 -20.5q39 0 60.5 40t21.5 95 v258q0 57 -22 86t-60 29q-36 0 -55 -20.5t-28 -75t-9 -158.5z" />
<glyph unicode="r" horiz-adv-x="868" d="M72 16v1065q80 17 211 17q61 0 113.5 -4t75.5 -8l22 -5v-100q95 135 219 135q89 0 180 -59q-8 -175 -172 -322q-42 33 -86 33q-74 0 -141 -70v-682q-86 -16 -211 -16q-58 0 -111 4t-76 8z" />
<glyph unicode="s" horiz-adv-x="946" d="M35 70q0 155 86 258q127 -43 270 -43q73 0 103 11t30 34q0 13 -11.5 23t-35.5 18.5t-49 15.5t-63.5 18t-67.5 21q-52 19 -92.5 43t-79 62t-59.5 95t-21 130q0 176 111 269t336 93q108 0 205 -17t141 -33l43 -17q2 -22 2 -42q0 -139 -84 -223q-123 33 -262 33 q-109 0 -109 -45q0 -19 29.5 -32t97.5 -30t109 -32q52 -19 93 -43t80 -62.5t60 -95.5t21 -129q0 -370 -463 -370q-117 0 -222 22.5t-151 45.5z" />
<glyph unicode="t" horiz-adv-x="823" d="M4 930q0 42 3.5 78.5t6.5 52.5l4 16h136v193q76 36 195 50q63 7 123 7q53 0 103 -6v-244h181q14 -53 14 -145q0 -39 -3.5 -76t-6.5 -54l-4 -18h-181v-395q0 -58 28.5 -81t84.5 -23q24 0 50 3t40 6l13 3q32 -49 32 -166q0 -35 -3.5 -65.5t-7.5 -43.5l-3 -14 q-118 -28 -244 -28q-229 0 -320 88.5t-91 318.5v397h-136q-14 60 -14 146z" />
<glyph unicode="u" horiz-adv-x="1120" d="M66 279v802q69 17 210 17q62 0 114.5 -4t74.5 -8l22 -5v-708q0 -78 70 -78q33 0 70 24v762q76 17 211 17q60 0 112.5 -4t75.5 -8l23 -5v-1065q-74 -16 -211 -16q-60 0 -113 4t-75 8l-23 4v60q-110 -96 -260 -96t-225.5 80t-75.5 219z" />
<glyph unicode="v" horiz-adv-x="1118" d="M-8 1081q94 17 219 17q58 0 111 -4t76 -8l24 -5l72 -266q29 -108 46.5 -219.5t19.5 -169.5l3 -57h8q1 23 4.5 63.5t23.5 158.5t50 226l74 264q80 17 195 17q54 0 105 -4t75 -8l24 -5l-299 -1065q-94 -16 -262 -16q-77 0 -142.5 4t-92.5 8l-27 4z" />
<glyph unicode="w" horiz-adv-x="1656" d="M2 1081q78 17 201 17q57 0 103.5 -4t64.5 -8l18 -5l57 -264q45 -205 64 -448h6q16 265 57 448l58 264q90 17 209 17q56 0 108 -4t76 -8l25 -5l59 -264q41 -183 57 -448h9q11 240 57 448l55 264q63 17 180 17q53 0 99 -4t66 -8l20 -5l-221 -1065q-91 -16 -254 -16 q-159 0 -252 16l-50 250q-39 194 -43 494h-8q-4 -294 -39 -494l-45 -250q-104 -16 -243 -16q-148 0 -263 16z" />
<glyph unicode="x" horiz-adv-x="1146" d="M-31 16l314 541l-271 524q105 17 234 17q60 0 117.5 -4t85.5 -8l28 -5l113 -239l135 239q70 17 195 17q56 0 112.5 -4t84.5 -8l28 -5l-289 -499l318 -566q-105 -16 -234 -16q-60 0 -118 4t-86 8l-27 4l-154 299l-170 -299q-84 -16 -201 -16q-56 0 -109.5 4t-79.5 8z" />
<glyph unicode="y" horiz-adv-x="1171" d="M-12 1081q86 17 225 17q67 0 119.5 -4t71.5 -8l20 -5l117 -364q24 -75 37.5 -157.5t15.5 -127.5l2 -45h8q8 162 55 330l103 364q78 17 203 17q60 0 113 -4t76 -8l24 -5l-336 -1198q-56 -203 -170 -299t-326 -96q-53 0 -109 8t-86 16l-30 7q-17 53 -17 139q0 36 7 74.5 t15 59.5l7 20q45 -9 86 -9q87 0 139 32.5t84 123.5l13 41q-74 3 -125 16z" />
<glyph unicode="z" horiz-adv-x="1007" d="M41 162q0 73 16 151l414 471h-397q-19 62 -19 156q0 41 4.5 80.5t9.5 58.5l5 19h866q16 -72 16 -148q0 -95 -16 -166l-416 -471h418q21 -51 21 -155q0 -44 -5.5 -83.5t-10.5 -56.5l-5 -18h-885q-16 68 -16 162z" />
<glyph unicode="{" horiz-adv-x="870" d="M-2 688q0 86 16 148h62q60 0 93.5 34.5t33.5 92.5v383q0 142 82 227.5t231 85.5h307q17 -55 17 -152q0 -85 -17 -151h-71q-60 0 -93.5 -34.5t-33.5 -92.5v-285q0 -183 -127 -258q127 -75 127 -260v-285q0 -58 33.5 -92.5t93.5 -34.5h71q17 -70 17 -157q0 -83 -17 -146 h-307q-149 0 -231 86t-82 228v383q0 58 -33.5 92.5t-93.5 34.5h-62q-16 52 -16 153z" />
<glyph unicode="|" horiz-adv-x="679" d="M119 -387v1989q90 16 221 16q56 0 111 -4t83 -8l27 -4v-1989q-96 -16 -221 -16q-58 0 -113.5 4t-81.5 8z" />
<glyph unicode="}" horiz-adv-x="868" d="M31 -143q0 91 16 157h72q60 0 93.5 34.5t33.5 92.5v285q0 187 127 260q-127 73 -127 258v285q0 58 -33.5 92.5t-93.5 34.5h-72q-16 62 -16 151q0 100 16 152h307q149 0 231.5 -86t82.5 -227v-383q0 -58 33.5 -92.5t93.5 -34.5h61q16 -62 16 -148q0 -101 -16 -153h-61 q-60 0 -93.5 -34.5t-33.5 -92.5v-383q0 -142 -82.5 -228t-231.5 -86h-307q-16 59 -16 146z" />
<glyph unicode="~" horiz-adv-x="1069" d="M45 608q3 6 9.5 16.5t30.5 37.5t53.5 47.5t80 37.5t107.5 17q64 0 120 -16.5t89.5 -36t78 -36t88.5 -16.5q39 0 72 16.5t46 32.5l14 17q69 -25 120 -79.5t68 -125.5q-3 -6 -9.5 -16.5t-30.5 -37.5t-53 -47t-79 -37t-107 -17q-64 0 -121.5 16.5t-92 35.5t-78.5 35.5 t-84 16.5q-41 0 -74.5 -16.5t-46.5 -32.5l-13 -17q-69 28 -119 79.5t-69 125.5z" />
<glyph unicode="&#xa1;" horiz-adv-x="624" d="M84 -397l43 970q65 15 184 15q52 0 99.5 -4t68.5 -8l21 -3l43 -970q-78 -17 -230 -17q-64 0 -121.5 4t-82.5 8zM100 647v397q76 17 211 17q60 0 112.5 -4.5t75.5 -8.5l23 -4v-397q-74 -16 -211 -16q-60 0 -112.5 4t-75.5 8z" />
<glyph unicode="&#xa2;" horiz-adv-x="980" d="M57 539q0 491 361 565l-17 180q87 21 187 21q48 0 95 -5.5t70 -10.5l23 -5l-18 -188q44 -10 83.5 -24t56.5 -23l17 -9q-7 -77 -40.5 -146.5t-86.5 -121.5q-48 31 -126 31q-86 0 -123 -59t-37 -197q0 -133 38.5 -189.5t129.5 -56.5q38 0 73 8.5t51 17.5l15 9 q106 -103 127 -268q-65 -43 -178 -68l18 -207q-79 -20 -188 -20q-44 0 -91 5t-71 10l-25 5l19 199q-181 33 -272 165t-91 382z" />
<glyph unicode="&#xa3;" horiz-adv-x="1130" d="M55 692q0 40 4 75t7 49l4 15h102q-31 107 -31 195q0 81 28 147t76 110.5t113.5 74.5t138 43.5t152.5 13.5q140 0 231.5 -19.5t178.5 -56.5q-6 -168 -117 -276q-115 39 -201 39q-170 -4 -170 -172q0 -42 13 -99h346q14 -47 14 -135q0 -37 -3.5 -74t-6.5 -55l-4 -18h-305 q-10 -123 -105 -215h543q18 -60 18 -162q0 -44 -4.5 -87t-8.5 -64l-5 -21h-973v334q118 115 141 215h-161q-15 63 -15 143z" />
<glyph unicode="&#xa4;" horiz-adv-x="1241" d="M47 199l141 141q-51 97 -51 215q0 113 51 215l-141 141q1 8 4 21t22.5 50t51.5 69q33 35 67.5 54t53.5 21l18 2l142 -141q97 51 215 51q113 0 215 -51l141 141q7 0 20 -2t49.5 -21t69.5 -54q32 -32 51.5 -67t22.5 -54l4 -19l-141 -141q51 -102 51 -215q0 -118 -51 -215 l141 -141q0 -8 -3 -21.5t-22 -51t-51 -69.5q-33 -36 -68 -54.5t-54 -19.5l-19 -1l-141 141q-102 -51 -215 -51q-118 0 -215 51l-142 -141q-8 0 -21 3t-50 22.5t-70 53.5q-32 32 -51 66.5t-22 52.5zM446 555q0 -73 51.5 -123.5t123.5 -50.5q73 0 123.5 50.5t50.5 123.5 t-50.5 123.5t-123.5 50.5q-72 0 -123.5 -50.5t-51.5 -123.5z" />
<glyph unicode="&#xa5;" horiz-adv-x="1333" d="M41 1378q90 23 225 23q57 0 112 -5.5t81 -10.5l26 -5l189 -346l203 350q90 17 215 17q51 0 102.5 -4.5t77.5 -8.5l26 -4l-340 -589h142q12 -53 12 -119t-12 -121h-260v-98h260q12 -50 12 -111q0 -70 -12 -129h-260v-199q-105 -18 -183 -18q-34 0 -79 4.5t-73 9.5l-28 4 v199h-266q-12 61 -12 127q0 60 12 113h266v98h-266q-12 55 -12 119q0 66 12 121h149z" />
<glyph unicode="&#xa6;" horiz-adv-x="667" d="M113 -408v924q90 16 221 16q56 0 111 -4t83 -8l27 -4v-924q-96 -16 -221 -16q-58 0 -113.5 4t-81.5 8zM113 719v903q90 16 221 16q56 0 111 -4t83 -8l27 -4v-903q-96 -17 -221 -17q-58 0 -113.5 4t-81.5 8z" />
<glyph unicode="&#xa7;" horiz-adv-x="1013" d="M61 633q0 151 142 235q-121 74 -121 246q0 147 114 223t314 76q208 0 375 -67q0 -69 -25 -137.5t-67 -114.5q-77 21 -162 32q-164 20 -164 -39q0 -17 26.5 -26.5t68.5 -15.5t93 -14t102.5 -26t93.5 -46.5t68.5 -81t26.5 -123.5q0 -151 -139 -222q151 -76 151 -256 q0 -77 -37.5 -135.5t-105 -93t-152.5 -51t-188 -16.5q-95 0 -195.5 18t-153.5 36l-54 19q0 75 25 149t69 117q118 -40 237 -49q154 -11 154 33q0 15 -27.5 23.5t-71 15t-96.5 15t-106 27.5t-96.5 47.5t-71 80.5t-27.5 121zM420 713q0 -42 38.5 -66.5t104.5 -40.5 q27 34 27 74q0 43 -36.5 66.5t-104.5 41.5q-29 -40 -29 -75z" />
<glyph unicode="&#xa8;" horiz-adv-x="931" d="M47 1235v303q63 14 180 14q51 0 96.5 -3.5t64.5 -6.5l20 -4v-303q-66 -14 -181 -14q-51 0 -96 3.5t-65 7.5zM508 1235v303q63 14 180 14q51 0 96 -3.5t64 -6.5l20 -4v-303q-65 -14 -180 -14q-51 0 -96 3.5t-64 7.5z" />
<glyph unicode="&#xa9;" horiz-adv-x="1617" d="M51 696q0 155 60 295.5t161 241.5t241.5 161t295.5 60t295.5 -60t241.5 -161t161 -241.5t60 -295.5t-60 -295t-161 -241.5t-241.5 -161t-295.5 -59.5t-295.5 59.5t-241.5 161t-161 241.5t-60 295zM322 696q0 -101 38 -192.5t102.5 -157t155 -104.5t191.5 -39t191.5 39 t155 104.5t102.5 157t38 192.5q0 135 -64 248.5t-176 179.5t-247 66t-247 -66t-176 -179.5t-64 -248.5zM451 702q0 201 93 304.5t273 103.5q69 0 133.5 -19t94.5 -38l30 -19q-4 -60 -33.5 -109t-76.5 -77q-38 29 -99 29q-62 0 -91.5 -41t-29.5 -136q0 -93 29 -129t92 -36 q31 0 58 5.5t38 11.5l11 5q47 -23 77 -74t35 -112q-4 -3 -12.5 -8.5t-35.5 -19t-56 -23.5t-74 -18.5t-90 -8.5q-179 0 -272.5 105.5t-93.5 303.5z" />
<glyph unicode="&#xaa;" horiz-adv-x="722" d="M43 823q0 104 69.5 155.5t180.5 51.5l88 -4v21q0 21 -11.5 30.5t-41.5 9.5q-41 0 -82 -7.5t-62 -15.5l-20 -7q-29 36 -50 84.5t-22 93.5q15 6 41 15t102 24.5t146 15.5q150 0 214 -58t64 -177v-424q-47 -17 -127 -17q-32 0 -61.5 4t-42.5 8l-14 5l-17 45 q-56 -72 -155 -72q-93 0 -146 56t-53 163zM48 398.5q0 58.5 11 101.5h594q12 -43 11.5 -101.5t-11.5 -99.5h-594q-11 41 -11 99.5zM322 823q0 -51 28 -51q31 0 31 64v36q-9 2 -27 2q-17 0 -24.5 -11.5t-7.5 -39.5z" />
<glyph unicode="&#xab;" horiz-adv-x="1181" d="M49 547q0 44 6 82t13 55l6 16l450 373q44 -47 72 -117.5t33 -144.5l-248 -260l248 -258q-14 -158 -105 -262l-450 366q-25 54 -25 150zM573 547q0 40 5.5 76.5t11.5 52.5l6 16l432 357q39 -43 64.5 -108t29.5 -136l-229 -254l229 -252q-14 -146 -94 -244l-432 353 q-23 53 -23 139z" />
<glyph unicode="&#xac;" horiz-adv-x="1220" d="M47 780q0 44 6 84t11 58l6 18h1065v-635q-51 -22 -160 -22q-48 0 -88.5 5.5t-56.5 11.5l-17 5v316h-743q-23 63 -23 159z" />
<glyph unicode="&#xad;" horiz-adv-x="380" />
<glyph unicode="&#xae;" horiz-adv-x="1040" d="M47 965q0 97 37.5 184.5t100.5 150.5t150.5 100.5t184.5 37.5t184.5 -37.5t150.5 -100.5t100.5 -150.5t37.5 -184.5t-37.5 -184.5t-100.5 -150.5t-150.5 -100.5t-184.5 -37.5t-184.5 37.5t-150.5 100.5t-100.5 150.5t-37.5 184.5zM190 965q0 -136 97.5 -233t232.5 -97 q136 0 232 96.5t96 233.5q0 136 -95.5 231.5t-232.5 95.5q-136 0 -233 -95.5t-97 -231.5zM338 750v456h231q73 0 118.5 -40t45.5 -105q0 -46 -24 -82t-66 -51l98 -172q-24 -17 -77 -17q-18 0 -35 2.5t-25 5.5l-8 3l-96 165h-13v-165q-26 -11 -73 -11q-22 0 -41 2.5t-27 5.5z M487 1026h52q22 0 31.5 7.5t9.5 27.5t-9.5 27.5t-31.5 7.5h-52v-70z" />
<glyph unicode="&#xaf;" horiz-adv-x="833" d="M39 1388q0 74 12 121h703q13 -51 12.5 -124t-12.5 -125h-703q-12 54 -12 128z" />
<glyph unicode="&#xb0;" horiz-adv-x="753" d="M31 1188q0 137 93.5 239.5t254.5 102.5q83 0 150 -28.5t108.5 -76.5t63.5 -106.5t22 -122.5q0 -136 -91 -236t-253 -100q-86 0 -154 27.5t-109.5 74.5t-63 104.5t-21.5 121.5zM301 1192q0 -29 20 -50.5t56 -21.5q33 0 52.5 22t19.5 52t-19.5 52t-52.5 22q-36 0 -56 -22 t-20 -54z" />
<glyph unicode="&#xb1;" horiz-adv-x="966" d="M70 295q0 41 3.5 77t6.5 52l4 16h799q16 -53 16 -145q0 -41 -4 -77t-8 -52l-4 -16h-799q-14 53 -14 145zM70 823q0 41 3.5 77.5t6.5 52.5l4 16h254v172q53 14 145 14q41 0 77.5 -3.5t52.5 -7.5l16 -3v-172h254q16 -54 16 -146q0 -41 -4 -77t-8 -52l-4 -16h-254v-172 q-54 -17 -146 -17q-41 0 -77 4.5t-52 8.5l-16 4v172h-254q-14 53 -14 145z" />
<glyph unicode="&#xb2;" horiz-adv-x="620" d="M20 834q0 62 23 110t57 74t74 48.5t74 36t57 33t23 42.5q0 41 -78 41q-62 0 -144 -21q-25 33 -37.5 85.5t-5.5 102.5q109 35 246 35q279 0 279 -209q0 -67 -22 -112.5t-58.5 -69.5t-74 -39t-79.5 -32.5t-65 -38.5h264q14 -46 14 -109q0 -59 -14 -102h-518q-15 51 -15 125 z" />
<glyph unicode="&#xb3;" horiz-adv-x="632" d="M18 745q0 40 17 86t43 72q69 -20 141 -20q60 0 82.5 12t22.5 41t-16.5 39t-65.5 10h-99q-12 34 -12 89t12 89h99q36 0 48.5 7t12.5 30q0 21 -16.5 30t-63.5 9q-32 0 -64.5 -4t-48.5 -8l-16 -4q-60 57 -63 157q109 41 248 41q161 0 232 -48t71 -142q0 -115 -105 -152 q125 -44 125 -166q0 -51 -14 -88t-47.5 -67t-96.5 -45t-155 -15q-76 0 -144 12t-97 24z" />
<glyph unicode="&#xb4;" horiz-adv-x="458" d="M-37 1372l207 342q103 11 207 -27.5t145 -105.5l-325 -321q-167 25 -234 112z" />
<glyph unicode="&#xb5;" horiz-adv-x="1206" d="M111 -29v1110q86 17 211 17q58 0 110.5 -4t75.5 -8l24 -5v-702q0 -84 68 -84q36 0 72 27v759q86 17 211 17q58 0 111 -4t76 -8l24 -5v-1065q-80 -16 -211 -16q-56 0 -108.5 4t-77.5 8l-25 4v64q-52 -100 -183 -100q-17 0 -49 4q21 -116 57 -216t61 -142l26 -42 q-53 -47 -129.5 -71t-155 -23.5t-162.5 12.5q-26 128 -26 469z" />
<glyph unicode="&#xb6;" horiz-adv-x="1554" d="M41 887q2 105 38 201t101.5 173.5t170 124t233.5 46.5h344v-1885q-77 -12 -183 -12q-49 0 -94.5 3t-66.5 6l-21 3v799q-102 2 -189 33t-147.5 83.5t-103.5 121t-63 145.5t-19 158zM1047 -453v1872q71 13 182 13q47 0 92.5 -3t67.5 -7l22 -3v-1872q-76 -12 -182 -12 q-49 0 -94.5 3t-66.5 6z" />
<glyph unicode="&#xb7;" horiz-adv-x="534" d="M76 406v356q65 16 190 16q55 0 102.5 -4t67.5 -8l21 -4v-356q-68 -17 -191 -17q-55 0 -102.5 4.5t-67.5 8.5z" />
<glyph unicode="&#xb8;" horiz-adv-x="606" d="M45 -412q-2 35 13 81t38 65q67 -23 150 -29q133 -8 133 59q0 29 -16 41.5t-52 12.5h-157l-29 32l47 259l217 -37l-22 -105q227 0 227 -211q0 -107 -77.5 -162t-209.5 -55q-72 0 -137.5 12.5t-95.5 24.5z" />
<glyph unicode="&#xb9;" horiz-adv-x="559" d="M2 1278q140 37 215 121q45 10 143 10q79 0 127 -10v-682q-62 -10 -131 -10q-93 0 -147 10v317q0 72 6 105q-67 -46 -152 -56q-28 33 -46 89t-15 106z" />
<glyph unicode="&#xba;" horiz-adv-x="741" d="M43 950q0 173 80.5 256.5t247.5 83.5t248 -82t81 -258t-81.5 -261t-247.5 -85q-167 0 -247.5 84.5t-80.5 261.5zM61 399q0 61 11 101h594q12 -41 12 -99q0 -61 -12 -102h-594q-11 37 -11 100zM328 950q0 -90 8.5 -114.5t34.5 -24.5q25 0 33 24.5t8 114.5q0 88 -8 112.5 t-33 24.5q-26 0 -34.5 -24t-8.5 -113z" />
<glyph unicode="&#xbb;" horiz-adv-x="1181" d="M59 299l230 252l-230 254q4 71 30 135.5t65 108.5l432 -357q22 -55 22 -145q0 -38 -5.5 -73t-10.5 -50l-6 -16l-432 -353q-43 53 -65.5 109.5t-29.5 134.5zM553 293l248 258l-248 260q5 74 32.5 144.5t71.5 117.5l451 -373q25 -55 25 -153q0 -43 -6.5 -80.5t-12.5 -53.5 l-6 -16l-451 -366q-49 56 -72.5 117.5t-31.5 144.5z" />
<glyph unicode="&#xbc;" horiz-adv-x="1476" d="M39 1278q140 37 215 121q45 10 143 10q79 0 127 -10v-682q-62 -10 -131 -10q-93 0 -147 10v317q0 72 6 105q-67 -46 -152 -56q-28 33 -46 89t-15 106zM203 -6l788 1429q52 15 158 15q47 0 86.5 -4t55.5 -8l16 -3l-791 -1429q-60 -14 -158 -14q-42 0 -80.5 3.5t-56.5 6.5z M766 215q0 43 8 76l320 399q55 12 125 12q69 0 122 -12v-387h76q10 -36 10 -88q0 -40 -10 -88h-76v-117q-61 -10 -124 -10q-66 0 -125 10v117h-316q-10 48 -10 88zM1006 303h86v115z" />
<glyph unicode="&#xbd;" horiz-adv-x="1548" d="M39 1278q140 37 215 121q45 10 143 10q79 0 127 -10v-682q-62 -10 -131 -10q-93 0 -147 10v317q0 72 6 105q-67 -46 -152 -56q-28 33 -46 89t-15 106zM203 -6l788 1429q52 15 158 15q47 0 86.5 -4t55.5 -8l16 -3l-791 -1429q-60 -14 -158 -14q-42 0 -80.5 3.5t-56.5 6.5z M928 125q0 54 17 96.5t44 69.5t59.5 48t65.5 35.5t60 27.5t44 30t17 37q0 41 -76 41q-60 0 -145 -21q-25 33 -37.5 86t-5.5 103q109 35 246 35q138 0 208 -50.5t70 -158.5q0 -67 -22 -112.5t-58.5 -69.5t-74 -39.5t-79.5 -33t-65 -38.5h264q15 -49 15 -109q0 -56 -15 -102 h-518q-14 51 -14 125z" />
<glyph unicode="&#xbe;" horiz-adv-x="1519" d="M49 745q0 40 17 86t43 72q69 -20 141 -20q60 0 82 12t22 41t-16.5 39t-65.5 10h-98q-12 34 -12 89t12 89h98q36 0 49 7t13 30q0 21 -16.5 30t-63.5 9q-32 0 -64.5 -4t-48.5 -8l-16 -4q-61 58 -64 157q109 41 248 41q161 0 232 -48t71 -142q0 -116 -104 -152 q125 -44 125 -166q0 -51 -14 -88t-48 -67t-97 -45t-155 -15q-76 0 -143.5 12t-97.5 24zM252 -6l788 1429q52 15 158 15q47 0 86.5 -4t55.5 -8l16 -3l-791 -1429q-59 -14 -157 -14q-42 0 -81 3.5t-57 6.5zM815 215q0 43 8 76l320 399q55 12 125 12t123 -12v-387h75 q11 -40 11 -88q0 -35 -11 -88h-75v-117q-61 -10 -125 -10q-66 0 -125 10v117h-316q-10 48 -10 88zM1055 303h86v115z" />
<glyph unicode="&#xbf;" horiz-adv-x="966" d="M37 4q0 72 19.5 129.5t51 94.5t69.5 66.5t76 53.5t69.5 48t51 58t19.5 76q63 21 182 21q53 0 98 -5.5t64 -10.5l19 -5q0 -82 -16 -145.5t-41.5 -101.5t-56 -66.5t-61.5 -47t-56.5 -35.5t-41.5 -39.5t-16 -51.5q0 -42 29 -60t98 -18q49 0 102.5 11.5t81.5 23.5l29 12 q63 -44 93.5 -120.5t27.5 -165.5q-18 -8 -51.5 -20.5t-137 -33t-207.5 -20.5q-87 0 -156.5 9t-134.5 33.5t-108.5 63t-69.5 101t-26 145.5zM362 651v398q76 16 211 16q60 0 113 -4t76 -8l22 -4v-398q-74 -16 -211 -16q-60 0 -112.5 4t-75.5 8z" />
<glyph unicode="&#xc0;" horiz-adv-x="1421" d="M-8 18l428 1438q98 19 293 19q90 0 163.5 -4.5t101.5 -9.5l28 -5l426 -1438q-79 -18 -226 -18q-61 0 -114.5 4.5t-77.5 9.5l-23 4l-69 246h-433l-69 -246q-82 -18 -215 -18q-59 0 -112.5 4.5t-76.5 9.5zM371 1855q41 67 145 106t207 28l207 -342q-68 -88 -234 -113z M573 557h265l-82 287q-17 62 -29 127.5t-15 100.5l-3 34h-9q-4 -123 -43 -262z" />
<glyph unicode="&#xc1;" horiz-adv-x="1417" d="M-10 18l428 1438q98 19 293 19q90 0 163.5 -4.5t101.5 -9.5l28 -5l426 -1438q-79 -18 -226 -18q-61 0 -114.5 4.5t-77.5 9.5l-23 4l-69 246h-433l-69 -246q-82 -18 -215 -18q-59 0 -112.5 4.5t-76.5 9.5zM539 1647l206 342q103 11 207.5 -28t145.5 -106l-326 -321 q-165 25 -233 113zM571 557h265l-82 287q-17 62 -29 127.5t-15 100.5l-3 34h-9q-4 -123 -43 -262z" />
<glyph unicode="&#xc2;" horiz-adv-x="1419" d="M-10 18l428 1438q98 19 293 19q90 0 163.5 -4.5t101.5 -9.5l28 -5l426 -1438q-79 -18 -226 -18q-61 0 -114.5 4.5t-77.5 9.5l-23 4l-69 246h-433l-69 -246q-82 -18 -215 -18q-59 0 -112.5 4.5t-76.5 9.5zM274 1722l367 324h113l370 -324q-29 -62 -75 -111.5t-103 -76.5 l-248 152l-245 -150q-122 57 -179 186zM571 557h265l-82 287q-17 62 -29 127.5t-15 100.5l-3 34h-9q-4 -123 -43 -262z" />
<glyph unicode="&#xc3;" horiz-adv-x="1421" d="M-8 18l428 1438q98 19 293 19q90 0 163.5 -4.5t101.5 -9.5l28 -5l426 -1438q-79 -18 -226 -18q-61 0 -114.5 4.5t-77.5 9.5l-23 4l-69 246h-433l-69 -246q-82 -18 -215 -18q-59 0 -112.5 4.5t-76.5 9.5zM279 1675q26 85 97.5 145t164.5 60q61 0 113 -22t101 -44t101 -22 q34 0 62 14t40 28l11 15q110 -44 170 -145q-93 -170 -256 -170q-61 0 -113.5 19.5t-101.5 39t-101 19.5q-34 0 -64 -16.5t-43 -33.5l-14 -16q-112 33 -167 129zM573 557h265l-82 287q-17 62 -29 127.5t-15 100.5l-3 34h-9q-4 -123 -43 -262z" />
<glyph unicode="&#xc4;" horiz-adv-x="1421" d="M-8 18l428 1438q98 19 293 19q90 0 163.5 -4.5t101.5 -9.5l28 -5l426 -1438q-79 -18 -226 -18q-61 0 -114.5 4.5t-77.5 9.5l-23 4l-69 246h-433l-69 -246q-82 -18 -215 -18q-59 0 -112.5 4.5t-76.5 9.5zM295 1548v303q63 15 180 15q51 0 96 -4t65 -8l19 -3v-303 q-65 -14 -180 -14q-51 0 -96 3.5t-65 6.5zM573 557h265l-82 287q-17 62 -29 127.5t-15 100.5l-3 34h-9q-4 -123 -43 -262zM756 1548v303q63 15 180 15q51 0 96 -4t64 -8l20 -3v-303q-65 -14 -180 -14q-51 0 -96 3.5t-64 6.5z" />
<glyph unicode="&#xc5;" horiz-adv-x="1425" d="M-12 18l442 1389q-72 72 -72 184q0 79 30 143t80.5 104t114.5 61.5t134 21.5q93 0 173 -35.5t133.5 -112.5t53.5 -182q0 -121 -73 -188l436 -1385q-85 -18 -232 -18q-61 0 -114.5 4.5t-77.5 9.5l-23 4l-69 246h-432l-70 -246q-82 -18 -215 -18q-59 0 -114 4.5t-80 9.5z M575 557h265l-80 264q-19 62 -31.5 127.5t-14.5 99.5l-3 35h-9q-2 -123 -45 -262zM627 1591q0 -35 23 -60.5t65 -25.5q43 0 66.5 26t23.5 60q0 35 -23.5 59.5t-66.5 24.5q-42 0 -65 -25t-23 -59z" />
<glyph unicode="&#xc6;" horiz-adv-x="1966" d="M-33 20l887 1455h1036q24 -67 23 -157t-23 -157h-475v-260h373q24 -67 23 -156.5t-23 -156.5h-373v-275h496q22 -67 23 -156.5t-23 -156.5h-942v285h-381l-156 -265q-78 -20 -235 -20q-169 0 -230 20zM774 598h195v328z" />
<glyph unicode="&#xc7;" horiz-adv-x="1185" d="M47 737q0 369 179.5 563.5t512.5 194.5q77 0 148.5 -9.5t118 -23t82 -27t51.5 -23.5l16 -9q4 -72 -33 -158q-18 -42 -41 -73t-37 -42l-14 -10q-100 39 -221 39q-102 0 -162 -36.5t-90.5 -129.5t-30.5 -258q0 -124 16 -205t52 -128.5t87 -66t128 -18.5q56 0 114.5 11.5 t89.5 22.5l31 11q6 -4 16 -12.5t36 -42t45 -76.5q17 -38 26 -78t9 -61v-20q-4 -3 -12.5 -8t-39 -18t-66 -24t-95.5 -22.5t-127 -15.5l-13 -58q228 0 228 -211q0 -107 -77.5 -162t-209.5 -55q-72 0 -137.5 12t-94.5 24l-30 13q-2 35 13 81t38 65q67 -23 149 -29 q134 -8 134 60q0 29 -16 41t-52 12h-158l-28 33l32 178q-275 35 -421 226.5t-146 522.5z" />
<glyph unicode="&#xc8;" d="M96 0v1475h989q21 -65 21 -156q0 -107 -21 -168h-542v-248h440q21 -78 21 -155q0 -92 -21 -160h-440v-264h563q20 -62 20 -160q0 -108 -20 -164h-1010zM205 1855q41 67 145 106t207 28l207 -342q-68 -88 -234 -113z" />
<glyph unicode="&#xc9;" d="M96 0v1475h989q21 -65 21 -156q0 -107 -21 -168h-542v-248h440q21 -78 21 -155q0 -92 -21 -160h-440v-264h563q20 -62 20 -160q0 -108 -20 -164h-1010zM350 1647l207 342q103 11 207 -28t145 -106l-325 -321q-166 25 -234 113z" />
<glyph unicode="&#xca;" d="M96 0v1475h989q21 -65 21 -156q0 -107 -21 -168h-542v-248h440q21 -78 21 -155q0 -92 -21 -160h-440v-264h563q20 -62 20 -160q0 -108 -20 -164h-1010zM172 1722l367 324h112l371 -324q-29 -62 -75 -111.5t-103 -76.5l-248 152l-246 -150q-121 56 -178 186z" />
<glyph unicode="&#xcb;" d="M96 0v1475h989q21 -65 21 -156q0 -107 -21 -168h-542v-248h440q21 -78 21 -155q0 -92 -21 -160h-440v-264h563q20 -62 20 -160q0 -108 -20 -164h-1010zM172 1548v303q63 15 180 15q51 0 96 -4t64 -8l20 -3v-303q-65 -14 -180 -14q-51 0 -96 3.5t-64 6.5zM633 1548v303 q63 15 180 15q51 0 96 -4t65 -8l19 -3v-303q-65 -14 -180 -14q-51 0 -96 3.5t-65 6.5z" />
<glyph unicode="&#xcc;" horiz-adv-x="638" d="M-10 1855q41 67 145 106t207 28l207 -342q-68 -88 -234 -113zM96 18v1438q94 19 221 19q57 0 113.5 -4.5t84.5 -9.5l28 -5v-1438q-99 -18 -224 -18q-60 0 -115.5 4.5t-81.5 9.5z" />
<glyph unicode="&#xcd;" horiz-adv-x="638" d="M94 1647l207 342q103 11 207 -28t145 -106l-325 -321q-166 25 -234 113zM96 18v1438q94 19 221 19q57 0 113.5 -4.5t84.5 -9.5l28 -5v-1438q-99 -18 -224 -18q-60 0 -115.5 4.5t-81.5 9.5z" />
<glyph unicode="&#xce;" horiz-adv-x="638" d="M-98 1722l366 324h113l371 -324q-28 -61 -75 -111t-104 -77l-247 152l-246 -150q-121 56 -178 186zM96 18v1438q94 19 221 19q57 0 113.5 -4.5t84.5 -9.5l28 -5v-1438q-99 -18 -224 -18q-60 0 -115.5 4.5t-81.5 9.5z" />
<glyph unicode="&#xcf;" horiz-adv-x="638" d="M-104 1548v303q63 15 180 15q51 0 96 -4t64 -8l20 -3v-303q-65 -14 -180 -14q-51 0 -96 3.5t-64 6.5zM96 18v1438q94 19 221 19q57 0 113.5 -4.5t84.5 -9.5l28 -5v-1438q-99 -18 -224 -18q-60 0 -115.5 4.5t-81.5 9.5zM356 1548v303q64 15 181 15q51 0 96 -4t65 -8l19 -3 v-303q-65 -14 -180 -14q-51 0 -96.5 3.5t-64.5 6.5z" />
<glyph unicode="&#xd0;" horiz-adv-x="1433" d="M2 732q0 86 14 136h138v607h553q231 0 378.5 -73.5t223 -237.5t75.5 -427t-75.5 -426.5t-222.5 -237t-379 -73.5h-553v590h-138q-14 56 -14 142zM600 330h107q82 0 126.5 33t65.5 120.5t21 253.5q0 167 -21 254.5t-65 120.5t-127 33h-107v-277h143q15 -52 14.5 -139 t-14.5 -139h-143v-260z" />
<glyph unicode="&#xd1;" horiz-adv-x="1441" d="M96 18v1438q96 19 301 19q91 0 164 -4.5t100 -9.5l27 -5l189 -598q31 -98 58 -216.5t39 -187.5l11 -69h10q-22 241 -22 477v594q84 19 190 19q52 0 97.5 -4.5t65.5 -9.5l20 -5v-1438q-90 -18 -295 -18q-84 0 -158 4.5t-107 9.5l-32 4l-201 607q-34 103 -59.5 209 t-33.5 160l-9 55h-13q31 -184 31 -424v-607q-68 -18 -193 -18q-55 0 -100 4.5t-62 9.5zM354 1776l11 11t30.5 25t48.5 32t62 25t74 11q75 0 164.5 -32.5t150.5 -32.5q38 0 68.5 13.5t41.5 26.5l11 13q59 -32 93.5 -96.5t37.5 -133.5q-3 -4 -9.5 -11t-28 -25t-45.5 -32 t-62.5 -25t-79.5 -11q-75 0 -165 32.5t-151 32.5q-34 0 -64 -13.5t-44 -26.5l-13 -13q-59 32 -94 94.5t-37 135.5z" />
<glyph unicode="&#xd2;" horiz-adv-x="1437" d="M47 737q0 387 176.5 577.5t495.5 190.5q320 0 496 -188.5t176 -579.5q0 -390 -176.5 -579t-495.5 -189q-320 0 -496 188.5t-176 579.5zM377 1876q41 67 145 105.5t207 27.5l207 -342q-68 -88 -234 -113zM528 737q0 -132 11.5 -218.5t37 -134.5t59 -66.5t83.5 -18.5 q69 0 109 34.5t61.5 131.5t21.5 272q0 176 -21.5 273t-61.5 131.5t-109 34.5q-68 0 -107 -34t-61.5 -132t-22.5 -273z" />
<glyph unicode="&#xd3;" horiz-adv-x="1437" d="M47 737q0 387 176.5 577.5t495.5 190.5q320 0 496 -188.5t176 -579.5q0 -390 -176.5 -579t-495.5 -189q-320 0 -496 188.5t-176 579.5zM528 737q0 -132 11.5 -218.5t37 -134.5t59 -66.5t83.5 -18.5q69 0 109 34.5t61.5 131.5t21.5 272q0 176 -21.5 273t-61.5 131.5 t-109 34.5q-68 0 -107 -34t-61.5 -132t-22.5 -273zM584 1663l207 342q103 11 207 -27.5t145 -105.5l-326 -322q-165 25 -233 113z" />
<glyph unicode="&#xd4;" horiz-adv-x="1437" d="M47 737q0 387 176.5 577.5t495.5 190.5q320 0 496 -188.5t176 -579.5q0 -390 -176.5 -579t-495.5 -189q-320 0 -496 188.5t-176 579.5zM295 1722l367 324h112l371 -324q-29 -62 -75 -111.5t-103 -76.5l-248 152l-246 -150q-121 56 -178 186zM528 737q0 -132 11.5 -218.5 t37 -134.5t59 -66.5t83.5 -18.5q69 0 109 34.5t61.5 131.5t21.5 272q0 176 -21.5 273t-61.5 131.5t-109 34.5q-68 0 -107 -34t-61.5 -132t-22.5 -273z" />
<glyph unicode="&#xd5;" horiz-adv-x="1437" d="M47 737q0 387 176.5 577.5t495.5 190.5q320 0 496 -188.5t176 -579.5q0 -390 -176.5 -579t-495.5 -189q-320 0 -496 188.5t-176 579.5zM328 1802q4 4 10.5 11.5t29.5 26.5t47 34t60.5 27.5t73.5 13.5q75 3 165.5 -27t151.5 -28q24 1 45 7.5t34 14.5t22.5 16t13.5 14l4 5 q60 -29 97 -92t42 -131q-3 -4 -9 -11.5t-27 -26.5t-44.5 -34t-61.5 -27.5t-79 -13.5q-75 -3 -165.5 27t-151.5 28q-34 -2 -63.5 -16t-42.5 -28l-13 -13q-61 29 -97.5 89.5t-41.5 133.5zM528 737q0 -132 11.5 -218.5t37 -134.5t59 -66.5t83.5 -18.5q69 0 109 34.5t61.5 131.5 t21.5 272q0 176 -21.5 273t-61.5 131.5t-109 34.5q-68 0 -107 -34t-61.5 -132t-22.5 -273z" />
<glyph unicode="&#xd6;" horiz-adv-x="1437" d="M47 737q0 387 176.5 577.5t495.5 190.5q320 0 496 -188.5t176 -579.5q0 -390 -176.5 -579t-495.5 -189q-320 0 -496 188.5t-176 579.5zM309 1577v303q63 14 180 14q51 0 96.5 -3.5t64.5 -6.5l20 -4v-303q-66 -14 -181 -14q-51 0 -96 3.5t-65 7.5zM528 737 q0 -132 11.5 -218.5t37 -134.5t59 -66.5t83.5 -18.5q69 0 109 34.5t61.5 131.5t21.5 272q0 176 -21.5 273t-61.5 131.5t-109 34.5q-68 0 -107 -34t-61.5 -132t-22.5 -273zM770 1577v303q63 14 180 14q51 0 96 -3.5t64 -6.5l20 -4v-303q-65 -14 -180 -14q-51 0 -96 3.5 t-64 7.5z" />
<glyph unicode="&#xd7;" horiz-adv-x="946" d="M47 371l219 219l-219 221q29 49 92 115q29 28 58 51t43 32l14 9l219 -221l221 221q49 -26 115 -92q29 -29 51.5 -58t30.5 -43l8 -14l-221 -221l221 -219q-24 -49 -90 -115q-29 -29 -58 -51.5t-43 -30.5l-14 -8l-221 219l-219 -219q-49 26 -115 92q-28 29 -51 57.5 t-32 42.5z" />
<glyph unicode="&#xd8;" horiz-adv-x="1437" d="M47 737q0 387 176.5 577.5t495.5 190.5q137 0 250 -35l82 132q81 -4 154 -43t116 -95l-96 -159q166 -196 166 -568q0 -390 -176.5 -579t-495.5 -189q-161 0 -283 45l-86 -141q-74 5 -152 43.5t-120 95.5l112 185q-143 194 -143 540zM526 737q0 -10 1 -30.5t1 -30.5 l289 473q-36 27 -98 27q-68 0 -107.5 -34t-62.5 -132t-23 -273zM612 334q41 -35 107 -35q69 0 109.5 34.5t62.5 131.5t22 272q0 28 -4 86z" />
<glyph unicode="&#xd9;" horiz-adv-x="1384" d="M86 508v948q84 19 221 19q62 0 118 -4.5t81 -9.5l26 -5v-938q0 -90 40 -132t124 -42t123 42t39 132v938q80 19 217 19q61 0 116.5 -4.5t80.5 -9.5l26 -5v-948q0 -255 -164 -397t-442 -142t-442 142t-164 397zM348 1855q41 67 145 106t207 28l207 -342q-68 -88 -233 -113z " />
<glyph unicode="&#xda;" horiz-adv-x="1382" d="M86 508v948q84 19 221 19q62 0 118 -4.5t81 -9.5l26 -5v-938q0 -90 40 -132t124 -42t123 42t39 132v938q80 19 217 19q61 0 116.5 -4.5t80.5 -9.5l26 -5v-948q0 -255 -164 -397t-442 -142t-442 142t-164 397zM494 1647l206 342q103 11 207.5 -28t145.5 -106l-326 -321 q-165 25 -233 113z" />
<glyph unicode="&#xdb;" horiz-adv-x="1382" d="M86 508v948q84 19 221 19q62 0 118 -4.5t81 -9.5l26 -5v-938q0 -90 40 -132t124 -42t123 42t39 132v938q80 19 217 19q61 0 116.5 -4.5t80.5 -9.5l26 -5v-948q0 -255 -164 -397t-442 -142t-442 142t-164 397zM283 1722l366 324h113l371 -324q-28 -61 -75 -111t-104 -77 l-247 152l-246 -150q-121 56 -178 186z" />
<glyph unicode="&#xdc;" horiz-adv-x="1384" d="M86 508v948q84 19 221 19q62 0 118 -4.5t81 -9.5l26 -5v-938q0 -90 40 -132t124 -42t123 42t39 132v938q80 19 217 19q61 0 116.5 -4.5t80.5 -9.5l26 -5v-948q0 -255 -164 -397t-442 -142t-442 142t-164 397zM283 1548v303q63 15 180 15q51 0 96 -4t65 -8l19 -3v-303 q-65 -14 -180 -14q-51 0 -96 3.5t-65 6.5zM743 1548v303q64 15 181 15q51 0 96 -4t64 -8l20 -3v-303q-65 -14 -180 -14q-51 0 -96.5 3.5t-65.5 6.5z" />
<glyph unicode="&#xdd;" horiz-adv-x="1363" d="M-12 1456q90 19 256 19q63 0 121 -4.5t85 -9.5l27 -5l219 -450l224 450q96 19 231 19q64 0 122.5 -4.5t84.5 -9.5l26 -5l-481 -932v-506q-78 -18 -223 -18q-69 0 -125 4.5t-77 9.5l-21 4v512zM465 1647l207 342q103 11 207 -28t145 -106l-326 -321q-165 25 -233 113z" />
<glyph unicode="&#xde;" horiz-adv-x="1251" d="M96 18v1438q84 19 211 19q57 0 111 -4.5t79 -9.5l25 -5v-196h205q236 0 367 -133.5t131 -366.5t-131 -366.5t-367 -133.5h-205v-242q-88 -18 -213 -18q-60 0 -113.5 4.5t-76.5 9.5zM522 580h86q97 0 137.5 37t40.5 143t-40.5 143t-137.5 37h-86v-360z" />
<glyph unicode="&#xdf;" horiz-adv-x="1236" d="M70 16v1102q0 204 137 311t395 107q228 0 355 -108.5t135 -303.5q3 -85 -17 -180q-174 -15 -174 -115q0 -36 24.5 -71.5t61 -63t79.5 -65t79.5 -76.5t61 -99.5t24.5 -131.5q0 -161 -114 -251.5t-304 -90.5q-81 0 -155.5 10t-109.5 20l-34 10q-9 174 80 279 q78 -20 129 -20q90 0 90 55q0 22 -22.5 47.5t-55.5 49t-72.5 58.5t-72.5 73.5t-55.5 96.5t-22.5 125q0 53 17 102t41 80.5t48 55.5t41 34l17 11q15 40 12 74q-1 43 -27.5 66.5t-70.5 23.5q-63 0 -91 -34.5t-28 -119.5v-1061q-86 -16 -211 -16q-58 0 -105.5 4t-66.5 8z" />
<glyph unicode="&#xe0;" horiz-adv-x="1064" d="M18 342q0 177 104.5 255.5t328.5 78.5q6 0 129 -6v18q0 49 -34 69.5t-100 20.5q-51 0 -108 -10t-88 -20l-31 -9q-55 47 -90 131q-16 37 -23 76t-6 60v20q7 4 21 10t58.5 22t92 28t118.5 22t140 10q242 0 356.5 -93.5t114.5 -287.5v-721q-73 -16 -186 -16q-51 0 -96.5 4 t-65.5 8l-20 4l-29 80q-69 -116 -268 -116q-161 0 -239.5 89.5t-78.5 272.5zM162 1513q41 67 145 106t207 28l207 -342q-68 -88 -234 -113zM428 334q0 -65 16.5 -91t51.5 -26q84 0 84 168v59q-18 2 -56 2q-49 0 -72.5 -25.5t-23.5 -86.5z" />
<glyph unicode="&#xe1;" horiz-adv-x="1064" d="M18 342q0 177 104.5 255.5t328.5 78.5q6 0 129 -6v20q0 88 -134 88q-51 0 -108 -10t-88 -20l-31 -9q-55 47 -90 131q-16 37 -23 76t-6 60v20q7 4 21 10t58.5 22t92 28t118.5 22t140 10q242 0 356.5 -93.5t114.5 -287.5v-721q-73 -16 -186 -16q-51 0 -96.5 4t-65.5 8 l-20 4l-29 80q-69 -116 -268 -116q-161 0 -239.5 89.5t-78.5 272.5zM299 1305l207 342q103 11 207 -28t145 -106l-326 -321q-165 25 -233 113zM428 334q0 -65 16.5 -91t51.5 -26q84 0 84 168v59q-18 2 -56 2q-49 0 -72.5 -25.5t-23.5 -86.5z" />
<glyph unicode="&#xe2;" horiz-adv-x="1064" d="M18 342q0 177 104.5 255.5t328.5 78.5q6 0 129 -6v22q0 86 -134 86q-51 0 -108 -10t-88 -20l-31 -9q-55 47 -90 131q-16 37 -23 76t-6 60v20q7 4 21 10t58.5 22t92 28t118.5 22t140 10q242 0 356.5 -93.5t114.5 -287.5v-721q-73 -16 -186 -16q-51 0 -96.5 4t-65.5 8 l-20 4l-29 80q-69 -116 -268 -116q-161 0 -239.5 89.5t-78.5 272.5zM135 1374l359 318h110l363 -318q-62 -130 -174 -182l-242 147l-242 -145q-57 26 -102 73t-72 107zM428 334q0 -65 16.5 -91t51.5 -26q84 0 84 168v59q-18 2 -56 2q-49 0 -72.5 -25.5t-23.5 -86.5z" />
<glyph unicode="&#xe3;" horiz-adv-x="1064" d="M18 342q0 177 104.5 255.5t328.5 78.5q6 0 129 -6v26q0 82 -134 82q-51 0 -108 -10t-88 -20l-31 -9q-55 47 -90 131q-16 37 -23 76t-6 60v20q7 4 21 10t58.5 22t92 28t118.5 22t140 10q242 0 356.5 -93.5t114.5 -287.5v-721q-73 -16 -186 -16q-51 0 -96.5 4t-65.5 8 l-20 4l-29 80q-69 -116 -268 -116q-161 0 -239.5 89.5t-78.5 272.5zM143 1434l11 11t30.5 25t48.5 32t62 25t74 11q75 0 164.5 -32.5t150.5 -32.5q38 0 68.5 13.5t41.5 26.5l11 13q59 -32 93.5 -96.5t37.5 -133.5q-3 -4 -9.5 -11t-28 -25t-45.5 -32t-62.5 -25t-79.5 -11 q-75 0 -165 32.5t-151 32.5q-34 0 -64 -13.5t-43 -26.5l-14 -13q-59 32 -94 94.5t-37 135.5zM428 334q0 -65 16.5 -91t51.5 -26q84 0 84 168v59q-18 2 -56 2q-49 0 -72.5 -25.5t-23.5 -86.5z" />
<glyph unicode="&#xe4;" horiz-adv-x="1064" d="M18 342q0 177 104.5 255.5t328.5 78.5q6 0 129 -6v26q0 82 -134 82q-51 0 -108 -10t-88 -20l-31 -9q-55 47 -90 131q-16 37 -23 76t-6 60v20q7 4 21 10t58.5 22t92 28t118.5 22t140 10q242 0 356.5 -93.5t114.5 -287.5v-721q-73 -16 -186 -16q-51 0 -96.5 4t-65.5 8 l-20 4l-29 80q-69 -116 -268 -116q-161 0 -239.5 89.5t-78.5 272.5zM137 1206v303q63 15 180 15q51 0 96.5 -4t64.5 -8l20 -3v-303q-66 -14 -181 -14q-51 0 -96 3.5t-65 6.5zM428 334q0 -65 16.5 -91t51.5 -26q84 0 84 168v59q-18 2 -56 2q-49 0 -72.5 -25.5t-23.5 -86.5z M598 1206v303q63 15 180 15q51 0 96 -4t64 -8l20 -3v-303q-65 -14 -180 -14q-51 0 -96 3.5t-64 6.5z" />
<glyph unicode="&#xe5;" horiz-adv-x="1064" d="M18 342q0 177 104.5 255.5t328.5 78.5q6 0 129 -6v28q0 40 -36 60t-98 20q-51 0 -108 -10t-88 -20l-31 -9q-55 47 -90 131q-16 37 -23 76t-6 60v20q7 4 21 10t58.5 22t92 28t118.5 22t140 10q242 0 356.5 -93.5t114.5 -287.5v-721q-73 -16 -186 -16q-51 0 -96.5 4 t-65.5 8l-20 4l-29 80q-69 -116 -268 -116q-161 0 -239.5 89.5t-78.5 272.5zM201 1468q0 134 100.5 209.5t241.5 75.5q89 0 165.5 -30.5t127.5 -97t51 -157.5q0 -134 -100 -211t-246 -77q-150 0 -245 76.5t-95 211.5zM428 334q0 -65 16.5 -91t51.5 -26q84 0 84 168v59 q-18 2 -56 2q-49 0 -72.5 -25.5t-23.5 -86.5zM457 1468q0 -30 22 -51.5t62 -21.5q41 0 63.5 22t22.5 51q0 30 -22 51t-64 21q-40 0 -62 -21.5t-22 -50.5z" />
<glyph unicode="&#xe6;" horiz-adv-x="1607" d="M18 334q0 336 433 336h129v26q0 38 -34 60t-102 22q-48 0 -104.5 -10t-88.5 -20l-32 -9q-122 122 -119 287q7 4 20.5 10t58 22t91.5 28t118 22t142 10q196 0 306 -106q123 106 290 106q208 0 330.5 -110.5t122.5 -323.5q0 -62 -5.5 -125t-11.5 -95l-6 -32h-518 q15 -63 54.5 -94t111.5 -31q45 0 90 12.5t68 24.5l22 12q50 -41 89 -115.5t43 -152.5q-5 -4 -15 -11.5t-46 -26t-78 -33t-111.5 -26t-145.5 -11.5q-251 0 -362 149q-107 -149 -385 -149q-183 0 -269 89.5t-86 264.5zM428 330q0 -99 68 -99q45 0 64.5 42t19.5 133v40h-60 q-92 0 -92 -116zM1030 657h154q2 29 2 58q0 57 -16.5 89t-47.5 32q-78 0 -92 -179z" />
<glyph unicode="&#xe7;" horiz-adv-x="923" d="M39 539q0 297 127.5 438t382.5 141q96 0 183 -19.5t126 -38.5l39 -20q-7 -77 -40.5 -146.5t-86.5 -121.5q-49 31 -127 31q-86 0 -123 -59t-37 -197q0 -133 38.5 -189.5t129.5 -56.5q38 0 73 8.5t51 17.5l16 9q106 -103 127 -268q-5 -3 -14 -8.5t-41 -19.5t-67.5 -25 t-91 -21.5t-114.5 -13.5l-15 -66q228 0 228 -209q0 -107 -77.5 -162t-209.5 -55q-72 0 -137.5 12t-94.5 24l-30 13q-2 35 13 81t38 65q67 -23 150 -29q133 -8 133 59q0 29 -16 41.5t-52 12.5h-158l-28 32l37 199q-166 41 -249 171.5t-83 369.5z" />
<glyph unicode="&#xe8;" horiz-adv-x="1054" d="M39 545q0 290 133 431.5t385 141.5q225 0 348 -113t123 -331q0 -64 -5.5 -124.5t-10.5 -89.5l-6 -28h-519q17 -67 56 -94t106 -27q47 0 93.5 12.5t69.5 24.5l22 12q48 -37 88 -117.5t43 -154.5q-5 -4 -15 -11.5t-46.5 -26t-78 -33t-110.5 -26t-144 -11.5 q-265 0 -398.5 135.5t-133.5 429.5zM213 1513q41 67 145 106t207 28l207 -342q-68 -88 -233 -113zM479 657h154q2 18 2 60q0 55 -16.5 87t-47.5 32q-79 0 -92 -179z" />
<glyph unicode="&#xe9;" horiz-adv-x="1054" d="M39 545q0 290 133 431.5t385 141.5q225 0 348 -113t123 -331q0 -64 -5.5 -124.5t-10.5 -89.5l-6 -28h-519q17 -67 56 -94t106 -27q47 0 93.5 12.5t69.5 24.5l22 12q48 -37 88 -117.5t43 -154.5q-5 -4 -15 -11.5t-46.5 -26t-78 -33t-110.5 -26t-144 -11.5 q-265 0 -398.5 135.5t-133.5 429.5zM299 1305l207 342q103 11 207 -28t145 -106l-326 -321q-165 25 -233 113zM479 657h154q2 18 2 60q0 55 -16.5 87t-47.5 32q-79 0 -92 -179z" />
<glyph unicode="&#xea;" horiz-adv-x="1054" d="M39 545q0 290 133 431.5t385 141.5q225 0 348 -113t123 -331q0 -64 -5.5 -124.5t-10.5 -89.5l-6 -28h-519q17 -67 56 -94t106 -27q47 0 93.5 12.5t69.5 24.5l22 12q48 -37 88 -117.5t43 -154.5q-5 -4 -15 -11.5t-46.5 -26t-78 -33t-110.5 -26t-144 -11.5 q-265 0 -398.5 135.5t-133.5 429.5zM135 1374l359 318h110l363 -318q-62 -130 -174 -182l-242 147l-242 -145q-57 26 -102 73t-72 107zM479 657h154q2 18 2 60q0 55 -16.5 87t-47.5 32q-79 0 -92 -179z" />
<glyph unicode="&#xeb;" horiz-adv-x="1054" d="M39 545q0 290 133 431.5t385 141.5q225 0 348 -113t123 -331q0 -64 -5.5 -124.5t-10.5 -89.5l-6 -28h-519q17 -67 56 -94t106 -27q47 0 93.5 12.5t69.5 24.5l22 12q48 -37 88 -117.5t43 -154.5q-5 -4 -15 -11.5t-46.5 -26t-78 -33t-110.5 -26t-144 -11.5 q-265 0 -398.5 135.5t-133.5 429.5zM137 1206v303q63 15 180 15q51 0 96.5 -4t64.5 -8l20 -3v-303q-66 -14 -181 -14q-51 0 -96 3.5t-65 6.5zM479 657h154q2 18 2 60q0 55 -16.5 87t-47.5 32q-79 0 -92 -179zM598 1206v303q63 15 180 15q51 0 96 -4t64 -8l20 -3v-303 q-65 -14 -180 -14q-51 0 -96 3.5t-64 6.5z" />
<glyph unicode="&#xec;" horiz-adv-x="561" d="M-61 1516q41 67 145 105.5t207 27.5l207 -342q-68 -88 -234 -113zM70 16v1065q74 17 211 17q60 0 112.5 -4t75.5 -8l23 -5v-1065q-76 -16 -211 -16q-60 0 -113 4t-76 8z" />
<glyph unicode="&#xed;" horiz-adv-x="561" d="M33 1305l207 342q103 11 207 -28t145 -106l-326 -321q-165 25 -233 113zM70 16v1065q74 17 211 17q60 0 112.5 -4t75.5 -8l23 -5v-1065q-76 -16 -211 -16q-60 0 -113 4t-76 8z" />
<glyph unicode="&#xee;" horiz-adv-x="561" d="M-135 1374l358 318h111l362 -318q-62 -130 -174 -182l-241 147l-242 -145q-57 26 -102 73t-72 107zM70 16v1065q74 17 211 17q60 0 112.5 -4t75.5 -8l23 -5v-1065q-76 -16 -211 -16q-60 0 -113 4t-76 8z" />
<glyph unicode="&#xef;" horiz-adv-x="561" d="M-125 1206v303q63 15 180 15q51 0 96.5 -4t64.5 -8l20 -3v-303q-66 -14 -181 -14q-51 0 -96 3.5t-65 6.5zM70 16v1065q74 17 211 17q60 0 112.5 -4t75.5 -8l23 -5v-1065q-76 -16 -211 -16q-60 0 -113 4t-76 8zM336 1206v303q63 15 180 15q51 0 96 -4t64 -8l20 -3v-303 q-65 -14 -180 -14q-51 0 -96 3.5t-64 6.5z" />
<glyph unicode="&#xf0;" horiz-adv-x="1155" d="M35 516q0 496 512 496q71 0 137 -29q-38 84 -102 145l-234 -120q-95 71 -121 204l123 64q-66 24 -143 33q-20 151 53 227q207 -24 383 -109l219 115q98 -68 119 -205l-117 -61q250 -241 250 -647q0 -147 -28 -260.5t-76 -186t-119 -119t-149.5 -65t-174.5 -18.5 q-113 0 -206 29.5t-167.5 90.5t-116.5 167t-42 249zM465 516q0 -100 11.5 -152t32 -68.5t58.5 -16.5t59 16.5t33.5 69t12.5 151.5q0 102 -12.5 154.5t-33 68t-59.5 15.5q-38 0 -58.5 -16.5t-32 -69t-11.5 -152.5z" />
<glyph unicode="&#xf1;" horiz-adv-x="1118" d="M72 16v1065q74 17 211 17q60 0 112.5 -4t75.5 -8l23 -5v-59q110 96 260 96t225.5 -80t75.5 -219v-803q-70 -16 -211 -16q-62 0 -114.5 4t-74.5 8l-22 4v709q0 78 -70 78q-34 0 -69 -25v-762q-76 -16 -211 -16q-60 0 -112.5 4t-75.5 8zM147 1425l11 11t30.5 25.5t48.5 32 t62 25t74 11.5q75 0 164.5 -33t150.5 -33q38 0 68.5 13.5t41.5 26.5l11 14q59 -32 93.5 -96.5t37.5 -133.5q-3 -4 -9.5 -11t-28 -25t-45.5 -32t-62.5 -25t-79.5 -11q-75 0 -165 32.5t-151 32.5q-34 0 -64 -13.5t-43 -26.5l-13 -13q-60 32 -95 94t-37 135z" />
<glyph unicode="&#xf2;" horiz-adv-x="1153" d="M37 549q0 151 38.5 262t111 177.5t169.5 98t222 31.5q538 0 538 -569t-538 -569q-125 0 -222 31.5t-169.5 98t-111 177.5t-38.5 262zM195 1513q41 67 145 106t207 28l207 -342q-68 -88 -234 -113zM481 549q0 -146 21.5 -200t75.5 -54q53 0 73.5 53.5t20.5 200.5 t-20.5 199.5t-73.5 52.5q-54 0 -75.5 -53t-21.5 -199z" />
<glyph unicode="&#xf3;" horiz-adv-x="1153" d="M37 549q0 151 38.5 262t111 177.5t169.5 98t222 31.5q538 0 538 -569t-538 -569q-125 0 -222 31.5t-169.5 98t-111 177.5t-38.5 262zM332 1305l207 342q103 11 207 -28t145 -106l-326 -321q-165 25 -233 113zM481 549q0 -146 21.5 -200t75.5 -54q53 0 73.5 53.5 t20.5 200.5t-20.5 199.5t-73.5 52.5q-54 0 -75.5 -53t-21.5 -199z" />
<glyph unicode="&#xf4;" horiz-adv-x="1153" d="M37 549q0 151 38.5 262t111 177.5t169.5 98t222 31.5q538 0 538 -569t-538 -569q-125 0 -222 31.5t-169.5 98t-111 177.5t-38.5 262zM168 1331l358 318h111l362 -318q-62 -130 -174 -182l-241 147l-242 -145q-57 26 -102 73t-72 107zM481 549q0 -146 21.5 -200t75.5 -54 q53 0 73.5 53.5t20.5 200.5t-20.5 199.5t-73.5 52.5q-54 0 -75.5 -53t-21.5 -199z" />
<glyph unicode="&#xf5;" horiz-adv-x="1153" d="M37 549q0 151 38.5 262t111 177.5t169.5 98t222 31.5q538 0 538 -569t-538 -569q-125 0 -222 31.5t-169.5 98t-111 177.5t-38.5 262zM178 1434l11 11t30.5 25t48 32t61.5 25t74 11q75 0 165 -32.5t151 -32.5q38 0 68.5 13.5t41.5 26.5l11 13q59 -32 93.5 -96.5 t37.5 -133.5q-3 -4 -9.5 -11t-28.5 -25t-46 -32t-62.5 -25t-79.5 -11q-75 0 -164.5 32.5t-150.5 32.5q-34 0 -64 -13.5t-44 -26.5l-13 -13q-59 32 -94 94.5t-37 135.5zM481 549q0 -146 21.5 -200t75.5 -54q53 0 73.5 53.5t20.5 200.5t-20.5 199.5t-73.5 52.5 q-54 0 -75.5 -53t-21.5 -199z" />
<glyph unicode="&#xf6;" horiz-adv-x="1153" d="M37 549q0 151 38.5 262t111 177.5t169.5 98t222 31.5q538 0 538 -569t-538 -569q-125 0 -222 31.5t-169.5 98t-111 177.5t-38.5 262zM170 1206v303q63 15 180 15q51 0 96 -4t64 -8l20 -3v-303q-65 -14 -180 -14q-51 0 -96 3.5t-64 6.5zM481 549q0 -146 21.5 -200 t75.5 -54q53 0 73.5 53.5t20.5 200.5t-20.5 199.5t-73.5 52.5q-54 0 -75.5 -53t-21.5 -199zM631 1206v303q63 15 180 15q51 0 96 -4t65 -8l19 -3v-303q-65 -14 -180 -14q-51 0 -96 3.5t-65 6.5z" />
<glyph unicode="&#xf7;" horiz-adv-x="1017" d="M43 594q0 41 3.5 77t7.5 52l3 16h901q17 -53 17 -145q0 -41 -4.5 -77t-8.5 -52l-4 -16h-901q-14 53 -14 145zM319 16v357q68 14 191 14q54 0 101.5 -3.5t68.5 -7.5l20 -3v-357q-69 -16 -190 -16q-54 0 -101.5 4t-68.5 8zM319 817v357q68 14 191 14q54 0 101.5 -3.5 t68.5 -6.5l20 -4v-357q-69 -16 -190 -16q-54 0 -101.5 4t-68.5 8z" />
<glyph unicode="&#xf8;" horiz-adv-x="1153" d="M37 549q0 151 38.5 262t111 177.5t169.5 98t222 31.5t213 -28l69 112q120 -9 184 -96l-73 -121q145 -142 145 -436q0 -569 -538 -569q-116 0 -207 26l-88 -145q-121 10 -187 98l92 150q-151 142 -151 440zM479 549q0 -8 2 -14l152 245q-21 21 -55 21q-54 0 -76.5 -53.5 t-22.5 -198.5zM524 313q21 -18 54 -18q54 0 74 51t20 197v14z" />
<glyph unicode="&#xf9;" horiz-adv-x="1120" d="M66 279v802q69 17 210 17q62 0 114.5 -4t74.5 -8l22 -5v-708q0 -78 70 -78q37 0 70 24v762q76 17 211 17q60 0 112.5 -4t75.5 -8l23 -5v-1065q-74 -16 -211 -16q-60 0 -113 4t-75 8l-23 4v60q-110 -96 -260 -96t-225.5 80t-75.5 219zM213 1513q41 67 145 106t207 28 l207 -342q-68 -88 -233 -113z" />
<glyph unicode="&#xfa;" horiz-adv-x="1120" d="M66 279v802q69 17 210 17q62 0 114.5 -4t74.5 -8l22 -5v-708q0 -78 70 -78q37 0 70 24v762q76 17 211 17q60 0 112.5 -4t75.5 -8l23 -5v-1065q-74 -16 -211 -16q-60 0 -113 4t-75 8l-23 4v60q-110 -96 -260 -96t-225.5 80t-75.5 219zM315 1305l207 342q103 11 207 -28 t145 -106l-325 -321q-166 25 -234 113z" />
<glyph unicode="&#xfb;" horiz-adv-x="1120" d="M66 279v802q69 17 210 17q62 0 114.5 -4t74.5 -8l22 -5v-708q0 -78 70 -78q37 0 70 24v762q76 17 211 17q60 0 112.5 -4t75.5 -8l23 -5v-1065q-74 -16 -211 -16q-60 0 -113 4t-75 8l-23 4v60q-110 -96 -260 -96t-225.5 80t-75.5 219zM152 1374l358 318h111l362 -318 q-62 -130 -174 -182l-242 147l-241 -145q-57 26 -102 73t-72 107z" />
<glyph unicode="&#xfc;" horiz-adv-x="1120" d="M66 279v802q69 17 210 17q62 0 114.5 -4t74.5 -8l22 -5v-708q0 -78 70 -78q37 0 70 24v762q76 17 211 17q60 0 112.5 -4t75.5 -8l23 -5v-1065q-74 -16 -211 -16q-60 0 -113 4t-75 8l-23 4v60q-110 -96 -260 -96t-225.5 80t-75.5 219zM154 1206v303q63 15 180 15 q51 0 96 -4t64 -8l20 -3v-303q-65 -14 -180 -14q-51 0 -96 3.5t-64 6.5zM614 1206v303q64 15 181 15q51 0 96 -4t65 -8l19 -3v-303q-65 -14 -180 -14q-51 0 -96.5 3.5t-64.5 6.5z" />
<glyph unicode="&#xfd;" horiz-adv-x="1171" d="M-12 1081q86 17 225 17q67 0 119.5 -4t71.5 -8l20 -5l117 -364q24 -75 37.5 -157.5t15.5 -127.5l2 -45h8q8 162 55 330l103 364q78 17 203 17q60 0 113 -4t76 -8l24 -5l-336 -1198q-56 -203 -170 -299t-326 -96q-53 0 -109 8t-86 16l-30 7q-17 53 -17 139q0 36 7 74.5 t15 59.5l7 20q45 -9 86 -9q87 0 139 32.5t84 123.5l13 41q-74 3 -125 16zM340 1305l207 342q103 11 207 -28t145 -106l-326 -321q-165 25 -233 113z" />
<glyph unicode="&#xfe;" d="M72 -442v1982q84 16 211 16q56 0 109 -4t78 -8l24 -4v-518q89 96 245 96q379 0 379 -567q0 -571 -383 -571q-152 0 -241 102v-524q-84 -17 -211 -17q-56 0 -109 4.5t-78 8.5zM494 430q0 -32 6.5 -60.5t26 -51.5t48.5 -23q32 0 50 15t30.5 73t12.5 168q0 150 -19.5 201 t-73.5 51q-33 0 -55.5 -27t-25.5 -78v-268z" />
<glyph unicode="&#xff;" horiz-adv-x="1171" d="M-12 1081q86 17 225 17q67 0 119.5 -4t71.5 -8l20 -5l117 -364q24 -75 37.5 -157.5t15.5 -127.5l2 -45h8q8 162 55 330l103 364q78 17 203 17q60 0 113 -4t76 -8l24 -5l-336 -1198q-56 -203 -170 -299t-326 -96q-53 0 -109 8t-86 16l-30 7q-17 53 -17 139q0 36 7 74.5 t15 59.5l7 20q45 -9 86 -9q87 0 139 32.5t84 123.5l13 41q-74 3 -125 16zM190 1206v303q64 15 181 15q51 0 96 -4t65 -8l19 -3v-303q-65 -14 -180 -14q-51 0 -96.5 3.5t-64.5 6.5zM651 1206v303q63 15 180 15q51 0 96.5 -4t64.5 -8l20 -3v-303q-66 -14 -181 -14 q-51 0 -96 3.5t-65 6.5z" />
<glyph unicode="&#x152;" horiz-adv-x="1841" d="M49 737q0 387 172 572.5t492 185.5q102 0 196 -20h858q21 -58 21 -156q0 -100 -21 -158h-481v-260h379q21 -58 21 -156q0 -99 -21 -157h-379v-275h502q20 -58 20 -157q0 -101 -20 -156h-881q-105 -20 -194 -20q-319 0 -491.5 186.5t-172.5 570.5zM487 737 q0 -138 13 -225.5t43 -134t69 -62.5t101 -16q79 0 147 49v776q-72 52 -147 52q-62 0 -101 -16.5t-69 -63.5t-43 -134t-13 -225z" />
<glyph unicode="&#x153;" horiz-adv-x="1656" d="M37 549q0 151 38.5 262t111 177.5t169.5 98t222 31.5q165 0 294 -104q123 104 287 104q225 0 348 -113t123 -331q0 -64 -5.5 -124.5t-10.5 -89.5l-6 -28h-518q17 -65 56.5 -95t104.5 -30q47 0 93.5 12.5t69.5 24.5l22 12q48 -37 88 -115.5t43 -152.5q-5 -4 -15 -11.5 t-46 -26t-78 -33t-110.5 -26t-143.5 -11.5q-161 0 -306 114q-148 -114 -290 -114q-125 0 -222 31.5t-169.5 98t-111 177.5t-38.5 262zM481 549q0 -146 21.5 -200t75.5 -54q53 0 73.5 53.5t20.5 200.5t-20.5 199.5t-73.5 52.5q-54 0 -75.5 -53t-21.5 -199zM1081 657h154 q2 18 2 60q0 119 -63 119q-80 0 -93 -179z" />
<glyph unicode="&#x178;" horiz-adv-x="1363" d="M-12 1456q90 19 256 19q63 0 121 -4.5t85 -9.5l27 -5l219 -450l224 450q96 19 231 19q64 0 122.5 -4.5t84.5 -9.5l26 -5l-481 -932v-506q-78 -18 -223 -18q-69 0 -125 4.5t-77 9.5l-21 4v512zM299 1552v303q63 15 180 15q51 0 96 -4t65 -8l19 -3v-303q-65 -14 -180 -14 q-51 0 -96 3.5t-65 6.5zM760 1552v303q63 15 180 15q51 0 96 -4t64 -8l20 -3v-303q-65 -14 -180 -14q-51 0 -96 3.5t-64 6.5z" />
<glyph unicode="&#x2c6;" horiz-adv-x="811" d="M-23 1286l367 324h113l370 -324q-29 -62 -75 -111.5t-103 -76.5l-248 151l-245 -149q-122 57 -179 186z" />
<glyph unicode="&#x2dc;" horiz-adv-x="669" d="M-61 1477l11 11t30.5 25t48 32t61.5 25t74 11q75 0 164.5 -32.5t150.5 -32.5q24 0 45.5 5.5t34.5 13t23 15.5t14 14l4 5q59 -32 93.5 -96.5t37.5 -133.5q-3 -4 -9.5 -11t-28 -25t-45.5 -32t-62.5 -25t-79.5 -11q-75 0 -165 32.5t-151 32.5q-34 0 -64 -13t-43 -27l-13 -13 q-59 32 -94 94.5t-37 135.5z" />
<glyph unicode="&#x2000;" horiz-adv-x="1023" />
<glyph unicode="&#x2001;" horiz-adv-x="2046" />
<glyph unicode="&#x2002;" horiz-adv-x="1023" />
<glyph unicode="&#x2003;" horiz-adv-x="2046" />
<glyph unicode="&#x2004;" horiz-adv-x="682" />
<glyph unicode="&#x2005;" horiz-adv-x="511" />
<glyph unicode="&#x2006;" horiz-adv-x="341" />
<glyph unicode="&#x2007;" horiz-adv-x="341" />
<glyph unicode="&#x2008;" horiz-adv-x="255" />
<glyph unicode="&#x2009;" horiz-adv-x="409" />
<glyph unicode="&#x200a;" horiz-adv-x="113" />
<glyph unicode="&#x2010;" horiz-adv-x="675" d="M78 594q0 41 3.5 77t6.5 52l4 16h492q16 -53 16 -145q0 -41 -4 -77t-8 -52l-4 -16h-492q-14 53 -14 145z" />
<glyph unicode="&#x2011;" horiz-adv-x="675" d="M78 594q0 41 3.5 77t6.5 52l4 16h492q16 -53 16 -145q0 -41 -4 -77t-8 -52l-4 -16h-492q-14 53 -14 145z" />
<glyph unicode="&#x2012;" horiz-adv-x="675" d="M78 594q0 41 3.5 77t6.5 52l4 16h492q16 -53 16 -145q0 -41 -4 -77t-8 -52l-4 -16h-492q-14 53 -14 145z" />
<glyph unicode="&#x2013;" horiz-adv-x="1089" d="M80 594q0 41 3.5 77t6.5 52l4 16h901q17 -53 17 -145q0 -41 -4 -77t-8 -52l-5 -16h-901q-14 53 -14 145z" />
<glyph unicode="&#x2014;" horiz-adv-x="1601" d="M80 594q0 41 3.5 77t6.5 52l4 16h1413q17 -53 17 -145q0 -41 -4 -77t-8 -52l-5 -16h-1413q-14 53 -14 145z" />
<glyph unicode="&#x2018;" horiz-adv-x="542" d="M61 717v317q0 76 21.5 149.5t51.5 124t60.5 90t51.5 58.5l22 19l154 -105q-8 -11 -20.5 -30.5t-35 -82.5t-26.5 -127q34 -2 69.5 -5.5t54.5 -6.5l19 -2v-399q-80 -17 -211 -17q-56 0 -108.5 4t-77.5 8z" />
<glyph unicode="&#x2019;" horiz-adv-x="524" d="M51 1059v399q80 17 211 17q56 0 108.5 -4.5t77.5 -8.5l25 -4v-317q0 -76 -21.5 -149.5t-51.5 -124t-60.5 -90t-51.5 -58.5l-22 -19l-153 105q3 4 8 11t17.5 30.5t23 49.5t20 65.5t11.5 80.5q-33 2 -68.5 6t-54.5 8z" />
<glyph unicode="&#x201a;" horiz-adv-x="569" d="M74 16v400q80 16 211 16q56 0 108.5 -4t77.5 -8l25 -4v-318q0 -76 -21.5 -149.5t-52 -123.5t-60.5 -89.5t-52 -58.5l-21 -19l-154 104q3 4 8 11t17.5 31.5t23 50.5t20 65.5t11.5 79.5q-33 2 -68 6t-54 7z" />
<glyph unicode="&#x201c;" horiz-adv-x="1024" d="M59 717v317q0 76 21.5 149.5t51.5 124t60.5 90t51.5 58.5l22 19l154 -105q-8 -11 -20.5 -30.5t-35 -82.5t-26.5 -127q34 -2 69.5 -5.5t54.5 -6.5l19 -2v-399q-80 -17 -211 -17q-56 0 -108.5 4t-77.5 8zM543 717v317q0 76 21.5 149.5t51.5 124t60.5 90t51.5 58.5l22 19 l153 -105q-8 -11 -20.5 -30.5t-35 -82.5t-26.5 -127q34 -2 70 -5.5t55 -6.5l19 -2v-399q-80 -17 -211 -17q-56 0 -108.5 4t-77.5 8z" />
<glyph unicode="&#x201d;" horiz-adv-x="1007" d="M51 1059v399q80 17 211 17q56 0 108.5 -4.5t77.5 -8.5l25 -4v-317q0 -76 -21.5 -149.5t-51.5 -124t-60.5 -90t-51.5 -58.5l-22 -19l-153 105q3 4 8 11t17.5 30.5t23 49.5t20 65.5t11.5 80.5q-33 2 -68.5 6t-54.5 8zM535 1059v399q79 17 210 17q56 0 108.5 -4.5t77.5 -8.5 l25 -4v-317q0 -76 -21 -149.5t-51.5 -124t-61 -90t-51.5 -58.5l-21 -19l-154 105q3 4 8 11t17.5 30.5t23 49.5t20 65.5t11.5 80.5q-33 2 -68 6t-54 8z" />
<glyph unicode="&#x201e;" horiz-adv-x="1052" d="M74 16v400q80 16 211 16q56 0 108.5 -4t77.5 -8l25 -4v-318q0 -76 -21.5 -149.5t-52 -123.5t-60.5 -89.5t-52 -58.5l-21 -19l-154 104q3 4 8 11t17.5 31.5t23 50.5t20 65.5t11.5 79.5q-33 2 -68 6t-54 7zM557 16v400q80 16 211 16q56 0 108.5 -4t77.5 -8l25 -4v-318 q0 -76 -21.5 -149.5t-51.5 -123.5t-60.5 -89.5t-51.5 -58.5l-22 -19l-154 104q3 4 8 11t17.5 31.5t23 50.5t20 65.5t11.5 79.5q-33 2 -68 6t-54 7z" />
<glyph unicode="&#x2022;" horiz-adv-x="765" d="M88 578q0 130 84.5 211t212.5 81q126 0 209.5 -81t83.5 -211q0 -129 -83.5 -209t-209.5 -80q-128 0 -212.5 80t-84.5 209z" />
<glyph unicode="&#x2026;" horiz-adv-x="1531" d="M72 16v398q74 16 211 16q60 0 113 -4t76 -8l22 -4v-398q-76 -16 -211 -16q-60 0 -112.5 4t-75.5 8zM555 16v398q74 16 211 16q60 0 113 -4t75 -8l23 -4v-398q-76 -16 -211 -16q-60 0 -113 4t-75 8zM1038 16v398q74 16 211 16q60 0 112.5 -4t75.5 -8l23 -4v-398 q-76 -16 -211 -16q-60 0 -112.5 4t-75.5 8z" />
<glyph unicode="&#x202f;" horiz-adv-x="409" />
<glyph unicode="&#x2039;" horiz-adv-x="714" d="M41 545q0 44 4.5 82.5t8.5 55.5l5 17l494 373q44 -47 71.5 -117.5t32.5 -144.5l-247 -260l247 -258q-8 -83 -31.5 -144.5t-72.5 -117.5l-494 366q-18 52 -18 148z" />
<glyph unicode="&#x203a;" horiz-adv-x="714" d="M57 293l248 258l-248 260q5 74 33 144.5t72 117.5l493 -373q19 -57 19 -155q0 -43 -5 -80t-9 -53l-5 -15l-493 -366q-91 104 -105 262z" />
<glyph unicode="&#x205f;" horiz-adv-x="511" />
<glyph unicode="&#x20ac;" horiz-adv-x="1253" d="M52.5 525.5q8.5 72.5 29.5 117.5h104v43v45h-133q-9 50 -0.5 122.5t29.5 117.5h137q57 208 204.5 315t381.5 107q68 0 132.5 -9t108 -22t77 -26t49.5 -22l16 -9q0 -75 -35.5 -149.5t-89.5 -111.5q-98 39 -211 39q-77 0 -127 -25.5t-78 -86.5h395q9 -50 1 -122.5 t-29 -117.5h-408q-2 -16 -2 -47q0 -27 2 -41h352q9 -50 1 -122.5t-29 -117.5h-283q28 -61 77 -85.5t128 -24.5q48 0 106 9.5t92 19.5l33 10q55 -43 89 -118.5t34 -145.5q-6 -4 -17.5 -9.5t-50.5 -21t-82 -27t-111.5 -21t-139.5 -9.5q-474 0 -586 423h-166q-9 50 -0.5 122.5z " />
<glyph unicode="&#x2122;" horiz-adv-x="1257" d="M45 1399q0 52 8 76h473q9 -24 9 -74q0 -31 -9 -72h-145v-436q-39 -8 -90 -8q-24 0 -46 2t-32 4l-10 2v436h-150q-8 21 -8 70zM563 893v573q79 9 111 9t59.5 -2.5t38.5 -4.5l12 -2l43 -151q29 -101 33 -141q6 22 17.5 68t17.5 69l43 155q39 9 109 9q26 0 55.5 -2.5 t45.5 -4.5l17 -2v-573q-31 -8 -82 -8q-24 0 -45 2t-30 4l-9 2v211q0 60 5 143q-3 -9 -9.5 -29.5t-11 -36.5t-6.5 -24l-37 -133q-27 -8 -84 -8q-25 0 -46 2t-30 4l-8 2l-45 186l-12 37q0 -19 1 -57t1 -86v-211q-29 -8 -76 -8q-22 0 -41.5 2t-27.5 4z" />
<glyph unicode="&#x25fc;" horiz-adv-x="1095" d="M0 0v1096h1096v-1096h-1096z" />
</font>
</defs>
</svg>
